<?xml version="1.0" standalone="no"?>
<!DOCTYPE svg PUBLIC "-//W3C//DTD SVG 1.1//EN" "http://www.w3.org/Graphics/SVG/1.1/DTD/svg11.dtd" >
<svg xmlns="http://www.w3.org/2000/svg">
<metadata></metadata>
<defs>
<font id="dosisbold" horiz-adv-x="524" >
<font-face units-per-em="1000" ascent="800" descent="-200" />
<missing-glyph horiz-adv-x="200" />
<glyph unicode="&#xfb01;" horiz-adv-x="566" d="M51 40v493q0 92 67.5 155.5t179.5 63.5q66 0 118.5 -20.5t52.5 -50.5q0 -19 -13 -47t-33 -28q-6 0 -41.5 18.5t-82.5 18.5q-56 0 -87.5 -27t-31.5 -78v-63h102q16 0 25 -14t9 -33t-9 -33t-25 -14h-102v-341q0 -18 -19.5 -29t-46.5 -11t-45 11t-18 29zM388 41v394 q0 18 17.5 29t45.5 11t47 -11t19 -29v-394q0 -15 -20 -28t-46 -13q-27 0 -45 12.5t-18 28.5z" />
<glyph unicode="&#xfb02;" horiz-adv-x="577" d="M51 40v493q0 101 77 160t186 59q58 0 116 -16.5t88 -46.5v-648q0 -16 -19.5 -28.5t-46.5 -12.5q-26 0 -44.5 12.5t-18.5 28.5v583q-29 21 -80 21q-52 0 -90.5 -28.5t-38.5 -78.5v-63h102q16 0 25 -14t9 -33t-9 -33t-25 -14h-102v-341q0 -18 -19.5 -29t-46.5 -11t-45 11 t-18 29z" />
<glyph horiz-adv-x="0" />
<glyph horiz-adv-x="0" />
<glyph unicode="&#xd;" horiz-adv-x="333" />
<glyph unicode=" "  horiz-adv-x="200" />
<glyph unicode="&#x09;" horiz-adv-x="200" />
<glyph unicode="&#xa0;" horiz-adv-x="200" />
<glyph unicode="!" horiz-adv-x="220" d="M42 62q0 28 19.5 48t48.5 20q28 0 48 -20t20 -48q0 -27 -20 -47.5t-48 -20.5q-29 0 -48.5 20t-19.5 48zM47 680q0 26 17.5 40.5t44.5 14.5t45 -15t18 -40q0 -66 -7 -220t-7 -220q0 -18 -15.5 -28t-33.5 -10q-49 0 -49 38q0 66 -6.5 220t-6.5 220z" />
<glyph unicode="&#x22;" horiz-adv-x="303" d="M28 735q0 14 14 23.5t33 9.5t34 -9.5t15 -23.5l-10 -138q0 -13 -10 -23t-29 -10t-28 9.5t-9 23.5zM179 735q0 14 14 23.5t33 9.5t34 -9.5t15 -23.5l-10 -138q0 -13 -9.5 -23t-29.5 -10q-19 0 -28 9.5t-9 23.5z" />
<glyph unicode="#" horiz-adv-x="678" d="M23 267q0 21 10 35.5t26 14.5h97l22 123h-78q-17 0 -27 12.5t-10 34.5q0 21 10 35t26 14h98l27 150q3 12 18.5 19.5t35.5 7.5q25 0 42 -12t17 -37l-23 -128h110l27 150q2 12 17.5 19.5t35.5 7.5q25 0 42 -12t18 -37l-24 -128h78q15 0 26.5 -14t11.5 -34t-11 -34t-26 -14 h-96l-23 -123h78q15 0 27 -14t12 -34q0 -21 -12 -35t-26 -14h-97l-29 -160q-2 -13 -17.5 -21.5t-33.5 -8.5q-24 0 -44 13t-20 35l25 142h-108l-29 -160q-2 -13 -18 -21.5t-32 -8.5q-24 0 -43.5 13t-19.5 35l24 142h-78q-16 0 -26 13t-10 34zM274 317h108l23 123h-109z" />
<glyph unicode="$" horiz-adv-x="525" d="M26 125q0 23 17 46.5t39 23.5q15 0 35.5 -16.5t51.5 -35.5t69 -23v199q-37 14 -56.5 22t-50 26t-46.5 37t-28.5 49t-12.5 67q0 89 55 136.5t139 58.5v28q0 10 10 17.5t24 7.5q13 0 23.5 -7.5t10.5 -17.5v-26q63 -2 117 -21t54 -58q0 -22 -14 -45.5t-39 -23.5 q-10 0 -45 17t-73 20v-176q41 -15 68 -29t58.5 -38.5t47 -61.5t15.5 -85q0 -90 -51 -144t-138 -68v-31q0 -10 -10.5 -17.5t-23.5 -7.5q-14 0 -24 7.5t-10 17.5v28q-87 2 -149.5 41t-62.5 83zM166 533q0 -30 20 -47.5t60 -33.5v151q-80 -13 -80 -70zM298 121q75 15 75 82 q0 34 -19.5 55t-55.5 37v-174z" />
<glyph unicode="%" horiz-adv-x="787" d="M25 457v145q0 67 39 98t104 31t103.5 -31t38.5 -98v-145q0 -67 -38.5 -98t-103.5 -31t-104 31t-39 98zM112 457q0 -54 56 -54q57 0 57 54v145q0 54 -57 54q-56 0 -56 -54v-145zM171 4q0 7 4 17l360 729q11 21 36 21q19 0 34.5 -13t15.5 -32q0 -10 -4 -18l-360 -726 q-9 -22 -39 -22q-20 0 -33.5 13.5t-13.5 30.5zM476 126v145q0 67 39 98t104 31t103.5 -31t38.5 -98v-145q0 -67 -38.5 -98t-103.5 -31q-143 0 -143 129zM563 126q0 -54 56 -54q57 0 57 54v145q0 54 -57 54q-56 0 -56 -54v-145z" />
<glyph unicode="&#x26;" horiz-adv-x="642" d="M22 210q0 65 36 119.5t89 83.5q-70 79 -70 154q0 84 60 132.5t150 48.5q84 0 140 -38.5t56 -78.5q0 -22 -19 -41t-42 -19q-15 0 -29 11.5t-24.5 25t-32 25t-48.5 11.5q-39 0 -64 -22t-25 -61q0 -12 3 -24.5t11 -26.5l13 -23q5 -9 18 -25l18 -20l22 -22l18 -19l161 -170 q8 18 12.5 38.5t5.5 34t2 33.5t2 27q2 21 14 30.5t44 9.5t43.5 -14.5t11.5 -45.5q0 -100 -56 -194l81 -84q8 -9 8 -22q0 -20 -18.5 -36.5t-41.5 -16.5q-17 0 -32 15l-62 64q-85 -80 -204 -80q-112 0 -181.5 64.5t-69.5 155.5zM153 221q0 -51 36 -84.5t99 -33.5q71 0 112 46 l-180 188q-67 -49 -67 -116z" />
<glyph unicode="'" horiz-adv-x="152" d="M28 735q0 14 14 23.5t33 9.5t34 -9.5t15 -23.5l-10 -138q0 -13 -10 -23t-29 -10t-28 9.5t-9 23.5z" />
<glyph unicode="(" horiz-adv-x="341" d="M48 166v402q0 86 66 143t147 57q64 0 64 -56q0 -25 -11.5 -41t-29.5 -16q-48 0 -77.5 -26.5t-29.5 -60.5v-402q0 -73 107 -73q41 0 41 -57q0 -28 -14 -42t-53 -14q-84 0 -147 47.5t-63 138.5z" />
<glyph unicode=")" horiz-adv-x="341" d="M16 36q0 57 41 57q106 0 106 73v402q0 34 -29 60.5t-77 26.5q-18 0 -29.5 16t-11.5 41q0 56 64 56q81 0 147 -57t66 -143v-402q0 -91 -63 -138.5t-147 -47.5q-39 0 -53 14t-14 42z" />
<glyph unicode="*" horiz-adv-x="470" d="M23 571q0 18 13.5 33t33.5 15q7 0 13 -3l111 -37l-5 111q1 20 14 30.5t32 10.5t32 -10.5t14 -30.5l-5 -112l112 38q8 3 13 3q19 0 32 -16.5t13 -36.5q0 -32 -30 -38l-108 -27l73 -104q7 -9 7 -24q0 -20 -16 -33.5t-36 -13.5q-22 0 -33 17l-68 103l-69 -104 q-10 -16 -30 -16q-17 0 -35.5 13t-18.5 32q0 14 11 27l70 98l-111 32q-29 6 -29 43z" />
<glyph unicode="+" horiz-adv-x="444" d="M21 240q0 23 11 38.5t29 15.5h107v106q0 16 16 28.5t38 12.5q23 0 38 -12.5t15 -28.5v-106h106q16 0 29 -16t13 -38q0 -23 -12.5 -38t-29.5 -15h-106v-107q0 -18 -14.5 -29t-38.5 -11q-23 0 -38.5 11t-15.5 29v107h-107q-18 0 -29 14.5t-11 38.5z" />
<glyph unicode="," horiz-adv-x="193" d="M29 62q0 28 19.5 48t47.5 20t48 -19.5t20 -47.5q0 -17 -55 -146q-8 -17 -27 -17q-15 0 -29 9.5t-14 24.5q0 7 4 14l23 53q-37 20 -37 61z" />
<glyph unicode="-" horiz-adv-x="413" d="M36 240q0 23 11 38.5t29 15.5h260q16 0 29 -16t13 -38q0 -23 -12.5 -38t-29.5 -15h-260q-18 0 -29 14.5t-11 38.5z" />
<glyph unicode="." horiz-adv-x="191" d="M28 62q0 28 19.5 48t48.5 20q27 0 47 -20t20 -48q0 -27 -20 -47.5t-47 -20.5q-29 0 -48.5 20t-19.5 48z" />
<glyph unicode="/" horiz-adv-x="484" d="M17 4q0 9 5 17l359 729q11 21 36 21q19 0 34.5 -13t15.5 -32q0 -10 -4 -18l-359 -726q-11 -22 -39 -22q-21 0 -34.5 13.5t-13.5 30.5z" />
<glyph unicode="0" horiz-adv-x="561" d="M46 223v279q0 119 63.5 174t170.5 55t171 -55t64 -174v-279q0 -119 -64 -174t-171 -55t-170.5 55t-63.5 174zM176 223q0 -115 104 -115q105 0 105 115v279q0 115 -105 115q-104 0 -104 -115v-279zM234 362q0 21 12.5 33.5t34.5 12.5q21 0 33.5 -12.5t12.5 -33.5 t-12.5 -34t-33.5 -13t-34 13t-13 34z" />
<glyph unicode="1" horiz-adv-x="288" d="M3 586q0 31 25 47l118 90q12 10 27 10q22 0 40 -12t18 -30v-650q0 -19 -19.5 -30t-45.5 -11q-27 0 -46 11t-19 30v534l-32 -32q-10 -9 -24 -9q-18 0 -30 16t-12 36z" />
<glyph unicode="2" horiz-adv-x="507" d="M27 41v97q0 44 33 87t80 78l96 69q47 35 80 74t33 78q0 35 -23.5 62t-69.5 27q-39 0 -64 -22t-25 -66q0 -19 -18.5 -33.5t-49.5 -14.5q-59 0 -59 70q0 82 64 133t151 51q91 0 157.5 -55.5t66.5 -147.5q0 -60 -32.5 -112.5t-79.5 -89t-93.5 -67.5t-79 -62t-32.5 -59v-24 h278q16 0 28.5 -16.5t12.5 -39.5t-12.5 -40.5t-28.5 -17.5h-356q-19 0 -38 12t-19 29z" />
<glyph unicode="3" horiz-adv-x="521" d="M20 176q0 29 14 40t48 11q39 0 53 -10.5t14 -35.5q0 -34 28 -53.5t76 -19.5q56 0 81.5 25.5t25.5 82.5v19q0 95 -110 95q-39 0 -39 51t39 51q44 0 68 19.5t24 78.5q0 88 -88 88q-89 0 -89 -67q0 -50 -62 -50q-42 0 -54.5 11.5t-12.5 44.5q0 29 11 57.5t34.5 55.5t68.5 44 t105 17q211 0 211 -179q0 -60 -20.5 -104.5t-57.5 -61.5q102 -40 102 -151v-19q0 -114 -66.5 -168t-173.5 -54q-113 0 -171.5 56t-58.5 126z" />
<glyph unicode="4" horiz-adv-x="502" d="M-1 205q0 13 7 26l237 466q16 34 55 34q20 0 42.5 -14.5t22.5 -35.5q0 -7 -5 -17l-192 -384h117v105q0 20 19 30.5t46 10.5t46 -10.5t19 -30.5v-105h47q19 0 30 -18t11 -43q0 -23 -12.5 -41.5t-28.5 -18.5h-47v-118q0 -19 -19 -30t-46 -11q-26 0 -45.5 11t-19.5 30v118 h-240q-19 0 -31.5 12.5t-12.5 33.5z" />
<glyph unicode="5" horiz-adv-x="509" d="M18 175q0 33 16 46t49 13q38 0 51.5 -13t13.5 -37q0 -36 29 -56t74 -20q106 0 106 111v19q0 56 -27.5 84t-77.5 28h-148q-29 0 -40.5 13t-11.5 38q0 4 0.5 12.5t0.5 13.5l26 263q3 41 25 41h308q18 0 28.5 -17t10.5 -40t-10.5 -40t-28.5 -17h-225l-12 -165h77 q107 0 171 -51.5t64 -162.5v-19q0 -116 -64 -170.5t-169 -54.5q-109 0 -172.5 53.5t-63.5 127.5z" />
<glyph unicode="6" horiz-adv-x="549" d="M46 223v279q0 119 65.5 174t175.5 55q111 0 169.5 -55.5t58.5 -127.5q0 -30 -14.5 -42t-46.5 -12q-68 0 -68 49q0 34 -29.5 54t-72.5 20q-109 0 -109 -115v-109q43 51 133 51q94 0 150.5 -48t56.5 -159v-14q0 -119 -63.5 -174t-170.5 -55t-171 55t-64 174zM175 215 q0 -115 106 -115q104 0 104 115v13q0 114 -105 114t-105 -105v-22z" />
<glyph unicode="7" horiz-adv-x="498" d="M17 536v154q0 15 17.5 28t39.5 13h355q19 0 38 -13t19 -28v-114q0 -26 -25 -76l-253 -486q-10 -19 -37 -19q-32 0 -57 19t-25 46q0 13 6 23l261 468v66h-209v-81q0 -18 -20 -30t-46 -12q-27 0 -45.5 12t-18.5 30z" />
<glyph unicode="8" horiz-adv-x="533" d="M32 200v12q0 144 119 188q-96 34 -96 154q0 91 57 134t155 43q97 0 154 -43t57 -134q0 -120 -96 -154q119 -43 119 -188v-12q0 -106 -64 -156t-170 -50t-170.5 50t-64.5 156zM162 215q0 -115 105 -115q104 0 104 115v20q0 110 -104 110q-105 0 -105 -110v-20zM181 538 q0 -87 86 -87t86 87t-86 87t-86 -87z" />
<glyph unicode="9" horiz-adv-x="550" d="M34 177q0 30 14.5 42t46.5 12q68 0 68 -49q0 -34 29.5 -54t73.5 -20q108 0 108 115v109q-43 -51 -133 -51q-94 0 -150.5 48t-56.5 159v14q0 119 64 174t170 55q107 0 171.5 -55.5t64.5 -173.5v-279q0 -119 -66 -174t-176 -55t-169 56t-59 127zM164 497q0 -114 105 -114 t105 105v22q0 115 -106 115q-104 0 -104 -115v-13z" />
<glyph unicode=":" horiz-adv-x="223" d="M44 62q0 28 19.5 48t48.5 20q27 0 47 -20t20 -48q0 -27 -20 -47.5t-47 -20.5q-29 0 -48.5 20t-19.5 48zM44 354q0 28 19.5 48t48.5 20q27 0 47 -20t20 -48q0 -27 -20 -47.5t-47 -20.5q-29 0 -48.5 20t-19.5 48z" />
<glyph unicode=";" horiz-adv-x="224" d="M42 62q0 28 19.5 48t47.5 20t48 -19.5t20 -47.5q0 -17 -55 -146q-8 -17 -27 -17q-15 0 -29 9.5t-14 24.5q0 7 4 14l23 53q-37 20 -37 61zM47 354q0 28 19.5 48t48.5 20q27 0 47 -20t20 -48q0 -27 -20 -47.5t-47 -20.5q-29 0 -48.5 20t-19.5 48z" />
<glyph unicode="&#x3c;" horiz-adv-x="418" d="M19 277q0 31 27 48l258 169q7 4 17 4q21 0 39 -18t18 -43q0 -23 -16 -33l-193 -127l193 -126q16 -10 16 -34q0 -25 -18 -43t-39 -18q-11 0 -17 5l-258 168q-27 18 -27 48z" />
<glyph unicode="=" horiz-adv-x="445" d="M53 144q0 23 11 38.5t29 15.5h258q16 0 29 -16t13 -38q0 -23 -12.5 -38t-29.5 -15h-258q-18 0 -29 14.5t-11 38.5zM53 347q0 23 11 38.5t29 15.5h258q16 0 29 -16t13 -38q0 -23 -12.5 -38t-29.5 -15h-258q-18 0 -29 14.5t-11 38.5z" />
<glyph unicode="&#x3e;" horiz-adv-x="417" d="M39 117q0 23 16 34l194 126l-194 127q-16 11 -16 33q0 25 18.5 43t39.5 18q11 0 16 -4l259 -169q26 -16 26 -48q0 -30 -26 -48l-259 -168q-5 -5 -16 -5q-21 0 -39.5 18.5t-18.5 42.5z" />
<glyph unicode="?" horiz-adv-x="435" d="M21 617q0 42 50 80t134 38q94 0 150 -48t56 -121q0 -25 -7.5 -49t-16 -40.5t-25 -37t-24.5 -28.5l-26 -25l-19 -16q-34 -27 -42 -54t-8 -78q0 -36 -50 -36q-25 0 -35.5 12t-10.5 44q0 104 60 158l29 24q23 20 34.5 31.5t23 34t11.5 46.5q0 41 -28 63.5t-75 22.5 q-33 0 -55 -11t-30 -23.5t-19.5 -23.5t-26.5 -11q-19 0 -34.5 12.5t-15.5 35.5zM127 62q0 28 19.5 48t47.5 20t48 -20t20 -48q0 -27 -20 -47.5t-48 -20.5t-47.5 20.5t-19.5 47.5z" />
<glyph unicode="@" horiz-adv-x="737" d="M38 209q0 104 36 183.5t114.5 128.5t191.5 49q157 0 244.5 -88t87.5 -243q0 -99 -37.5 -163t-110.5 -64q-42 0 -70 20.5t-35 52.5q-53 -68 -125 -68q-51 0 -88 29t-37 86q0 123 201 123h32v15q0 70 -81 70q-36 0 -65 -13.5t-33 -13.5q-12 0 -21.5 17t-9.5 31 q0 28 44.5 47.5t98.5 19.5q68 0 114.5 -35t46.5 -99v-169q7 -48 36 -48q58 0 58 142q0 277 -250 277q-72 0 -124 -22.5t-80 -64t-41 -90.5t-13 -109q0 -56 11.5 -102t36.5 -84.5t70.5 -60t109.5 -21.5q48 0 88.5 13t44.5 13q14 0 23 -13t9 -25q0 -29 -60 -45.5t-120 -16.5 q-124 0 -210.5 88.5t-86.5 252.5zM312 134q0 -23 12.5 -35.5t33.5 -12.5q34 0 61.5 25.5t27.5 56.5v31h-25q-110 0 -110 -65z" />
<glyph unicode="A" horiz-adv-x="575" d="M9 54q0 2 2 10l193 629q6 21 29.5 32.5t53.5 11.5t54 -11.5t30 -32.5l193 -629q2 -8 2 -10q0 -22 -27 -38t-55 -16q-37 0 -44 26l-38 133h-229l-38 -133q-7 -26 -44 -26q-29 0 -55.5 15.5t-26.5 38.5zM200 261h174l-87 307z" />
<glyph unicode="B" horiz-adv-x="562" d="M60 40v650q0 19 17 30t40 11h193q201 0 201 -176q0 -122 -85 -159q51 -20 77 -56.5t26 -106.5v-21q0 -111 -54 -161.5t-146 -50.5h-212q-25 0 -41 12t-16 28zM189 114h113q97 0 97 109v16q0 56 -24.5 81t-72.5 25h-113v-231zM189 447h112q39 0 59.5 23t20.5 63 q0 39 -21.5 61.5t-59.5 22.5h-111v-170z" />
<glyph unicode="C" horiz-adv-x="550" d="M53 223v279q0 118 64 173.5t167 55.5q105 0 171.5 -52t66.5 -138q0 -37 -15 -50.5t-50 -13.5q-64 0 -65 41q-1 13 -2.5 22.5t-8 25t-16.5 26t-30 18t-47 7.5q-105 0 -105 -115v-279q0 -115 107 -115q32 0 53.5 10t31 28.5t13 33t4.5 35.5q3 41 64 41q35 0 50.5 -13.5 t15.5 -50.5q0 -90 -66.5 -144t-172.5 -54q-103 0 -166.5 55.5t-63.5 173.5z" />
<glyph unicode="D" horiz-adv-x="580" d="M60 40v651q0 16 16 28t41 12h177q107 0 171 -55t64 -174v-273q0 -119 -64 -174t-171 -55h-177q-25 0 -41 12t-16 28zM190 114h104q105 0 105 115v273q0 115 -105 115h-104v-503z" />
<glyph unicode="E" horiz-adv-x="530" d="M60 41v649q0 19 17 30t40 11h356q20 0 30.5 -17t10.5 -39q0 -24 -11 -41t-30 -17h-283v-200h152q19 0 30 -15.5t11 -36.5q0 -19 -10.5 -34.5t-30.5 -15.5h-152v-201h283q19 0 30 -17t11 -41q0 -22 -10.5 -39t-30.5 -17h-356q-23 0 -40 11t-17 30z" />
<glyph unicode="F" horiz-adv-x="508" d="M60 41v649q0 19 17 30t40 11h349q20 0 30 -16.5t10 -39.5q0 -24 -10.5 -41t-29.5 -17h-276v-200h153q19 0 29.5 -15t10.5 -37q0 -20 -10.5 -35t-29.5 -15h-153v-274q0 -19 -19.5 -30t-45.5 -11q-27 0 -46 11t-19 30z" />
<glyph unicode="G" horiz-adv-x="564" d="M52 223v279q0 118 63.5 173.5t166.5 55.5q106 0 172.5 -52t66.5 -140q0 -36 -15.5 -49t-49.5 -13q-64 0 -65 41q-3 44 -25 71.5t-79 27.5q-105 0 -105 -115v-279q0 -115 104 -115q50 0 77.5 29t27.5 86v59h-81q-19 0 -29.5 15t-10.5 36q0 20 11 35.5t29 15.5h170 q19 0 30 -12.5t11 -29.5v-119q0 -119 -64 -174t-171 -55t-170.5 55t-63.5 174z" />
<glyph unicode="H" horiz-adv-x="605" d="M60 41v650q0 20 19 30t46 10t46 -10t19 -30v-261h225v261q0 20 19 30t46 10t46 -10t19 -30v-650q0 -19 -19.5 -30t-45.5 -11q-27 0 -46 11t-19 30v287h-225v-287q0 -19 -19.5 -30t-45.5 -11q-27 0 -46 11t-19 30z" />
<glyph unicode="I" horiz-adv-x="250" d="M60 41v650q0 20 19 30t46 10t46 -10t19 -30v-650q0 -19 -19.5 -30t-45.5 -11q-27 0 -46 11t-19 30z" />
<glyph unicode="J" horiz-adv-x="539" d="M13 193q0 36 15 49.5t50 13.5q61 0 65 -41q4 -107 103 -107q106 0 106 115v394h-102q-19 0 -30 17t-11 41q0 23 10.5 39.5t30.5 16.5h175q23 0 40 -11t17 -30v-467q0 -118 -63.5 -173.5t-166.5 -55.5q-106 0 -172.5 53.5t-66.5 145.5z" />
<glyph unicode="K" horiz-adv-x="552" d="M60 41v650q0 20 19 30t46 10t46 -10t19 -30v-273l216 294q14 19 36 19q25 0 50 -21.5t25 -45.5q0 -15 -8 -25l-179 -224l218 -332q7 -10 7 -23q0 -24 -24.5 -44.5t-53.5 -20.5q-30 0 -45 25l-188 285l-54 -68v-196q0 -19 -19.5 -30t-45.5 -11q-27 0 -46 11t-19 30z" />
<glyph unicode="L" horiz-adv-x="484" d="M60 41v650q0 20 19 30t46 10t46 -10t19 -30v-577h244q18 0 28.5 -17t10.5 -40t-10.5 -40t-28.5 -17h-317q-23 0 -40 11t-17 30z" />
<glyph unicode="M" horiz-adv-x="699" d="M60 41v625q0 33 18.5 49t46.5 16q37 0 57 -13t44 -56l123 -224l123 224q24 43 44.5 56t57.5 13q28 0 46.5 -16t18.5 -49v-625q0 -19 -19.5 -30t-45.5 -11q-27 0 -46 11t-19 30v430l-117 -208q-14 -26 -44 -26q-29 0 -43 26l-115 216v-438q0 -19 -19.5 -30t-45.5 -11 q-27 0 -46 11t-19 30z" />
<glyph unicode="N" horiz-adv-x="605" d="M60 41v649q0 20 19 30.5t46 10.5q36 0 55 -13t42 -56l193 -373v402q0 20 19 30t46 10t46 -10t19 -30v-650q0 -19 -19.5 -30t-45.5 -11q-53 0 -75 41l-215 402v-402q0 -19 -19.5 -30t-45.5 -11q-27 0 -46 11t-19 30z" />
<glyph unicode="O" horiz-adv-x="572" d="M52 223v279q0 119 63.5 174t170.5 55t171 -55t64 -174v-279q0 -119 -64 -174t-171 -55t-170.5 55t-63.5 174zM182 223q0 -115 104 -115q105 0 105 115v279q0 115 -105 115q-104 0 -104 -115v-279z" />
<glyph unicode="P" horiz-adv-x="557" d="M60 41v650q0 16 13.5 28t35.5 12h201q103 0 165 -54.5t62 -170.5v-6q0 -117 -64.5 -172t-170.5 -55h-112v-232q0 -19 -19.5 -30t-45.5 -11q-27 0 -46 11t-19 30zM190 375h112q50 0 77.5 29t27.5 86v12q0 57 -27.5 86t-77.5 29h-112v-242z" />
<glyph unicode="Q" horiz-adv-x="572" d="M52 223v279q0 119 63.5 174t170.5 55t171 -55t64 -174v-279q0 -106 -52 -161t-142 -65v-65q0 -19 -12 -30t-29 -11t-29.5 11t-12.5 30v65q-192 21 -192 226zM182 223q0 -87 62 -107v53q0 20 12.5 30t29.5 10t29 -10t12 -30v-53q64 21 64 107v279q0 57 -27.5 86t-77.5 29 q-104 0 -104 -115v-279z" />
<glyph unicode="R" horiz-adv-x="570" d="M60 41v650q0 16 12 28t30 12h198q237 0 237 -209q0 -82 -35.5 -132t-95.5 -68l131 -243q5 -6 5 -16q0 -25 -26 -46.5t-55 -21.5t-45 31l-142 276h-84v-261q0 -19 -19 -30t-46 -11q-26 0 -45.5 11t-19.5 30zM190 404h110q107 0 107 106q0 107 -107 107h-110v-213z" />
<glyph unicode="S" horiz-adv-x="522" d="M24 115q0 23 17.5 46.5t39.5 23.5q13 0 29.5 -12t32 -26.5t44.5 -26.5t64 -12q48 0 80 22t32 65q0 30 -17.5 53.5t-46 39t-62.5 30t-68.5 32.5t-63 40.5t-46 60t-17.5 85.5q0 53 21.5 93.5t57.5 63t77 33t87 10.5q26 0 55 -3.5t61.5 -11.5t53 -25t20.5 -40 q0 -22 -14 -45.5t-38 -23.5q-9 0 -49 19t-89 19q-54 0 -83.5 -20.5t-29.5 -56.5q0 -29 24 -50.5t59.5 -35t77 -34t77 -44.5t59.5 -69.5t24 -106.5q0 -104 -65.5 -160.5t-172.5 -56.5q-95 0 -163 39t-68 85z" />
<glyph unicode="T" horiz-adv-x="528" d="M12 673q0 23 10.5 40.5t30.5 17.5h423q20 0 30.5 -17.5t10.5 -40.5q0 -24 -11 -41.5t-30 -17.5h-146v-573q0 -19 -19.5 -30t-45.5 -11q-27 0 -46 11t-19 30v573h-147q-19 0 -30 17t-11 42z" />
<glyph unicode="U" horiz-adv-x="594" d="M57 223v468q0 20 19 30t46 10t46 -10t19 -30v-468q0 -115 110 -115t110 115v468q0 20 19 30t46 10t46 -10t19 -30v-468q0 -118 -65.5 -173.5t-174.5 -55.5t-174.5 55t-65.5 174z" />
<glyph unicode="V" horiz-adv-x="575" d="M9 677q0 23 26.5 38.5t55.5 15.5q37 0 44 -26l153 -542l152 542q7 26 44 26q28 0 55 -16t27 -38q0 -2 -2 -10l-192 -629q-6 -21 -30 -32.5t-54 -11.5q-69 0 -84 44l-193 629q-2 8 -2 10z" />
<glyph unicode="W" horiz-adv-x="883" d="M9 679q0 21 27 36.5t56 15.5q36 0 43 -26l158 -542l85 348q9 36 64 36q54 0 63 -36l85 -348l158 542q7 26 43 26q29 0 56 -15.5t27 -36.5q0 -6 -2 -12l-198 -629q-15 -44 -85 -44q-30 0 -54 11.5t-29 32.5l-64 270l-65 -270q-5 -21 -29 -32.5t-54 -11.5q-31 0 -55 11.5 t-30 32.5l-198 629q-2 6 -2 12z" />
<glyph unicode="X" horiz-adv-x="561" d="M13 60q0 10 8 24l173 282l-167 281q-9 15 -9 28q0 25 26.5 43t56.5 18q28 0 43 -28l136 -245l136 245q16 28 44 28q30 0 56.5 -18t26.5 -43q0 -13 -9 -28l-167 -281l173 -282q7 -13 7 -24q0 -26 -28 -45.5t-57 -19.5q-24 0 -35 21l-147 257l-146 -257q-12 -21 -36 -21 q-28 0 -56.5 19.5t-28.5 45.5z" />
<glyph unicode="Y" horiz-adv-x="574" d="M9 677q0 22 28.5 38t57.5 16q27 0 40 -26l152 -289l153 289q14 26 39 26q29 0 57.5 -16t28.5 -38q0 -8 -3 -13l-206 -358q-4 -6 -4 -13v-252q0 -19 -19 -30t-46 -11q-26 0 -45.5 11t-19.5 30v252q0 9 -3 13l-207 358q-3 8 -3 13z" />
<glyph unicode="Z" horiz-adv-x="522" d="M14 36q0 22 14 45l297 536h-253q-19 0 -29.5 16.5t-10.5 40.5q0 23 10 40t30 17h380q39 0 39 -35q0 -22 -15 -47l-296 -535h288q18 0 29.5 -17.5t11.5 -39.5t-11.5 -39.5t-29.5 -17.5h-415q-39 0 -39 36z" />
<glyph unicode="[" horiz-adv-x="341" d="M56 20v707q0 19 17 30t40 11h172q20 0 30 -16.5t10 -39.5q0 -24 -11 -41t-29 -17h-99v-561h99q18 0 29 -17t11 -41q0 -23 -10 -39.5t-30 -16.5h-172q-23 0 -40 11t-17 30z" />
<glyph unicode="\" horiz-adv-x="370" d="M19 711q0 17 14.5 30.5t34.5 13.5q29 0 38 -26l243 -672q2 -4 2 -12q0 -18 -14.5 -32t-33.5 -14q-29 0 -39 28l-243 670q-2 10 -2 14z" />
<glyph unicode="]" horiz-adv-x="342" d="M16 35q0 24 11 41t30 17h99v561h-99q-19 0 -30 17t-11 41q0 22 10.5 39t30.5 17h171q23 0 40.5 -11t17.5 -30v-707q0 -19 -17.5 -30t-40.5 -11h-171q-20 0 -30.5 17t-10.5 39z" />
<glyph unicode="^" horiz-adv-x="285" d="M0 616q0 26 22 37l104 56q8 5 17 5q7 0 17 -5l104 -55q21 -13 21 -39q0 -15 -8 -27t-20 -12q-5 0 -10 3l-104 56l-104 -56q-6 -3 -11 -3q-12 0 -20 12t-8 28z" />
<glyph unicode="_" horiz-adv-x="316" d="M-42 -54q0 23 11 38.5t29 15.5h320q16 0 29 -16t13 -38q0 -23 -12.5 -38t-29.5 -15h-320q-18 0 -29 14.5t-11 38.5z" />
<glyph unicode="`" horiz-adv-x="202" d="M0 665q0 18 12 33.5t28 15.5q3 0 13 -2l132 -64q17 -8 17 -31q0 -17 -12 -33t-28 -16q-4 0 -14 4l-130 63q-18 8 -18 30z" />
<glyph unicode="a" horiz-adv-x="471" d="M22 124q0 81 60 114t173 33h41v13q0 37 -21.5 64.5t-66.5 27.5t-77 -15.5t-37 -15.5q-20 0 -32 20t-12 44q0 29 51.5 50.5t108.5 21.5q109 0 162 -55.5t53 -139.5v-245q0 -17 -18 -29t-45 -12q-25 0 -41.5 12t-16.5 29v29q-69 -79 -152 -79q-57 0 -93.5 34t-36.5 99z M151 141q0 -27 14.5 -40.5t38.5 -13.5q32 0 62 30t30 66v21h-15q-61 0 -95.5 -12.5t-34.5 -50.5z" />
<glyph unicode="b" horiz-adv-x="519" d="M51 41v671q0 18 17.5 29t45.5 11t47 -11t19 -29v-307q17 32 50.5 54t77.5 22q73 0 125.5 -60t52.5 -143v-82q0 -81 -53 -143t-122 -62q-45 0 -84 23.5t-55 55.5v-29q0 -15 -17.5 -28t-40.5 -13q-27 0 -45 12.5t-18 28.5zM180 178q0 -19 27.5 -46.5t62.5 -27.5t61 28.5 t26 63.5v82q0 35 -26 62.5t-62 27.5q-34 0 -61.5 -25t-27.5 -65v-100z" />
<glyph unicode="c" horiz-adv-x="434" d="M34 196v80q0 92 54 148.5t162 56.5q68 0 114 -24t46 -54q0 -21 -15 -42t-36 -21q-6 0 -35.5 14t-63.5 14q-97 0 -97 -92v-80q0 -92 98 -92q34 0 63 15t37 15q24 0 39.5 -20t15.5 -41q0 -31 -48.5 -56.5t-116.5 -25.5q-109 0 -163 56t-54 149z" />
<glyph unicode="d" horiz-adv-x="520" d="M33 196v82q0 83 52.5 143t125.5 60q44 0 77.5 -22t51.5 -54v307q0 18 18.5 29t46.5 11t46 -11t18 -29v-671q0 -16 -18.5 -28.5t-45.5 -12.5q-23 0 -40.5 13t-17.5 28v29q-16 -32 -54.5 -55.5t-84.5 -23.5q-69 0 -122 62t-53 143zM162 196q0 -35 26 -63.5t61 -28.5 t63 27.5t28 46.5v100q0 40 -27.5 65t-62.5 25q-36 0 -62 -27.5t-26 -62.5v-82z" />
<glyph unicode="e" horiz-adv-x="484" d="M32 196v85q0 82 64 141t155 59q85 0 145.5 -53.5t60.5 -134.5q0 -30 -7.5 -49.5t-23 -27.5t-28.5 -10t-34 -2h-203v-15q0 -43 32 -69.5t85 -26.5q38 0 75 19t48 19q21 0 35 -19.5t14 -37.5q0 -28 -50.5 -55.5t-125.5 -27.5q-107 0 -174.5 56.5t-67.5 148.5zM161 280h146 q16 0 22.5 5.5t6.5 21.5q0 35 -25.5 57t-62.5 22q-35 0 -61 -21.5t-26 -56.5v-28z" />
<glyph unicode="f" horiz-adv-x="340" d="M51 40v516q0 83 51.5 139.5t124.5 56.5h59q23 0 36 -16t13 -38q0 -23 -13 -39t-36 -16h-32q-33 0 -53.5 -20t-20.5 -53v-95h122q15 0 24 -14t9 -33t-9 -33t-24 -14h-122v-341q0 -18 -19.5 -29t-46.5 -11t-45 11t-18 29z" />
<glyph unicode="g" horiz-adv-x="470" d="M15 -80q0 69 73 106q-42 20 -42 64t51 78q-62 48 -62 127v21q0 73 54 119t141 46q66 0 114 -29q30 68 61 68q23 0 37 -13t14 -27q0 -16 -16 -28q-37 -26 -47 -38q35 -41 35 -98v-21q0 -72 -55.5 -119.5t-142.5 -47.5q-36 0 -65 9q-12 -10 -12 -20q0 -17 31 -25 t75.5 -13.5t88.5 -16t75 -42.5t31 -84q0 -78 -63 -117.5t-155 -39.5q-93 0 -157 38t-64 103zM137 -67q0 -33 28 -52t69 -19t68 19t27 51q0 14 -5 24.5t-17.5 17.5t-22 11.5t-30.5 8t-30.5 4.5t-32.5 4q-54 -25 -54 -69zM160 296q0 -39 19 -64.5t53 -25.5q33 0 52 24.5 t19 64.5v21q0 37 -19.5 62t-52.5 25t-52 -24.5t-19 -62.5v-20z" />
<glyph unicode="h" d="M51 41v671q0 18 17.5 29t46.5 11q27 0 46 -11t19 -29v-307q15 32 48 54t78 22q69 0 120.5 -60t51.5 -143v-237q0 -19 -19.5 -30t-45.5 -11q-25 0 -44.5 11t-19.5 30v237q0 34 -26 62t-61 28q-33 0 -57.5 -25t-24.5 -65v-237q0 -15 -19.5 -28t-45.5 -13q-27 0 -45.5 12.5 t-18.5 28.5z" />
<glyph unicode="i" horiz-adv-x="229" d="M43 644q0 26 20.5 44.5t50.5 18.5q29 0 49.5 -18.5t20.5 -44.5q0 -25 -20.5 -44t-49.5 -19q-30 0 -50.5 19t-20.5 44zM50 41v394q0 18 18 29t46 11t46.5 -11t18.5 -29v-394q0 -15 -19.5 -28t-45.5 -13q-27 0 -45.5 12.5t-18.5 28.5z" />
<glyph unicode="j" horiz-adv-x="231" d="M-38 -168q0 25 14 40.5t35 15.5q25 0 32.5 20t7.5 60v467q0 18 18 29t45 11q28 0 47 -11t19 -29v-467q0 -86 -39 -137.5t-112 -51.5q-67 0 -67 53zM44 644q0 26 20.5 44.5t50.5 18.5q29 0 49.5 -18.5t20.5 -44.5q0 -25 -20.5 -44t-49.5 -19q-30 0 -50.5 19t-20.5 44z" />
<glyph unicode="k" horiz-adv-x="492" d="M51 41v671q0 18 17.5 29t45.5 11t47 -11t19 -29v-419l188 177q12 10 26 10q21 0 42 -20t21 -42q0 -13 -11 -24l-118 -107l147 -210q7 -10 7 -21q0 -22 -24.5 -43t-48.5 -21q-20 0 -32 17l-135 199l-62 -57v-110q0 -15 -20 -28t-46 -13q-27 0 -45 12.5t-18 28.5z" />
<glyph unicode="l" horiz-adv-x="247" d="M59 41v671q0 18 17.5 29t46.5 11q27 0 46 -11t19 -29v-671q0 -15 -19.5 -28t-45.5 -13q-27 0 -45.5 12.5t-18.5 28.5z" />
<glyph unicode="m" horiz-adv-x="803" d="M50 41v394q0 18 17.5 29t46.5 11q24 0 40.5 -11t16.5 -29v-30q43 76 132 76q42 0 75.5 -27.5t49.5 -72.5q25 49 65.5 74.5t85.5 25.5q72 0 125 -55t53 -148v-237q0 -15 -19.5 -28t-45.5 -13q-25 0 -44.5 13t-19.5 28v237q0 42 -24 66.5t-57 24.5q-32 0 -55.5 -24.5 t-23.5 -65.5v-239q0 -20 -19 -30t-46 -10q-25 0 -44.5 10.5t-19.5 29.5v238q0 40 -24.5 65t-57.5 25q-32 0 -55 -24t-23 -66v-237q0 -15 -19.5 -28t-45.5 -13q-27 0 -45.5 12.5t-18.5 28.5z" />
<glyph unicode="n" horiz-adv-x="523" d="M50 41v394q0 18 17.5 29t46.5 11q24 0 40.5 -11t16.5 -29v-30q16 32 51.5 54t82.5 22q69 0 120.5 -60t51.5 -143v-237q0 -19 -19.5 -30t-45.5 -11q-25 0 -44.5 11t-19.5 30v237q0 35 -26 62.5t-61 27.5q-33 0 -57.5 -25t-24.5 -65v-237q0 -15 -19.5 -28t-45.5 -13 q-27 0 -45.5 12.5t-18.5 28.5z" />
<glyph unicode="o" horiz-adv-x="498" d="M32 196v82q0 82 64 142.5t153 60.5q87 0 152 -60t65 -143v-82q0 -81 -65 -143t-152 -62t-152 62t-65 143zM161 196q0 -36 26 -64t62 -28q35 0 61.5 28t26.5 64v82q0 34 -26.5 62t-61.5 28q-36 0 -62 -27.5t-26 -62.5v-82z" />
<glyph unicode="p" horiz-adv-x="519" d="M51 -180v615q0 18 17.5 29t43.5 11t43 -11t17 -29v-30q19 32 54.5 54t80.5 22q75 0 127 -59.5t52 -143.5v-82q0 -81 -53 -143t-122 -62q-43 0 -79.5 23.5t-51.5 55.5v-250q0 -16 -19.5 -28.5t-46.5 -12.5t-45 12.5t-18 28.5zM180 178q0 -20 27 -47t61 -27q35 0 62 28.5 t27 63.5v82q0 35 -27 62.5t-64 27.5q-34 0 -60 -25t-26 -65v-100z" />
<glyph unicode="q" horiz-adv-x="520" d="M33 196v82q0 84 52.5 143.5t127.5 59.5q45 0 80.5 -22t53.5 -54v30q0 18 17 29t43 11t44 -11t18 -29v-615q0 -16 -18.5 -28.5t-45.5 -12.5t-46 12.5t-19 28.5v250q-16 -33 -52.5 -56t-79.5 -23q-69 0 -122 62t-53 143zM162 196q0 -35 27 -63.5t62 -28.5t62 27t27 47v100 q0 40 -26.5 65t-60.5 25q-37 0 -64 -27.5t-27 -62.5v-82z" />
<glyph unicode="r" horiz-adv-x="377" d="M50 41v394q0 18 17.5 29t45.5 11q25 0 41.5 -11t16.5 -29v-41q16 35 50 61t73 26h31q18 0 32.5 -17t14.5 -39q0 -23 -14.5 -40t-32.5 -17h-31q-46 0 -80.5 -41t-34.5 -107v-179q0 -15 -20 -28t-46 -13q-27 0 -45 12.5t-18 28.5z" />
<glyph unicode="s" horiz-adv-x="414" d="M23 77q0 18 13 37.5t30 19.5q11 0 27.5 -11t43.5 -22.5t64 -11.5q73 0 73 43q0 24 -24.5 38t-59 23t-69.5 21.5t-59.5 42t-24.5 75.5q0 61 43 105t136 44q62 0 110.5 -19t48.5 -46q0 -17 -13.5 -39.5t-33.5 -22.5q-8 0 -43.5 14.5t-66.5 14.5q-34 0 -52 -14t-18 -31 t18 -28t44.5 -17t57.5 -16.5t57.5 -24.5t44.5 -43.5t18 -71.5q0 -68 -48.5 -107t-135.5 -39q-75 0 -128 26t-53 60z" />
<glyph unicode="t" horiz-adv-x="347" d="M49 162v485q0 17 20 28.5t44 11.5q26 0 45.5 -11.5t19.5 -28.5v-172h118q15 0 24 -14t9 -33t-9 -33t-24 -14h-118v-219q0 -29 12.5 -41t43.5 -12h39q26 0 40.5 -16t14.5 -38q0 -23 -14.5 -39t-40.5 -16h-39q-185 0 -185 162z" />
<glyph unicode="u" d="M45 194v240q0 15 19.5 28t45.5 13q25 0 44.5 -13t19.5 -28v-240q0 -35 26 -62.5t62 -27.5t61.5 27.5t25.5 62.5v241q0 16 19.5 28t45.5 12q28 0 46 -12t18 -28v-241q0 -81 -64 -142t-152 -61t-152.5 61t-64.5 142z" />
<glyph unicode="v" horiz-adv-x="481" d="M6 426q0 21 29.5 38t56.5 17q29 0 38 -22l111 -290l111 288q9 24 37 24q24 0 55 -17.5t31 -38.5q0 -9 -4 -17l-171 -396q-11 -23 -59 -23t-58 23l-172 396q-5 7 -5 18z" />
<glyph unicode="w" horiz-adv-x="693" d="M7 427q0 22 28 37.5t56 15.5q29 0 37 -21l100 -284l75 247q8 26 44 26t44 -26l74 -248l101 285q8 21 37 21q27 0 55 -16t28 -38q0 -11 -4 -18l-154 -396q-9 -23 -51 -23q-44 0 -53 23l-77 218l-76 -217q-9 -24 -55 -24q-41 0 -50 24l-154 395q-5 10 -5 19z" />
<glyph unicode="x" horiz-adv-x="470" d="M21 55q0 12 8 22l118 165l-110 153q-8 11 -8 21q0 22 30 43.5t56 21.5q20 0 29 -14l91 -146l92 145q10 15 30 15q25 0 55 -21.5t30 -43.5q0 -8 -8 -21l-111 -154l119 -164q8 -8 8 -22q0 -21 -29 -42.5t-55 -21.5q-20 0 -30 14l-101 152l-100 -152q-10 -14 -32 -14 t-52 21.5t-30 42.5z" />
<glyph unicode="y" horiz-adv-x="476" d="M6 -166q0 54 33 54q47 0 92.5 34t50.5 113l-172 368q-4 10 -4 17q0 24 29.5 43t56.5 19q30 0 37 -22l120 -299l97 299q7 22 34 22q26 0 57 -19.5t31 -44.5q0 -8 -3 -15l-146 -373l-17 -44q-12 -34 -17.5 -47t-19 -40.5t-24 -40t-29.5 -31t-38.5 -27t-47.5 -15t-61 -6.5 q-29 0 -44 11t-15 44z" />
<glyph unicode="z" horiz-adv-x="437" d="M21 46q0 26 22 52l197 272h-173q-16 0 -27 15.5t-11 37.5t10.5 37t27.5 15h294q18 0 30 -11.5t12 -32.5q0 -28 -20 -54l-198 -272h196q16 0 27 -15.5t11 -37.5t-10.5 -37t-27.5 -15h-316q-22 0 -33 13.5t-11 32.5z" />
<glyph unicode="{" horiz-adv-x="361" d="M21 386q0 21 9.5 32t20.5 13t20.5 8.5t9.5 19.5q0 9 -8 64t-8 73q0 67 65.5 119.5t144.5 52.5q71 0 71 -57q0 -21 -10.5 -37t-29.5 -16q-38 0 -74.5 -20.5t-36.5 -58.5q0 -13 8 -69t8 -67q0 -19 -12.5 -37t-23.5 -22q12 -3 24 -20.5t12 -37.5q0 -13 -8 -85.5t-8 -84.5 q0 -35 36 -50.5t75 -15.5q21 0 30.5 -17t9.5 -37q0 -56 -73 -56q-81 0 -144.5 46t-63.5 115q0 19 8 90t8 80q0 13 -9.5 20t-20.5 9.5t-20.5 13.5t-9.5 32z" />
<glyph unicode="|" horiz-adv-x="241" d="M56 20v708q0 17 18 28.5t46 11.5q27 0 46 -11.5t19 -28.5v-708q0 -15 -19.5 -28t-45.5 -13q-27 0 -45.5 12.5t-18.5 28.5z" />
<glyph unicode="}" horiz-adv-x="361" d="M15 36q0 20 9.5 37t31.5 17q38 0 74 15.5t36 50.5q0 12 -8 84.5t-8 85.5q0 20 12.5 37t23.5 21q-11 4 -23.5 22t-12.5 37q0 11 8 67t8 69q0 38 -36 58.5t-74 20.5q-19 0 -30 16t-11 37q0 24 17 40.5t55 16.5q79 0 144 -52.5t65 -119.5q0 -18 -8 -73t-8 -64 q0 -13 9.5 -19.5t20.5 -8.5t20.5 -13t9.5 -32t-9.5 -32t-20.5 -13.5t-20.5 -9.5t-9.5 -20q0 -9 8 -80t8 -90q0 -69 -63.5 -115t-144.5 -46q-73 0 -73 56z" />
<glyph unicode="~" horiz-adv-x="411" d="M35 246q0 28 18 44.5t34.5 20t33.5 3.5q29 0 72 -14.5t70 -14.5q24 0 48.5 12t32.5 12q17 0 25 -15t8 -27q0 -22 -9.5 -36.5t-25 -21t-27.5 -8.5t-23 -2q-35 0 -77 14.5t-65 14.5q-24 0 -49 -12t-33 -12q-17 0 -25 15t-8 27z" />
<glyph unicode="&#xa1;" horiz-adv-x="221" d="M42 667q0 27 20 47.5t48 20.5t48 -20.5t20 -47.5q0 -29 -20 -49t-48 -20t-48 20.5t-20 48.5zM48 48q0 67 7 221t7 220q0 18 15.5 28t32.5 10q22 0 36 -9.5t14 -28.5q0 -66 6.5 -220t6.5 -221q0 -25 -17.5 -39.5t-45.5 -14.5q-26 0 -44 14.5t-18 39.5z" />
<glyph unicode="&#xa2;" horiz-adv-x="432" d="M24 361v18q0 85 45.5 140t136.5 64v77q0 15 11 25t27 10t27 -10t11 -25v-79q52 -7 86 -27.5t34 -46.5q0 -21 -15 -40t-37 -19q-7 0 -27.5 11t-40.5 15v-207q20 4 40 16t28 12q25 0 40.5 -18.5t15.5 -39.5q0 -26 -35.5 -48.5t-88.5 -30.5v-82q0 -14 -11.5 -25.5 t-26.5 -11.5q-16 0 -27 11.5t-11 25.5v81q-91 9 -136.5 64t-45.5 140zM137 361q0 -79 69 -96v209q-69 -17 -69 -95v-18z" />
<glyph unicode="&#xa3;" horiz-adv-x="541" d="M21 57q0 23 10.5 40t28.5 17h53l35 252h-56q-15 0 -24 14t-9 33t9 33t24 14h69l14 95q13 92 87 152.5t168 60.5h35q20 0 32 -17t12 -39q0 -23 -12 -40t-32 -17h-40q-52 0 -83.5 -28t-37.5 -72l-14 -95h120q16 0 24.5 -14t8.5 -33t-8.5 -33t-24.5 -14h-133l-36 -252h229 q18 0 28.5 -17t10.5 -40t-10.5 -40t-28.5 -17h-410q-18 0 -28.5 17t-10.5 40z" />
<glyph unicode="&#xa4;" horiz-adv-x="452" d="M48 331q0 7 6 13l28 26q-33 46 -33 102t32 102l-26 25q-5 5 -5 13q0 11 8.5 19.5t19.5 8.5q6 0 13 -5l24 -23q50 40 111 40q59 0 109 -39l25 23q6 5 14 5q10 0 19 -8.5t9 -19.5q0 -7 -6 -13l-26 -25q34 -45 34 -102q0 -58 -35 -104l27 -25q6 -6 6 -13q0 -11 -9 -19.5 t-19 -8.5q-8 0 -14 5l-25 23q-49 -41 -109 -41q-59 0 -111 42l-25 -24q-6 -5 -14 -5q-11 0 -19.5 8.5t-8.5 19.5zM120 472q0 -43 31 -76.5t75 -33.5t75.5 33t31.5 76t-31.5 76t-75.5 33t-75 -32.5t-31 -75.5z" />
<glyph unicode="&#xa5;" horiz-adv-x="563" d="M21 683q0 19 25.5 36t51.5 17q21 0 37 -30l146 -271l147 271q16 30 37 30q25 0 51 -17.5t26 -35.5q0 -8 -4 -16l-164 -266h65q16 0 29 -13.5t13 -32.5t-13 -32t-29 -13h-93v-64h93q16 0 29 -13.5t13 -32.5q0 -20 -12.5 -32.5t-29.5 -12.5h-93v-114q0 -19 -19 -30t-46 -11 t-46 11t-19 30v114h-90q-19 0 -30 12t-11 32q0 21 11.5 34t29.5 13h90v64h-90q-19 0 -30 12t-11 32q0 21 11.5 34t29.5 13h60l-161 266q-4 5 -4 16z" />
<glyph unicode="&#xa6;" horiz-adv-x="239" d="M55 20v250q0 18 18 29.5t46 11.5q27 0 46 -11.5t19 -29.5v-250q0 -15 -19.5 -28t-45.5 -13q-27 0 -45.5 12.5t-18.5 28.5zM55 478v250q0 17 18 28.5t46 11.5q27 0 46 -11.5t19 -28.5v-250q0 -16 -19.5 -29t-45.5 -13q-27 0 -45.5 13t-18.5 29z" />
<glyph unicode="&#xa7;" horiz-adv-x="477" d="M40 99q0 28 14 39.5t41 11.5q56 0 56 -36q0 -75 76 -75q42 0 62.5 19.5t20.5 52.5t-27.5 54.5t-66.5 37.5t-78 37.5t-66.5 66t-27.5 110.5v107q0 59 18 102t48.5 64.5t62 31t66.5 9.5q86 0 133.5 -49.5t47.5 -117.5q0 -29 -12.5 -40t-36.5 -11q-55 0 -55 43q0 28 -16 49 t-56 21q-38 0 -59.5 -20.5t-21.5 -54.5q0 -33 28.5 -54.5t69.5 -37.5t81.5 -37.5t69 -66t28.5 -110.5v-107q0 -58 -18.5 -100t-50 -64t-65 -32t-71.5 -10q-91 0 -143 50.5t-52 116.5zM151 391q0 -47 32 -72.5t82 -43.5t69 -35v21q0 47 -32 72.5t-82 43.5t-69 35v-21z" />
<glyph unicode="&#xa8;" horiz-adv-x="251" d="M0 630q0 21 15 36.5t36 15.5t35.5 -15.5t14.5 -36.5t-14.5 -37t-35.5 -16t-36 16t-15 37zM149 630q0 21 15 36.5t37 15.5q20 0 35 -15.5t15 -36.5t-15 -37t-35 -16q-21 0 -36.5 16t-15.5 37z" />
<glyph unicode="&#xa9;" horiz-adv-x="690" d="M38 358q0 80 28.5 144.5t74.5 103t99.5 59t107.5 20.5t107 -20.5t97.5 -59t72 -102t27.5 -141.5q0 -80 -28.5 -144.5t-74.5 -103t-99.5 -59t-107.5 -20.5t-107 20.5t-97.5 59t-72 102t-27.5 141.5zM100 358q0 -115 66 -188t176 -73t179 73.5t69 191.5q0 115 -66.5 188 t-175.5 73q-110 0 -179 -73.5t-69 -191.5zM227 298v138q0 66 33 97t86 31q54 0 88.5 -29t34.5 -77q0 -21 -8 -28.5t-27 -7.5q-35 0 -36 23q-3 54 -49 54q-51 0 -51 -63v-138q0 -63 51 -63q16 0 26 5.5t14.5 16t6 18t2.5 19.5q1 22 35 22q20 0 28 -7.5t8 -28.5 q0 -50 -34.5 -80t-88.5 -30q-53 0 -86 31t-33 97z" />
<glyph unicode="&#xaa;" horiz-adv-x="334" d="M26 521q0 54 40.5 76t115.5 22h27v9q0 25 -14 43.5t-44 18.5q-31 0 -52 -11t-24 -11q-14 0 -22 13.5t-8 30.5q0 19 34.5 33.5t72.5 14.5q73 0 108 -37.5t35 -93.5v-163q0 -11 -12 -19t-31 -8q-16 0 -27 8t-11 19v20q-45 -53 -98 -53q-39 0 -64.5 22t-25.5 66zM113 533 q0 -36 35 -36q22 0 41.5 19.5t19.5 44.5v13h-21q-75 0 -75 -41z" />
<glyph unicode="&#xab;" horiz-adv-x="499" d="M24 276q0 7 2.5 13.5t9.5 18.5l11 19l73 136q9 17 37 17q30 0 55 -22t25 -43q0 -7 -3 -12l-67 -126l67 -125q3 -6 3 -13q0 -22 -25 -43.5t-56 -21.5q-27 0 -36 17l-73 136q-4 8 -11 19t-9.5 17t-2.5 13zM251 276q0 7 2.5 13.5t9.5 18.5l11 19l74 136q8 17 36 17 q31 0 55.5 -21.5t24.5 -43.5q0 -7 -3 -12l-67 -126l67 -125q3 -6 3 -13q0 -21 -25 -43t-55 -22q-28 0 -36 17l-74 136q-4 8 -11 19t-9.5 17t-2.5 13z" />
<glyph unicode="&#xac;" horiz-adv-x="497" d="M32 240q0 23 11 38.5t29 15.5h334q16 0 29 -16t13 -38v-136q0 -16 -19 -28.5t-46 -12.5t-45.5 12.5t-18.5 28.5v83h-247q-18 0 -29 14.5t-11 38.5z" />
<glyph unicode="&#xad;" horiz-adv-x="473" d="M36 240q0 23 11 38.5t29 15.5h320q16 0 29 -16t13 -38q0 -23 -12.5 -38t-29.5 -15h-320q-18 0 -29 14.5t-11 38.5z" />
<glyph unicode="&#xae;" horiz-adv-x="690" d="M38 358q0 80 28.5 144.5t74.5 103t99.5 59t107.5 20.5t107 -20.5t97.5 -59t72 -102t27.5 -141.5q0 -80 -28.5 -144.5t-74.5 -103t-99.5 -59t-107.5 -20.5t-107 20.5t-97.5 59t-72 102t-27.5 141.5zM100 358q0 -115 66 -188t176 -73t179 73.5t69 191.5q0 115 -66.5 188 t-175.5 73q-110 0 -179 -73.5t-69 -191.5zM238 203v325q0 21 22 23h98q52 0 84.5 -25.5t32.5 -82.5q0 -80 -64 -103l61 -119q1 -2 1 -7q0 -13 -12 -24.5t-25 -11.5q-14 0 -21 18l-66 133h-44v-126q0 -24 -32 -24q-14 0 -24.5 6.5t-10.5 17.5zM305 386h53q51 0 51 50 q0 55 -51 55h-53v-105z" />
<glyph unicode="&#xaf;" horiz-adv-x="286" d="M0 652q0 18 11 30.5t29 12.5h205q16 0 28.5 -12.5t12.5 -30.5t-12.5 -30t-28.5 -12h-205q-18 0 -29 11.5t-11 30.5z" />
<glyph unicode="&#xb0;" horiz-adv-x="399" d="M22 588q0 72 52.5 126t124.5 54q71 0 124.5 -53t53.5 -126t-53.5 -128t-124.5 -55t-124 55t-53 127zM93 588q0 -43 31 -76.5t75 -33.5t75.5 33t31.5 76t-31.5 76t-75.5 33t-75 -32.5t-31 -75.5z" />
<glyph unicode="&#xb1;" horiz-adv-x="471" d="M35 85q0 23 11 38.5t29 15.5h320q16 0 28.5 -16t12.5 -38q0 -23 -12.5 -38t-28.5 -15h-320q-18 0 -29 14.5t-11 38.5zM35 368q0 24 11 39.5t29 15.5h107v98q0 15 16 28t38 13q23 0 38 -12.5t15 -28.5v-98h106q16 0 28.5 -16t12.5 -39t-12.5 -38t-28.5 -15h-106v-99 q0 -18 -14.5 -29t-38.5 -11q-23 0 -38.5 11t-15.5 29v99h-107q-18 0 -29 15t-11 38z" />
<glyph unicode="&#xb2;" horiz-adv-x="322" d="M24 358v53q0 29 29.5 58t64.5 50t64.5 47t29.5 49q0 15 -12.5 27t-36.5 12q-47 0 -47 -41q0 -13 -13 -22t-33 -9q-39 0 -39 44q0 48 39 76.5t92 28.5q55 0 95.5 -30.5t40.5 -82.5q0 -39 -29 -73t-63 -53.5t-63 -40t-29 -35.5v-10h158q11 0 18.5 -11t7.5 -26t-8 -26.5 t-18 -11.5h-210q-13 0 -25.5 8t-12.5 19z" />
<glyph unicode="&#xb3;" horiz-adv-x="329" d="M20 432q0 18 8.5 24.5t31.5 6.5q26 0 35 -6t9 -22q0 -32 57 -32q31 0 44.5 11.5t13.5 37.5v10q0 26 -15.5 34.5t-44.5 8.5q-26 0 -26 33t26 34q16 1 24.5 3t16.5 12.5t8 30.5q0 40 -47 40q-48 0 -48 -28q0 -31 -40 -31q-28 0 -36 7t-8 27q0 39 31.5 68.5t100.5 29.5 q129 0 129 -99q0 -70 -46 -90q60 -20 60 -80v-10q0 -64 -40 -94t-106 -30q-68 0 -103 32t-35 72z" />
<glyph unicode="&#xb4;" horiz-adv-x="202" d="M0 617q0 23 17 31l132 64q10 2 13 2q16 0 28 -15.5t12 -33.5q0 -22 -18 -30l-130 -63q-10 -4 -14 -4q-16 0 -28 16t-12 33z" />
<glyph unicode="&#xb5;" horiz-adv-x="518" d="M56 -180v614q0 15 19.5 28t45.5 13q25 0 44.5 -13t19.5 -28v-245q0 -30 27 -57.5t62 -27.5q34 0 59.5 27.5t25.5 62.5v240q0 17 19 29t46 12q28 0 46 -12t18 -29v-240q0 -82 -63 -142.5t-152 -60.5q-57 0 -103 39v-210q0 -16 -15 -28.5t-36 -12.5q-26 0 -44.5 12.5 t-18.5 28.5z" />
<glyph unicode="&#xb6;" horiz-adv-x="555" d="M23 513v12q0 107 53.5 156.5t142.5 49.5h232q17 0 29 -11t12 -30v-650q0 -20 -12 -30t-29 -10t-29.5 10t-12.5 30v632h-82v-631q0 -19 -12.5 -30t-29.5 -11t-29 11t-12 30v265h-25q-89 0 -142.5 50t-53.5 157z" />
<glyph unicode="&#xb7;" horiz-adv-x="206" d="M31 300q0 26 21 44.5t51 18.5t50.5 -18.5t20.5 -44.5t-20.5 -45t-50.5 -19t-51 19t-21 45z" />
<glyph unicode="&#xb8;" horiz-adv-x="190" d="M0 -187q0 9 6.5 23t16.5 14q3 0 21 -7t37 -7q47 0 47 33t-48 37l-55 5l28 98h57l-19 -60q49 -2 74 -23.5t25 -53.5q0 -33 -25.5 -60.5t-79.5 -27.5q-30 0 -57.5 7.5t-27.5 21.5z" />
<glyph unicode="&#xb9;" horiz-adv-x="193" d="M7 655q0 21 15 30l76 44q10 4 16 4q15 0 27 -8t12 -20v-347q0 -13 -13 -20t-30 -7q-18 0 -31 7t-13 20v278l-17 -10q-7 -4 -15 -4q-12 0 -19.5 10t-7.5 23z" />
<glyph unicode="&#xba;" horiz-adv-x="344" d="M27 569v55q0 55 42.5 95.5t101.5 40.5t102 -40t43 -96v-55q0 -54 -43.5 -95.5t-101.5 -41.5q-57 0 -100.5 41.5t-43.5 95.5zM113 569q0 -24 17 -42.5t41 -18.5t41.5 18.5t17.5 42.5v55q0 24 -17.5 42t-41.5 18t-41 -18t-17 -42v-55z" />
<glyph unicode="&#xbb;" horiz-adv-x="500" d="M35 139q0 7 3 13l67 125l-67 126q-3 5 -3 12q0 21 25 43t55 22q28 0 37 -17l73 -136l11 -19q7 -12 9.5 -18.5t2.5 -13.5t-2.5 -13t-9.5 -17t-11 -19l-73 -136q-9 -17 -36 -17q-31 0 -56 21.5t-25 43.5zM262 139q0 7 3 13l67 125l-67 126q-3 5 -3 12q0 22 25 43.5t56 21.5 q28 0 36 -17l74 -136l11 -19q7 -12 9.5 -18.5t2.5 -13.5t-2.5 -13t-9.5 -17t-11 -19l-74 -136q-8 -17 -36 -17q-31 0 -56 21.5t-25 43.5z" />
<glyph unicode="&#xbc;" horiz-adv-x="665" d="M25 655q0 21 15 30l76 44q10 4 16 4q15 0 27 -8t12 -20v-347q0 -13 -13 -20t-30 -7q-18 0 -31 7t-13 20v278l-17 -10q-7 -4 -15 -4q-12 0 -19.5 10t-7.5 23zM78 4q0 7 4 17l360 729q10 21 36 21q18 0 34 -13t16 -32q0 -10 -4 -18l-360 -726q-9 -22 -39 -22 q-20 0 -33.5 13.5t-13.5 30.5zM338 114q0 8 4 16l138 248q13 22 36 22q13 0 28 -9.5t15 -22.5q0 -6 -3 -11l-108 -194h58v38q0 13 13 19.5t30 6.5q44 0 44 -26v-38h26q26 0 26 -39q0 -15 -8 -27.5t-18 -12.5h-26v-58q0 -12 -13 -19t-31 -7q-17 0 -30 7t-13 19v58h-140 q-28 0 -28 30z" />
<glyph unicode="&#xbd;" horiz-adv-x="654" d="M22 655q0 21 15 30l76 44q10 4 16 4q15 0 27 -8t12 -20v-347q0 -13 -13 -20t-30 -7q-18 0 -31 7t-13 20v278l-17 -10q-7 -4 -15 -4q-12 0 -19.5 10t-7.5 23zM59 4q0 7 4 17l360 729q11 21 36 21q19 0 34.5 -13t15.5 -32q0 -10 -4 -18l-360 -726q-9 -22 -39 -22 q-20 0 -33.5 13.5t-13.5 30.5zM353 26v54q0 28 29.5 57.5t64.5 50.5t64.5 47t29.5 49q0 15 -12.5 26.5t-36.5 11.5q-47 0 -47 -41q0 -12 -13 -21.5t-33 -9.5q-39 0 -39 45q0 48 39 76.5t92 28.5q55 0 95.5 -30.5t40.5 -83.5q0 -39 -28.5 -73t-63.5 -53.5t-63.5 -40 t-28.5 -35.5v-9h158q11 0 18.5 -11t7.5 -26t-8 -26.5t-18 -11.5h-210q-13 0 -25.5 7.5t-12.5 18.5z" />
<glyph unicode="&#xbe;" horiz-adv-x="799" d="M28 432q0 18 8.5 24.5t31.5 6.5q26 0 35 -6t9 -22q0 -32 57 -32q31 0 44.5 11.5t13.5 37.5v10q0 26 -15.5 34.5t-44.5 8.5q-26 0 -26 33t26 34q16 1 24.5 3t16.5 12.5t8 30.5q0 40 -47 40q-48 0 -48 -28q0 -31 -40 -31q-28 0 -36 7t-8 27q0 39 31.5 68.5t100.5 29.5 q129 0 129 -99q0 -70 -46 -90q60 -20 60 -80v-10q0 -64 -40 -94t-106 -30q-68 0 -103 32t-35 72zM205 4q0 7 4 17l360 729q11 21 36 21q19 0 34.5 -13t15.5 -32q0 -10 -4 -18l-360 -726q-9 -22 -39 -22q-20 0 -33.5 13.5t-13.5 30.5zM472 114q0 8 4 16l138 248q13 22 36 22 q13 0 28 -9.5t15 -22.5q0 -6 -3 -11l-108 -194h58v38q0 13 13 19.5t30 6.5q44 0 44 -26v-38h26q26 0 26 -39q0 -15 -8 -27.5t-18 -12.5h-26v-58q0 -12 -13 -19t-31 -7q-17 0 -30 7t-13 19v58h-140q-28 0 -28 30z" />
<glyph unicode="&#xbf;" horiz-adv-x="436" d="M25 163q0 36 12.5 68.5t36.5 59.5t36 38.5t33 28.5q32 26 41 54t9 79q0 36 50 36q26 0 36.5 -12t10.5 -44q0 -102 -61 -159q-6 -6 -29 -25t-34.5 -30.5t-23 -34t-11.5 -46.5q0 -41 28 -63t75 -22q33 0 55 11t30.5 23.5t20 23.5t25.5 11q19 0 34.5 -13t15.5 -35 q0 -42 -50 -80t-134 -38q-94 0 -150 48t-56 121zM174 667q0 27 20 47.5t48 20.5t47.5 -20.5t19.5 -47.5q0 -29 -19.5 -49t-47.5 -20t-48 20.5t-20 48.5z" />
<glyph unicode="&#xc0;" horiz-adv-x="575" d="M9 54q0 2 2 10l193 629q6 21 29.5 32.5t53.5 11.5t54 -11.5t30 -32.5l193 -629q2 -8 2 -10q0 -22 -27 -38t-55 -16q-37 0 -44 26l-38 133h-229l-38 -133q-7 -26 -44 -26q-29 0 -55.5 15.5t-26.5 38.5zM172 908q0 18 12 33.5t28 15.5q3 0 13 -2l132 -64q17 -9 17 -31 q0 -17 -12 -33t-28 -16q-4 0 -14 4l-130 63q-18 8 -18 30zM200 261h174l-87 307z" />
<glyph unicode="&#xc1;" horiz-adv-x="575" d="M9 54q0 2 2 10l193 629q6 21 29.5 32.5t53.5 11.5t54 -11.5t30 -32.5l193 -629q2 -8 2 -10q0 -22 -27 -38t-55 -16q-37 0 -44 26l-38 133h-229l-38 -133q-7 -26 -44 -26q-29 0 -55.5 15.5t-26.5 38.5zM200 261h174l-87 307zM215 860q0 22 17 31l132 64q10 2 13 2 q16 0 28 -15.5t12 -33.5q0 -22 -18 -30l-130 -63q-10 -4 -14 -4q-16 0 -28 16t-12 33z" />
<glyph unicode="&#xc2;" horiz-adv-x="575" d="M9 54q0 2 2 10l193 629q6 21 29.5 32.5t53.5 11.5t54 -11.5t30 -32.5l193 -629q2 -8 2 -10q0 -22 -27 -38t-55 -16q-37 0 -44 26l-38 133h-229l-38 -133q-7 -26 -44 -26q-29 0 -55.5 15.5t-26.5 38.5zM144 859q0 26 22 37l104 56q8 5 17 5q7 0 17 -5l104 -55 q21 -13 21 -39q0 -15 -8 -27t-20 -12q-5 0 -10 3l-104 56l-104 -56q-6 -3 -11 -3q-12 0 -20 12t-8 28zM200 261h174l-87 307z" />
<glyph unicode="&#xc3;" horiz-adv-x="575" d="M9 54q0 2 2 10l193 629q6 21 29.5 32.5t53.5 11.5t54 -11.5t30 -32.5l193 -629q2 -8 2 -10q0 -22 -27 -38t-55 -16q-37 0 -44 26l-38 133h-229l-38 -133q-7 -26 -44 -26q-29 0 -55.5 15.5t-26.5 38.5zM116 878q0 28 18 44.5t34.5 20t33.5 3.5q30 0 73 -14.5t69 -14.5 q24 0 48.5 12t32.5 12q17 0 25 -15t8 -27q0 -22 -9.5 -36.5t-25 -21t-27.5 -8.5t-23 -2q-35 0 -77 14.5t-65 14.5q-24 0 -49 -12t-33 -12q-17 0 -25 15t-8 27zM200 261h174l-87 307z" />
<glyph unicode="&#xc4;" horiz-adv-x="575" d="M9 54q0 2 2 10l193 629q6 21 29.5 32.5t53.5 11.5t54 -11.5t30 -32.5l193 -629q2 -8 2 -10q0 -22 -27 -38t-55 -16q-37 0 -44 26l-38 133h-229l-38 -133q-7 -26 -44 -26q-29 0 -55.5 15.5t-26.5 38.5zM163 873q0 21 15 36.5t36 15.5t35.5 -15.5t14.5 -36.5t-14.5 -37 t-35.5 -16t-36 16t-15 37zM200 261h174l-87 307zM312 873q0 21 15 36.5t37 15.5q20 0 35 -15.5t15 -36.5t-15 -37t-35 -16q-21 0 -36.5 16t-15.5 37z" />
<glyph unicode="&#xc5;" horiz-adv-x="575" d="M9 54q0 2 2 10l193 629q6 21 29.5 32.5t53.5 11.5t54 -11.5t30 -32.5l193 -629q2 -8 2 -10q0 -22 -27 -38t-55 -16q-37 0 -44 26l-38 133h-229l-38 -133q-7 -26 -44 -26q-29 0 -55.5 15.5t-26.5 38.5zM189 913q0 39 28.5 69t68.5 30t69.5 -30t29.5 -69q0 -40 -30 -70.5 t-69 -30.5t-68 30.5t-29 70.5zM200 261h174l-87 307zM240 912q0 -18 14 -33t33 -15q18 0 31 14.5t13 33.5q0 18 -13 31.5t-31 13.5q-19 0 -33 -14t-14 -31z" />
<glyph unicode="&#xc6;" horiz-adv-x="787" d="M57 46v456q0 118 62.5 173.5t165.5 55.5h445q20 0 30.5 -16.5t10.5 -39.5q0 -24 -11 -41t-30 -17h-228v-200h119q19 0 30 -15.5t11 -36.5q0 -19 -10.5 -34.5t-30.5 -15.5h-119v-201h228q19 0 30 -17t11 -41q0 -23 -10.5 -39.5t-30.5 -16.5h-301q-23 0 -40 11t-17 30v274 h-192v-269q0 -23 -13 -34.5t-52 -11.5q-58 0 -58 46zM180 417h192v200h-87q-105 0 -105 -115v-85z" />
<glyph unicode="&#xc7;" horiz-adv-x="550" d="M53 223v279q0 118 64 173.5t167 55.5q105 0 171.5 -52t66.5 -138q0 -37 -15 -50.5t-50 -13.5q-64 0 -65 41q-1 13 -2.5 22.5t-8 25t-16.5 26t-30 18t-47 7.5q-105 0 -105 -115v-279q0 -115 107 -115q32 0 53.5 10t31 28.5t13 33t4.5 35.5q3 41 64 41q35 0 50.5 -13.5 t15.5 -50.5q0 -82 -55.5 -134.5t-146.5 -61.5l-15 -47q49 -2 74 -23.5t25 -53.5q0 -33 -25.5 -60.5t-79.5 -27.5q-30 0 -57.5 7.5t-27.5 21.5q0 9 6.5 23t16.5 14q3 0 21 -7t37 -7q47 0 47 33t-48 37l-55 5l24 84q-95 5 -152.5 60.5t-57.5 167.5z" />
<glyph unicode="&#xc8;" horiz-adv-x="529" d="M60 41v649q0 19 17 30t40 11h356q20 0 30.5 -17t10.5 -39q0 -24 -11 -41t-30 -17h-283v-200h152q19 0 30 -15.5t11 -36.5q0 -19 -10.5 -34.5t-30.5 -15.5h-152v-201h283q19 0 30 -17t11 -41q0 -22 -10.5 -39t-30.5 -17h-356q-23 0 -40 11t-17 30zM181 908q0 18 12 33.5 t28 15.5q3 0 13 -2l132 -64q17 -9 17 -31q0 -17 -12 -33t-28 -16q-4 0 -14 4l-130 63q-18 8 -18 30z" />
<glyph unicode="&#xc9;" horiz-adv-x="529" d="M60 41v649q0 19 17 30t40 11h356q20 0 30.5 -17t10.5 -39q0 -24 -11 -41t-30 -17h-283v-200h152q19 0 30 -15.5t11 -36.5q0 -19 -10.5 -34.5t-30.5 -15.5h-152v-201h283q19 0 30 -17t11 -41q0 -22 -10.5 -39t-30.5 -17h-356q-23 0 -40 11t-17 30zM205 860q0 22 17 31 l132 64q10 2 13 2q16 0 28 -15.5t12 -33.5q0 -22 -18 -30l-130 -63q-10 -4 -14 -4q-16 0 -28 16t-12 33z" />
<glyph unicode="&#xca;" horiz-adv-x="530" d="M60 41v649q0 19 17 30t40 11h356q20 0 30.5 -17t10.5 -39q0 -24 -11 -41t-30 -17h-283v-200h152q19 0 30 -15.5t11 -36.5q0 -19 -10.5 -34.5t-30.5 -15.5h-152v-201h283q19 0 30 -17t11 -41q0 -22 -10.5 -39t-30.5 -17h-356q-23 0 -40 11t-17 30zM152 859q0 26 22 37 l104 56q8 5 17 5q7 0 17 -5l104 -55q21 -13 21 -39q0 -15 -8 -27t-20 -12q-5 0 -10 3l-104 56l-104 -56q-6 -3 -11 -3q-12 0 -20 12t-8 28z" />
<glyph unicode="&#xcb;" horiz-adv-x="530" d="M60 41v649q0 19 17 30t40 11h356q20 0 30.5 -17t10.5 -39q0 -24 -11 -41t-30 -17h-283v-200h152q19 0 30 -15.5t11 -36.5q0 -19 -10.5 -34.5t-30.5 -15.5h-152v-201h283q19 0 30 -17t11 -41q0 -22 -10.5 -39t-30.5 -17h-356q-23 0 -40 11t-17 30zM164 873q0 21 15 36.5 t36 15.5t35.5 -15.5t14.5 -36.5t-14.5 -37t-35.5 -16t-36 16t-15 37zM313 873q0 21 15 36.5t37 15.5q20 0 35 -15.5t15 -36.5t-15 -37t-35 -16q-21 0 -36.5 16t-15.5 37z" />
<glyph unicode="&#xcc;" horiz-adv-x="250" d="M17 908q0 18 12 33.5t28 15.5q3 0 13 -2l132 -64q17 -9 17 -31q0 -17 -12 -33t-28 -16q-4 0 -14 4l-130 63q-18 8 -18 30zM60 41v650q0 20 19 30t46 10t46 -10t19 -30v-650q0 -19 -19.5 -30t-45.5 -11q-27 0 -46 11t-19 30z" />
<glyph unicode="&#xcd;" horiz-adv-x="250" d="M31 860q0 22 17 31l132 64q10 2 13 2q16 0 28 -15.5t12 -33.5q0 -22 -18 -30l-130 -63q-10 -4 -14 -4q-16 0 -28 16t-12 33zM60 41v650q0 20 19 30t46 10t46 -10t19 -30v-650q0 -19 -19.5 -30t-45.5 -11q-27 0 -46 11t-19 30z" />
<glyph unicode="&#xce;" horiz-adv-x="250" d="M-16 859q0 26 22 37l104 56q8 5 17 5q7 0 17 -5l104 -55q21 -13 21 -39q0 -15 -8 -27t-20 -12q-5 0 -10 3l-104 56l-104 -56q-6 -3 -11 -3q-12 0 -20 12t-8 28zM60 41v650q0 20 19 30t46 10t46 -10t19 -30v-650q0 -19 -19.5 -30t-45.5 -11q-27 0 -46 11t-19 30z" />
<glyph unicode="&#xcf;" horiz-adv-x="250" d="M1 873q0 21 15 36.5t36 15.5t35.5 -15.5t14.5 -36.5t-14.5 -37t-35.5 -16t-36 16t-15 37zM60 41v650q0 20 19 30t46 10t46 -10t19 -30v-650q0 -19 -19.5 -30t-45.5 -11q-27 0 -46 11t-19 30zM150 873q0 21 15 36.5t37 15.5q20 0 35 -15.5t15 -36.5t-15 -37t-35 -16 q-21 0 -36.5 16t-15.5 37z" />
<glyph unicode="&#xd0;" horiz-adv-x="587" d="M-7 382q0 19 9 33t24 14h41v262q0 16 16 28t41 12h177q107 0 171 -55t64 -174v-273q0 -119 -64 -174t-171 -55h-177q-25 0 -41 12t-16 28v296h-41q-15 0 -24 13.5t-9 32.5zM197 114h104q105 0 105 115v273q0 115 -105 115h-104v-188h77q16 0 25 -14t9 -33t-9 -32.5 t-25 -13.5h-77v-222z" />
<glyph unicode="&#xd1;" horiz-adv-x="605" d="M60 41v649q0 20 19 30.5t46 10.5q36 0 55 -13t42 -56l193 -373v402q0 20 19 30t46 10t46 -10t19 -30v-650q0 -19 -19.5 -30t-45.5 -11q-53 0 -75 41l-215 402v-402q0 -19 -19.5 -30t-45.5 -11q-27 0 -46 11t-19 30zM124 878q0 28 18 44.5t34.5 20t33.5 3.5q30 0 73 -14.5 t69 -14.5q24 0 48.5 12t32.5 12q17 0 25 -15t8 -27q0 -22 -9.5 -36.5t-25 -21t-27.5 -8.5t-23 -2q-35 0 -77 14.5t-65 14.5q-24 0 -49 -12t-33 -12q-17 0 -25 15t-8 27z" />
<glyph unicode="&#xd2;" horiz-adv-x="572" d="M52 223v279q0 119 63.5 174t170.5 55t171 -55t64 -174v-279q0 -119 -64 -174t-171 -55t-170.5 55t-63.5 174zM173 908q0 18 12 33.5t28 15.5q3 0 13 -2l132 -64q17 -9 17 -31q0 -17 -12 -33t-28 -16q-4 0 -14 4l-130 63q-18 8 -18 30zM182 223q0 -115 104 -115 q105 0 105 115v279q0 115 -105 115q-104 0 -104 -115v-279z" />
<glyph unicode="&#xd3;" horiz-adv-x="572" d="M52 223v279q0 119 63.5 174t170.5 55t171 -55t64 -174v-279q0 -119 -64 -174t-171 -55t-170.5 55t-63.5 174zM182 223q0 -115 104 -115q105 0 105 115v279q0 115 -105 115q-104 0 -104 -115v-279zM220 860q0 22 17 31l132 64q10 2 13 2q16 0 28 -15.5t12 -33.5 q0 -22 -18 -30l-130 -63q-10 -4 -14 -4q-16 0 -28 16t-12 33z" />
<glyph unicode="&#xd4;" horiz-adv-x="572" d="M52 223v279q0 119 63.5 174t170.5 55t171 -55t64 -174v-279q0 -119 -64 -174t-171 -55t-170.5 55t-63.5 174zM143 859q0 26 22 37l104 56q8 5 17 5q7 0 17 -5l104 -55q21 -13 21 -39q0 -15 -8 -27t-20 -12q-6 0 -10 3l-104 56l-104 -56q-6 -3 -11 -3q-12 0 -20 12t-8 28z M182 223q0 -115 104 -115q105 0 105 115v279q0 115 -105 115q-104 0 -104 -115v-279z" />
<glyph unicode="&#xd5;" horiz-adv-x="572" d="M52 223v279q0 119 63.5 174t170.5 55t171 -55t64 -174v-279q0 -119 -64 -174t-171 -55t-170.5 55t-63.5 174zM115 878q0 28 18 44.5t34.5 20t33.5 3.5q29 0 72 -14.5t70 -14.5q24 0 48.5 12t32.5 12q17 0 25 -15t8 -27q0 -22 -9.5 -36.5t-25 -21t-27.5 -8.5t-23 -2 q-35 0 -77 14.5t-65 14.5q-24 0 -49 -12t-33 -12q-17 0 -25 15t-8 27zM182 223q0 -115 104 -115q105 0 105 115v279q0 115 -105 115q-104 0 -104 -115v-279z" />
<glyph unicode="&#xd6;" horiz-adv-x="572" d="M52 223v279q0 119 63.5 174t170.5 55t171 -55t64 -174v-279q0 -119 -64 -174t-171 -55t-170.5 55t-63.5 174zM162 873q0 21 15 36.5t36 15.5t35.5 -15.5t14.5 -36.5t-14.5 -37t-35.5 -16t-36 16t-15 37zM182 223q0 -115 104 -115q105 0 105 115v279q0 115 -105 115 q-104 0 -104 -115v-279zM311 873q0 21 15 36.5t37 15.5q20 0 35 -15.5t15 -36.5t-15 -37t-35 -16q-21 0 -36.5 16t-15.5 37z" />
<glyph unicode="&#xd7;" horiz-adv-x="407" d="M42 174q0 15 10 25l84 76l-83 74q-10 12 -10 26q0 23 18.5 41.5t41.5 18.5q14 0 26 -10l74 -75l75 75q10 10 26 10q22 0 41 -18.5t19 -40.5q0 -15 -10 -27l-83 -74l84 -76q10 -10 10 -26q0 -21 -19 -40.5t-41 -19.5q-16 0 -26 10l-76 76l-75 -76q-10 -10 -26 -10 q-20 0 -40 19.5t-20 41.5z" />
<glyph unicode="&#xd8;" horiz-adv-x="573" d="M52 223v279q0 119 63.5 174t170.5 55q70 0 120 -23l21 42q11 21 36 21q19 0 34.5 -13t15.5 -32q0 -10 -4 -18l-29 -58q41 -57 41 -148v-279q0 -119 -64 -174t-171 -55q-72 0 -119 22l-17 -34q-11 -22 -39 -22q-21 0 -34.5 13.5t-13.5 30.5q0 9 5 17l26 52q-42 56 -42 150 zM182 252l170 346q-25 19 -66 19q-104 0 -104 -115v-250zM221 125q24 -17 65 -17q105 0 105 115v246z" />
<glyph unicode="&#xd9;" horiz-adv-x="594" d="M57 223v468q0 20 19 30t46 10t46 -10t19 -30v-468q0 -115 110 -115t110 115v468q0 20 19 30t46 10t46 -10t19 -30v-468q0 -118 -65.5 -173.5t-174.5 -55.5t-174.5 55t-65.5 174zM179 908q0 18 12 33.5t28 15.5q3 0 13 -2l132 -64q17 -9 17 -31q0 -17 -12 -33t-28 -16 q-4 0 -14 4l-130 63q-18 8 -18 30z" />
<glyph unicode="&#xda;" horiz-adv-x="594" d="M57 223v468q0 20 19 30t46 10t46 -10t19 -30v-468q0 -115 110 -115t110 115v468q0 20 19 30t46 10t46 -10t19 -30v-468q0 -118 -65.5 -173.5t-174.5 -55.5t-174.5 55t-65.5 174zM218 860q0 22 17 31l132 64q10 2 13 2q16 0 28 -15.5t12 -33.5q0 -22 -18 -30l-130 -63 q-10 -4 -14 -4q-16 0 -28 16t-12 33z" />
<glyph unicode="&#xdb;" horiz-adv-x="594" d="M57 223v468q0 20 19 30t46 10t46 -10t19 -30v-468q0 -115 110 -115t110 115v468q0 20 19 30t46 10t46 -10t19 -30v-468q0 -118 -65.5 -173.5t-174.5 -55.5t-174.5 55t-65.5 174zM149 859q0 26 22 37l104 56q8 5 17 5q7 0 17 -5l104 -55q21 -13 21 -39q0 -15 -8 -27 t-20 -12q-6 0 -10 3l-104 56l-104 -56q-6 -3 -11 -3q-12 0 -20 12t-8 28z" />
<glyph unicode="&#xdc;" horiz-adv-x="594" d="M57 223v468q0 20 19 30t46 10t46 -10t19 -30v-468q0 -115 110 -115t110 115v468q0 20 19 30t46 10t46 -10t19 -30v-468q0 -118 -65.5 -173.5t-174.5 -55.5t-174.5 55t-65.5 174zM171 873q0 21 15 36.5t36 15.5t35.5 -15.5t14.5 -36.5t-14.5 -37t-35.5 -16t-36 16t-15 37z M320 873q0 21 15 36.5t37 15.5q20 0 35 -15.5t15 -36.5t-15 -37t-35 -16q-21 0 -36.5 16t-15.5 37z" />
<glyph unicode="&#xdd;" horiz-adv-x="574" d="M9 677q0 22 28.5 38t57.5 16q27 0 40 -26l152 -289l153 289q14 26 39 26q29 0 57.5 -16t28.5 -38q0 -8 -3 -13l-206 -358q-4 -6 -4 -13v-252q0 -19 -19 -30t-46 -11q-26 0 -45.5 11t-19.5 30v252q0 9 -3 13l-207 358q-3 8 -3 13zM202 860q0 22 17 31l132 64q10 2 13 2 q16 0 28 -15.5t12 -33.5q0 -22 -18 -30l-130 -63q-10 -4 -14 -4q-16 0 -28 16t-12 33z" />
<glyph unicode="&#xde;" horiz-adv-x="520" d="M61 41v663q0 18 17.5 29t43.5 11q30 0 49 -11t19 -29v-158q17 32 51 54t78 22q73 0 125 -56.5t52 -139.5v-96q0 -80 -52 -139t-120 -59q-44 0 -82 23.5t-52 55.5v-170q0 -15 -20 -28t-46 -13q-27 0 -45 12.5t-18 28.5zM190 319q0 -22 27 -48t63 -26q34 0 60.5 25t26.5 60 v96q0 34 -26.5 58.5t-62.5 24.5q-35 0 -61.5 -23t-26.5 -60v-107z" />
<glyph unicode="&#xdf;" horiz-adv-x="600" d="M3 428q0 19 8.5 33t24.5 14h56v92q0 88 47.5 144.5t147.5 56.5q87 0 142 -47t55 -137q0 -52 -18.5 -96.5t-49.5 -60.5q59 -11 107.5 -68t48.5 -136v-13q0 -108 -63.5 -169t-156.5 -61q-21 0 -35 1.5t-30.5 7t-25 18.5t-8.5 33q0 21 8 41t23 20q5 0 26.5 -6t40.5 -6 q45 0 70 29t25 81v13q0 119 -121 147q-21 6 -30.5 16t-9.5 37q0 18 5.5 27.5t12.5 13t23 7.5q52 10 52 94q0 101 -81 101q-76 0 -76 -88v-527q0 -18 -19.5 -29t-46.5 -11t-45 11t-18 29v341h-56q-16 0 -24.5 14t-8.5 33z" />
<glyph unicode="&#xe0;" horiz-adv-x="471" d="M22 124q0 81 60 114t173 33h41v13q0 37 -21.5 64.5t-66.5 27.5t-77 -15.5t-37 -15.5q-20 0 -32 20t-12 44q0 29 51.5 50.5t108.5 21.5q109 0 162 -55.5t53 -139.5v-245q0 -17 -18 -29t-45 -12q-25 0 -41.5 12t-16.5 29v29q-69 -79 -152 -79q-57 0 -93.5 34t-36.5 99z M126 665q0 18 12 33.5t28 15.5q3 0 13 -2l132 -64q17 -8 17 -31q0 -17 -12 -33t-28 -16q-4 0 -14 4l-130 63q-18 8 -18 30zM151 141q0 -27 14.5 -40.5t38.5 -13.5q32 0 62 30t30 66v21h-15q-61 0 -95.5 -12.5t-34.5 -50.5z" />
<glyph unicode="&#xe1;" horiz-adv-x="471" d="M22 124q0 81 60 114t173 33h41v13q0 37 -21.5 64.5t-66.5 27.5t-77 -15.5t-37 -15.5q-20 0 -32 20t-12 44q0 29 51.5 50.5t108.5 21.5q109 0 162 -55.5t53 -139.5v-245q0 -17 -18 -29t-45 -12q-25 0 -41.5 12t-16.5 29v29q-69 -79 -152 -79q-57 0 -93.5 34t-36.5 99z M142 617q0 23 17 31l132 64q10 2 13 2q16 0 28 -15.5t12 -33.5q0 -22 -18 -30l-130 -63q-10 -4 -14 -4q-16 0 -28 16t-12 33zM151 141q0 -27 14.5 -40.5t38.5 -13.5q32 0 62 30t30 66v21h-15q-61 0 -95.5 -12.5t-34.5 -50.5z" />
<glyph unicode="&#xe2;" horiz-adv-x="471" d="M22 124q0 81 60 114t173 33h41v13q0 37 -21.5 64.5t-66.5 27.5t-77 -15.5t-37 -15.5q-20 0 -32 20t-12 44q0 29 51.5 50.5t108.5 21.5q109 0 162 -55.5t53 -139.5v-245q0 -17 -18 -29t-45 -12q-25 0 -41.5 12t-16.5 29v29q-69 -79 -152 -79q-57 0 -93.5 34t-36.5 99z M78 616q0 26 22 37l104 56q8 5 17 5q7 0 17 -5l104 -55q21 -13 21 -39q0 -15 -8 -27t-20 -12q-5 0 -10 3l-104 56l-104 -56q-6 -3 -11 -3q-12 0 -20 12t-8 28zM151 141q0 -27 14.5 -40.5t38.5 -13.5q32 0 62 30t30 66v21h-15q-61 0 -95.5 -12.5t-34.5 -50.5z" />
<glyph unicode="&#xe3;" horiz-adv-x="471" d="M22 124q0 81 60 114t173 33h41v13q0 37 -21.5 64.5t-66.5 27.5t-77 -15.5t-37 -15.5q-20 0 -32 20t-12 44q0 29 51.5 50.5t108.5 21.5q109 0 162 -55.5t53 -139.5v-245q0 -17 -18 -29t-45 -12q-25 0 -41.5 12t-16.5 29v29q-69 -79 -152 -79q-57 0 -93.5 34t-36.5 99z M56 635q0 28 18 44.5t34.5 20t33.5 3.5q30 0 73 -14.5t69 -14.5q24 0 48.5 12t32.5 12q17 0 25 -15t8 -27q0 -22 -9.5 -36.5t-25 -21t-27.5 -8.5t-23 -2q-35 0 -77 14.5t-65 14.5q-24 0 -49 -12t-33 -12q-17 0 -25 15t-8 27zM151 141q0 -27 14.5 -40.5t38.5 -13.5 q32 0 62 30t30 66v21h-15q-61 0 -95.5 -12.5t-34.5 -50.5z" />
<glyph unicode="&#xe4;" horiz-adv-x="471" d="M22 124q0 81 60 114t173 33h41v13q0 37 -21.5 64.5t-66.5 27.5t-77 -15.5t-37 -15.5q-20 0 -32 20t-12 44q0 29 51.5 50.5t108.5 21.5q109 0 162 -55.5t53 -139.5v-245q0 -17 -18 -29t-45 -12q-25 0 -41.5 12t-16.5 29v29q-69 -79 -152 -79q-57 0 -93.5 34t-36.5 99z M100 630q0 21 15 36.5t36 15.5t35.5 -15.5t14.5 -36.5t-14.5 -37t-35.5 -16t-36 16t-15 37zM151 141q0 -27 14.5 -40.5t38.5 -13.5q32 0 62 30t30 66v21h-15q-61 0 -95.5 -12.5t-34.5 -50.5zM249 630q0 21 15 36.5t37 15.5q20 0 35 -15.5t15 -36.5t-15 -37t-35 -16 q-21 0 -36.5 16t-15.5 37z" />
<glyph unicode="&#xe5;" horiz-adv-x="471" d="M22 124q0 81 60 114t173 33h41v13q0 37 -21.5 64.5t-66.5 27.5t-77 -15.5t-37 -15.5q-20 0 -32 20t-12 44q0 29 51.5 50.5t108.5 21.5q109 0 162 -55.5t53 -139.5v-245q0 -17 -18 -29t-45 -12q-25 0 -41.5 12t-16.5 29v29q-69 -79 -152 -79q-57 0 -93.5 34t-36.5 99z M130 670q0 39 28.5 69t68.5 30t69.5 -30t29.5 -69q0 -40 -30 -70.5t-69 -30.5t-68 30.5t-29 70.5zM151 141q0 -27 14.5 -40.5t38.5 -13.5q32 0 62 30t30 66v21h-15q-61 0 -95.5 -12.5t-34.5 -50.5zM181 669q0 -18 14 -33t33 -15q18 0 31 14.5t13 33.5q0 18 -13 31.5 t-31 13.5q-19 0 -33 -14t-14 -31z" />
<glyph unicode="&#xe6;" horiz-adv-x="748" d="M22 123q0 82 60 115t173 33h40v14q0 37 -21.5 64.5t-66.5 27.5t-76.5 -16t-36.5 -16q-20 0 -32.5 20t-12.5 45q0 29 52 50t109 21q105 0 156 -78q61 78 148 78q84 0 145.5 -52.5t61.5 -138.5q0 -29 -7 -47t-21.5 -26t-28.5 -10.5t-37 -2.5h-202v-15q0 -43 32.5 -69.5 t83.5 -26.5q37 0 75 19t49 19q21 0 34.5 -19.5t13.5 -37.5q0 -29 -52.5 -56t-125.5 -27q-120 0 -185 96q-35 -45 -81.5 -70.5t-93.5 -25.5q-66 0 -109.5 34t-43.5 98zM151 140q0 -26 14.5 -39.5t38.5 -13.5q32 0 61.5 30t29.5 66v21h-15q-39 0 -64 -3.5t-45 -18.5t-20 -42z M425 280h146q17 0 23 5.5t6 20.5q0 35 -25.5 57.5t-62.5 22.5q-36 0 -61.5 -21.5t-25.5 -56.5v-28z" />
<glyph unicode="&#xe7;" horiz-adv-x="434" d="M34 196v80q0 92 54 148.5t162 56.5q68 0 114 -24t46 -54q0 -21 -15 -42t-36 -21q-6 0 -35.5 14t-63.5 14q-97 0 -97 -92v-80q0 -92 98 -92q34 0 63 15t37 15q24 0 39.5 -20t15.5 -41q0 -28 -40.5 -52t-100.5 -29l-13 -43q49 -2 74 -23.5t25 -53.5q0 -33 -25.5 -60.5 t-79.5 -27.5q-30 0 -57.5 7.5t-27.5 21.5q0 9 6.5 23t16.5 14q3 0 21 -7t37 -7q47 0 47 33t-48 37l-55 5l23 82q-92 8 -138.5 62.5t-46.5 140.5z" />
<glyph unicode="&#xe8;" horiz-adv-x="484" d="M32 196v85q0 82 64 141t155 59q85 0 145.5 -53.5t60.5 -134.5q0 -30 -7.5 -49.5t-23 -27.5t-28.5 -10t-34 -2h-203v-15q0 -43 32 -69.5t85 -26.5q38 0 75 19t48 19q21 0 35 -19.5t14 -37.5q0 -28 -50.5 -55.5t-125.5 -27.5q-107 0 -174.5 56.5t-67.5 148.5zM135 665 q0 18 12 33.5t28 15.5q3 0 13 -2l132 -64q17 -8 17 -31q0 -17 -12 -33t-28 -16q-4 0 -14 4l-130 63q-18 8 -18 30zM161 280h146q16 0 22.5 5.5t6.5 21.5q0 35 -25.5 57t-62.5 22q-35 0 -61 -21.5t-26 -56.5v-28z" />
<glyph unicode="&#xe9;" horiz-adv-x="484" d="M32 196v85q0 82 64 141t155 59q85 0 145.5 -53.5t60.5 -134.5q0 -30 -7.5 -49.5t-23 -27.5t-28.5 -10t-34 -2h-203v-15q0 -43 32 -69.5t85 -26.5q38 0 75 19t48 19q21 0 35 -19.5t14 -37.5q0 -28 -50.5 -55.5t-125.5 -27.5q-107 0 -174.5 56.5t-67.5 148.5zM151 617 q0 23 17 31l132 64q10 2 13 2q16 0 28 -15.5t12 -33.5q0 -22 -18 -30l-130 -63q-10 -4 -14 -4q-16 0 -28 16t-12 33zM161 280h146q16 0 22.5 5.5t6.5 21.5q0 35 -25.5 57t-62.5 22q-35 0 -61 -21.5t-26 -56.5v-28z" />
<glyph unicode="&#xea;" horiz-adv-x="484" d="M32 196v85q0 82 64 141t155 59q85 0 145.5 -53.5t60.5 -134.5q0 -30 -7.5 -49.5t-23 -27.5t-28.5 -10t-34 -2h-203v-15q0 -43 32 -69.5t85 -26.5q38 0 75 19t48 19q21 0 35 -19.5t14 -37.5q0 -28 -50.5 -55.5t-125.5 -27.5q-107 0 -174.5 56.5t-67.5 148.5zM106 616 q0 26 22 37l104 56q8 5 17 5q7 0 17 -5l104 -55q21 -13 21 -39q0 -15 -8 -27t-20 -12q-5 0 -10 3l-104 56l-104 -56q-6 -3 -11 -3q-12 0 -20 12t-8 28zM161 280h146q16 0 22.5 5.5t6.5 21.5q0 35 -25.5 57t-62.5 22q-35 0 -61 -21.5t-26 -56.5v-28z" />
<glyph unicode="&#xeb;" horiz-adv-x="484" d="M32 196v85q0 82 64 141t155 59q85 0 145.5 -53.5t60.5 -134.5q0 -30 -7.5 -49.5t-23 -27.5t-28.5 -10t-34 -2h-203v-15q0 -43 32 -69.5t85 -26.5q38 0 75 19t48 19q21 0 35 -19.5t14 -37.5q0 -28 -50.5 -55.5t-125.5 -27.5q-107 0 -174.5 56.5t-67.5 148.5zM122 630 q0 21 15 36.5t36 15.5t35.5 -15.5t14.5 -36.5t-14.5 -37t-35.5 -16t-36 16t-15 37zM161 280h146q16 0 22.5 5.5t6.5 21.5q0 35 -25.5 57t-62.5 22q-35 0 -61 -21.5t-26 -56.5v-28zM271 630q0 21 15 36.5t37 15.5q20 0 35 -15.5t15 -36.5t-15 -37t-35 -16q-21 0 -36.5 16 t-15.5 37z" />
<glyph unicode="&#xec;" horiz-adv-x="229" d="M-2 665q0 18 12 33.5t28 15.5q3 0 13 -2l132 -64q17 -8 17 -31q0 -17 -12 -33t-28 -16q-4 0 -14 4l-130 63q-18 8 -18 30zM50 41v394q0 18 18 29t46 11t46.5 -11t18.5 -29v-394q0 -15 -19.5 -28t-45.5 -13q-27 0 -45.5 12.5t-18.5 28.5z" />
<glyph unicode="&#xed;" horiz-adv-x="229" d="M30 617q0 23 17 31l132 64q10 2 13 2q16 0 28 -15.5t12 -33.5q0 -22 -18 -30l-130 -63q-10 -4 -14 -4q-16 0 -28 16t-12 33zM50 41v394q0 18 18 29t46 11t46.5 -11t18.5 -29v-394q0 -15 -19.5 -28t-45.5 -13q-27 0 -45.5 12.5t-18.5 28.5z" />
<glyph unicode="&#xee;" horiz-adv-x="229" d="M-28 616q0 26 22 37l104 56q8 5 17 5q7 0 17 -5l104 -55q21 -13 21 -39q0 -15 -8 -27t-20 -12q-5 0 -10 3l-104 56l-104 -56q-6 -3 -11 -3q-12 0 -20 12t-8 28zM50 41v394q0 18 18 29t46 11t46.5 -11t18.5 -29v-394q0 -15 -19.5 -28t-45.5 -13q-27 0 -45.5 12.5 t-18.5 28.5z" />
<glyph unicode="&#xef;" horiz-adv-x="229" d="M-8 630q0 21 15 36.5t36 15.5t35.5 -15.5t14.5 -36.5t-14.5 -37t-35.5 -16t-36 16t-15 37zM50 41v394q0 18 18 29t46 11t46.5 -11t18.5 -29v-394q0 -15 -19.5 -28t-45.5 -13q-27 0 -45.5 12.5t-18.5 28.5zM141 630q0 21 15 36.5t37 15.5q20 0 35 -15.5t15 -36.5t-15 -37 t-35 -16q-21 0 -36.5 16t-15.5 37z" />
<glyph unicode="&#xf0;" horiz-adv-x="512" d="M32 196v82q0 83 52 143t125 60q43 0 78.5 -22.5t51.5 -55.5q-3 82 -45 154l-53 -31q-5 -4 -13 -4q-16 0 -31 17t-15 35q0 16 15 25l46 27q-15 16 -37 20q-27 23 -27 45q0 21 16 41.5t48 20.5q59 0 111 -60l56 34q6 3 13 3q16 0 30 -16t14 -34t-14 -26l-53 -32 q68 -130 68 -274v-152q0 -81 -65.5 -143t-152.5 -62t-152.5 62t-65.5 143zM161 196q0 -36 26.5 -64t62.5 -28q37 0 63 28t26 64v83q0 38 -27.5 63.5t-62.5 25.5q-37 0 -62.5 -27.5t-25.5 -62.5v-82z" />
<glyph unicode="&#xf1;" horiz-adv-x="523" d="M50 41v394q0 18 17.5 29t46.5 11q24 0 40.5 -11t16.5 -29v-30q16 32 51.5 54t82.5 22q69 0 120.5 -60t51.5 -143v-237q0 -19 -19.5 -30t-45.5 -11q-25 0 -44.5 11t-19.5 30v237q0 35 -26 62.5t-61 27.5q-33 0 -57.5 -25t-24.5 -65v-237q0 -15 -19.5 -28t-45.5 -13 q-27 0 -45.5 12.5t-18.5 28.5zM89 635q0 28 18 44.5t34.5 20t33.5 3.5q29 0 72 -14.5t70 -14.5q24 0 48.5 12t32.5 12q17 0 25 -15t8 -27q0 -22 -9.5 -36.5t-25 -21t-27.5 -8.5t-23 -2q-35 0 -77 14.5t-65 14.5q-24 0 -49 -12t-33 -12q-17 0 -25 15t-8 27z" />
<glyph unicode="&#xf2;" horiz-adv-x="498" d="M32 196v82q0 82 64 142.5t153 60.5q87 0 152 -60t65 -143v-82q0 -81 -65 -143t-152 -62t-152 62t-65 143zM136 665q0 18 12 33.5t28 15.5q3 0 13 -2l132 -64q17 -8 17 -31q0 -17 -12 -33t-28 -16q-4 0 -14 4l-130 63q-18 8 -18 30zM161 196q0 -36 26 -64t62 -28 q35 0 61.5 28t26.5 64v82q0 34 -26.5 62t-61.5 28q-36 0 -62 -27.5t-26 -62.5v-82z" />
<glyph unicode="&#xf3;" horiz-adv-x="498" d="M32 196v82q0 82 64 142.5t153 60.5q87 0 152 -60t65 -143v-82q0 -81 -65 -143t-152 -62t-152 62t-65 143zM151 617q0 23 17 31l132 64q10 2 13 2q16 0 28 -15.5t12 -33.5q0 -22 -18 -30l-130 -63q-10 -4 -14 -4q-16 0 -28 16t-12 33zM161 196q0 -36 26 -64t62 -28 q35 0 61.5 28t26.5 64v82q0 34 -26.5 62t-61.5 28q-36 0 -62 -27.5t-26 -62.5v-82z" />
<glyph unicode="&#xf4;" horiz-adv-x="498" d="M32 196v82q0 82 64 142.5t153 60.5q87 0 152 -60t65 -143v-82q0 -81 -65 -143t-152 -62t-152 62t-65 143zM106 616q0 26 22 37l104 56q8 5 17 5q7 0 17 -5l104 -55q21 -13 21 -39q0 -15 -8 -27t-20 -12q-5 0 -10 3l-104 56l-104 -56q-6 -3 -11 -3q-12 0 -20 12t-8 28z M161 196q0 -36 26 -64t62 -28q35 0 61.5 28t26.5 64v82q0 34 -26.5 62t-61.5 28q-36 0 -62 -27.5t-26 -62.5v-82z" />
<glyph unicode="&#xf5;" horiz-adv-x="498" d="M32 196v82q0 82 64 142.5t153 60.5q87 0 152 -60t65 -143v-82q0 -81 -65 -143t-152 -62t-152 62t-65 143zM79 635q0 28 18 44.5t34.5 20t33.5 3.5q29 0 72 -14.5t70 -14.5q24 0 48.5 12t32.5 12q17 0 25 -15t8 -27q0 -22 -9.5 -36.5t-25 -21t-27.5 -8.5t-23 -2 q-35 0 -77 14.5t-65 14.5q-24 0 -49 -12t-33 -12q-17 0 -25 15t-8 27zM161 196q0 -36 26 -64t62 -28q35 0 61.5 28t26.5 64v82q0 34 -26.5 62t-61.5 28q-36 0 -62 -27.5t-26 -62.5v-82z" />
<glyph unicode="&#xf6;" horiz-adv-x="498" d="M32 196v82q0 82 64 142.5t153 60.5q87 0 152 -60t65 -143v-82q0 -81 -65 -143t-152 -62t-152 62t-65 143zM124 630q0 21 15 36.5t36 15.5t35.5 -15.5t14.5 -36.5t-14.5 -37t-35.5 -16t-36 16t-15 37zM161 196q0 -36 26 -64t62 -28q35 0 61.5 28t26.5 64v82q0 34 -26.5 62 t-61.5 28q-36 0 -62 -27.5t-26 -62.5v-82zM273 630q0 21 15 36.5t37 15.5q20 0 35 -15.5t15 -36.5t-15 -37t-35 -16q-21 0 -36.5 16t-15.5 37z" />
<glyph unicode="&#xf7;" horiz-adv-x="446" d="M22 238q0 22 12 36.5t30 14.5h317q17 0 30 -15t13 -36q0 -22 -13 -35.5t-30 -13.5h-317q-18 0 -30 13.5t-12 35.5zM158 69q0 25 18.5 42t43.5 17q23 0 42 -17t19 -42q0 -24 -19 -41.5t-42 -17.5q-25 0 -43.5 17.5t-18.5 41.5zM158 409q0 24 18.5 41.5t43.5 17.5 q23 0 42 -17.5t19 -41.5t-19 -41.5t-42 -17.5q-25 0 -43.5 17.5t-18.5 41.5z" />
<glyph unicode="&#xf8;" horiz-adv-x="498" d="M32 196v82q0 82 64 142.5t153 60.5q62 0 113 -31l34 48q8 12 20 12t21 -9t9 -20q0 -9 -7 -19l-33 -46q60 -60 60 -138v-82q0 -81 -65 -143t-152 -62q-65 0 -120 36l-35 -50q-6 -9 -17 -9q-10 0 -19 8t-9 19q0 6 6 16l34 49q-57 60 -57 136zM161 196q0 -16 4 -28l130 185 q-23 15 -46 15q-36 0 -62 -27.5t-26 -62.5v-82zM197 122q25 -18 52 -18q35 0 61.5 28t26.5 64v82q0 14 -7 31z" />
<glyph unicode="&#xf9;" d="M45 194v240q0 15 19.5 28t45.5 13q25 0 44.5 -13t19.5 -28v-240q0 -35 26 -62.5t62 -27.5t61.5 27.5t25.5 62.5v241q0 16 19.5 28t45.5 12q28 0 46 -12t18 -28v-241q0 -81 -64 -142t-152 -61t-152.5 61t-64.5 142zM148 665q0 18 12 33.5t28 15.5q3 0 13 -2l132 -64 q17 -8 17 -31q0 -17 -12 -33t-28 -16q-4 0 -14 4l-130 63q-18 8 -18 30z" />
<glyph unicode="&#xfa;" d="M45 194v240q0 15 19.5 28t45.5 13q25 0 44.5 -13t19.5 -28v-240q0 -35 26 -62.5t62 -27.5t61.5 27.5t25.5 62.5v241q0 16 19.5 28t45.5 12q28 0 46 -12t18 -28v-241q0 -81 -64 -142t-152 -61t-152.5 61t-64.5 142zM172 617q0 23 17 31l132 64q10 2 13 2q16 0 28 -15.5 t12 -33.5q0 -22 -18 -30l-130 -63q-10 -4 -14 -4q-16 0 -28 16t-12 33z" />
<glyph unicode="&#xfb;" d="M45 194v240q0 15 19.5 28t45.5 13q25 0 44.5 -13t19.5 -28v-240q0 -35 26 -62.5t62 -27.5t61.5 27.5t25.5 62.5v241q0 16 19.5 28t45.5 12q28 0 46 -12t18 -28v-241q0 -81 -64 -142t-152 -61t-152.5 61t-64.5 142zM120 616q0 26 22 37l104 56q8 5 17 5q7 0 17 -5l104 -55 q21 -13 21 -39q0 -15 -8 -27t-20 -12q-5 0 -10 3l-104 56l-104 -56q-6 -3 -11 -3q-12 0 -20 12t-8 28z" />
<glyph unicode="&#xfc;" d="M45 194v240q0 15 19.5 28t45.5 13q25 0 44.5 -13t19.5 -28v-240q0 -35 26 -62.5t62 -27.5t61.5 27.5t25.5 62.5v241q0 16 19.5 28t45.5 12q28 0 46 -12t18 -28v-241q0 -81 -64 -142t-152 -61t-152.5 61t-64.5 142zM137 630q0 21 15 36.5t36 15.5t35.5 -15.5t14.5 -36.5 t-14.5 -37t-35.5 -16t-36 16t-15 37zM286 630q0 21 15 36.5t37 15.5q20 0 35 -15.5t15 -36.5t-15 -37t-35 -16q-21 0 -36.5 16t-15.5 37z" />
<glyph unicode="&#xfd;" horiz-adv-x="476" d="M6 -166q0 54 33 54q47 0 92.5 34t50.5 113l-172 368q-4 10 -4 17q0 24 29.5 43t56.5 19q30 0 37 -22l120 -299l97 299q7 22 34 22q26 0 57 -19.5t31 -44.5q0 -8 -3 -15l-146 -373l-17 -44q-12 -34 -17.5 -47t-19 -40.5t-24 -40t-29.5 -31t-38.5 -27t-47.5 -15t-61 -6.5 q-29 0 -44 11t-15 44zM176 617q0 23 17 31l132 64q10 2 13 2q16 0 28 -15.5t12 -33.5q0 -22 -18 -30l-130 -63q-10 -4 -14 -4q-16 0 -28 16t-12 33z" />
<glyph unicode="&#xfe;" horiz-adv-x="520" d="M52 -180v892q0 18 17.5 29t43.5 11q30 0 49 -11t19 -29v-307q17 32 51 54t76 22q75 0 127 -59.5t52 -143.5v-82q0 -81 -53 -143t-122 -62q-43 0 -79.5 23.5t-51.5 55.5v-250q0 -16 -19.5 -28.5t-46.5 -12.5t-45 12.5t-18 28.5zM181 178q0 -20 27 -47t61 -27q35 0 62 28.5 t27 63.5v82q0 35 -27 62.5t-64 27.5q-34 0 -60 -25t-26 -65v-100z" />
<glyph unicode="&#xff;" horiz-adv-x="476" d="M6 -166q0 54 33 54q47 0 92.5 34t50.5 113l-172 368q-4 10 -4 17q0 24 29.5 43t56.5 19q30 0 37 -22l120 -299l97 299q7 22 34 22q26 0 57 -19.5t31 -44.5q0 -8 -3 -15l-146 -373l-17 -44q-12 -34 -17.5 -47t-19 -40.5t-24 -40t-29.5 -31t-38.5 -27t-47.5 -15t-61 -6.5 q-29 0 -44 11t-15 44zM123 630q0 21 15 36.5t36 15.5t35.5 -15.5t14.5 -36.5t-14.5 -37t-35.5 -16t-36 16t-15 37zM272 630q0 21 15 36.5t37 15.5q20 0 35 -15.5t15 -36.5t-15 -37t-35 -16q-21 0 -36.5 16t-15.5 37z" />
<glyph unicode="&#x100;" horiz-adv-x="575" d="M9 54q0 2 2 10l193 629q6 21 29.5 32.5t53.5 11.5t54 -11.5t30 -32.5l193 -629q2 -8 2 -10q0 -22 -27 -38t-55 -16q-37 0 -44 26l-38 133h-229l-38 -133q-7 -26 -44 -26q-29 0 -55.5 15.5t-26.5 38.5zM144 895q0 18 11 30.5t29 12.5h205q16 0 28.5 -12.5t12.5 -30.5 t-12.5 -30t-28.5 -12h-205q-18 0 -29 11.5t-11 30.5zM200 261h174l-87 307z" />
<glyph unicode="&#x101;" horiz-adv-x="471" d="M22 124q0 81 60 114t173 33h41v13q0 37 -21.5 64.5t-66.5 27.5t-77 -15.5t-37 -15.5q-20 0 -32 20t-12 44q0 29 51.5 50.5t108.5 21.5q109 0 162 -55.5t53 -139.5v-245q0 -17 -18 -29t-45 -12q-25 0 -41.5 12t-16.5 29v29q-69 -79 -152 -79q-57 0 -93.5 34t-36.5 99z M88 652q0 18 11 30.5t29 12.5h205q16 0 28.5 -12.5t12.5 -30.5t-12.5 -30t-28.5 -12h-205q-18 0 -29 11.5t-11 30.5zM151 141q0 -27 14.5 -40.5t38.5 -13.5q32 0 62 30t30 66v21h-15q-61 0 -95.5 -12.5t-34.5 -50.5z" />
<glyph unicode="&#x102;" horiz-adv-x="575" d="M9 54q0 2 2 10l193 629q6 21 29.5 32.5t53.5 11.5t54 -11.5t30 -32.5l193 -629q2 -8 2 -10q0 -22 -27 -38t-55 -16q-37 0 -44 26l-38 133h-229l-38 -133q-7 -26 -44 -26q-29 0 -55.5 15.5t-26.5 38.5zM154 964h70q0 -32 19 -53.5t44 -21.5q24 0 43.5 21.5t19.5 53.5h70 q0 -53 -40.5 -93t-92.5 -40t-92.5 40t-40.5 93zM200 261h174l-87 307z" />
<glyph unicode="&#x103;" horiz-adv-x="471" d="M22 124q0 81 60 114t173 33h41v13q0 37 -21.5 64.5t-66.5 27.5t-77 -15.5t-37 -15.5q-20 0 -32 20t-12 44q0 29 51.5 50.5t108.5 21.5q109 0 162 -55.5t53 -139.5v-245q0 -17 -18 -29t-45 -12q-25 0 -41.5 12t-16.5 29v29q-69 -79 -152 -79q-57 0 -93.5 34t-36.5 99z M95 721h70q0 -32 19 -53.5t44 -21.5q24 0 43.5 21.5t19.5 53.5h70q0 -53 -40.5 -93t-92.5 -40t-92.5 40t-40.5 93zM151 141q0 -27 14.5 -40.5t38.5 -13.5q32 0 62 30t30 66v21h-15q-61 0 -95.5 -12.5t-34.5 -50.5z" />
<glyph unicode="&#x104;" horiz-adv-x="575" d="M9 54q0 2 2 10l193 629q6 21 29.5 32.5t53.5 11.5t54 -11.5t30 -32.5l193 -629q2 -8 2 -10q0 -30 -46 -47q-34 -21 -56 -54t-22 -64q0 -47 60 -47q23 0 23 -29q0 -26 -29 -26q-56 0 -86.5 24.5t-30.5 65.5q0 77 71 132q-7 5 -10 17l-38 133h-229l-38 -133q-7 -26 -44 -26 q-29 0 -55.5 15.5t-26.5 38.5zM200 261h174l-87 307z" />
<glyph unicode="&#x105;" horiz-adv-x="471" d="M22 124q0 81 60 114t173 33h41v13q0 37 -21.5 64.5t-66.5 27.5t-77 -15.5t-37 -15.5q-20 0 -32 20t-12 44q0 29 51.5 50.5t108.5 21.5q109 0 162 -55.5t53 -139.5v-245q0 -22 -27 -34q-34 -21 -56 -54t-22 -64q0 -47 60 -47q23 0 23 -29q0 -26 -29 -26q-56 0 -86.5 24.5 t-30.5 65.5q0 75 69 131q-22 13 -22 33v29q-69 -79 -152 -79q-57 0 -93.5 34t-36.5 99zM151 141q0 -27 14.5 -40.5t38.5 -13.5q32 0 62 30t30 66v21h-15q-61 0 -95.5 -12.5t-34.5 -50.5z" />
<glyph unicode="&#x106;" horiz-adv-x="550" d="M53 223v279q0 118 64 173.5t167 55.5q105 0 171.5 -52t66.5 -138q0 -37 -15 -50.5t-50 -13.5q-64 0 -65 41q-1 13 -2.5 22.5t-8 25t-16.5 26t-30 18t-47 7.5q-105 0 -105 -115v-279q0 -115 107 -115q32 0 53.5 10t31 28.5t13 33t4.5 35.5q3 41 64 41q35 0 50.5 -13.5 t15.5 -50.5q0 -90 -66.5 -144t-172.5 -54q-103 0 -166.5 55.5t-63.5 173.5zM205 860q0 22 17 31l132 64q10 2 13 2q16 0 28 -15.5t12 -33.5q0 -22 -18 -30l-130 -63q-10 -4 -14 -4q-16 0 -28 16t-12 33z" />
<glyph unicode="&#x107;" horiz-adv-x="434" d="M34 196v80q0 92 54 148.5t162 56.5q68 0 114 -24t46 -54q0 -21 -15 -42t-36 -21q-6 0 -35.5 14t-63.5 14q-97 0 -97 -92v-80q0 -92 98 -92q34 0 63 15t37 15q24 0 39.5 -20t15.5 -41q0 -31 -48.5 -56.5t-116.5 -25.5q-109 0 -163 56t-54 149zM142 617q0 23 17 31l132 64 q10 2 13 2q16 0 28 -15.5t12 -33.5q0 -22 -18 -30l-130 -63q-10 -4 -14 -4q-16 0 -28 16t-12 33z" />
<glyph unicode="&#x108;" horiz-adv-x="550" d="M53 223v279q0 118 64 173.5t167 55.5q105 0 171.5 -52t66.5 -138q0 -37 -15 -50.5t-50 -13.5q-64 0 -65 41q-1 13 -2.5 22.5t-8 25t-16.5 26t-30 18t-47 7.5q-105 0 -105 -115v-279q0 -115 107 -115q32 0 53.5 10t31 28.5t13 33t4.5 35.5q3 41 64 41q35 0 50.5 -13.5 t15.5 -50.5q0 -90 -66.5 -144t-172.5 -54q-103 0 -166.5 55.5t-63.5 173.5zM144 859q0 26 22 37l104 56q8 5 17 5q7 0 17 -5l104 -55q21 -13 21 -39q0 -15 -8 -27t-20 -12q-5 0 -10 3l-104 56l-104 -56q-6 -3 -11 -3q-12 0 -20 12t-8 28z" />
<glyph unicode="&#x109;" horiz-adv-x="434" d="M34 196v80q0 92 54 148.5t162 56.5q68 0 114 -24t46 -54q0 -21 -15 -42t-36 -21q-6 0 -35.5 14t-63.5 14q-97 0 -97 -92v-80q0 -92 98 -92q34 0 63 15t37 15q24 0 39.5 -20t15.5 -41q0 -31 -48.5 -56.5t-116.5 -25.5q-109 0 -163 56t-54 149zM93 616q0 26 22 37l104 56 q8 5 17 5q7 0 17 -5l104 -55q21 -13 21 -39q0 -15 -8 -27t-20 -12q-6 0 -10 3l-104 56l-104 -56q-6 -3 -11 -3q-12 0 -20 12t-8 28z" />
<glyph unicode="&#x10a;" horiz-adv-x="550" d="M53 223v279q0 118 64 173.5t167 55.5q105 0 171.5 -52t66.5 -138q0 -37 -15 -50.5t-50 -13.5q-64 0 -65 41q-1 13 -2.5 22.5t-8 25t-16.5 26t-30 18t-47 7.5q-105 0 -105 -115v-279q0 -115 107 -115q32 0 53.5 10t31 28.5t13 33t4.5 35.5q3 41 64 41q35 0 50.5 -13.5 t15.5 -50.5q0 -90 -66.5 -144t-172.5 -54q-103 0 -166.5 55.5t-63.5 173.5zM238 873q0 21 15 36.5t36 15.5t35.5 -15.5t14.5 -36.5t-14.5 -37t-35.5 -16t-36 16t-15 37z" />
<glyph unicode="&#x10b;" horiz-adv-x="434" d="M34 196v80q0 92 54 148.5t162 56.5q68 0 114 -24t46 -54q0 -21 -15 -42t-36 -21q-6 0 -35.5 14t-63.5 14q-97 0 -97 -92v-80q0 -92 98 -92q34 0 63 15t37 15q24 0 39.5 -20t15.5 -41q0 -31 -48.5 -56.5t-116.5 -25.5q-109 0 -163 56t-54 149zM182 630q0 21 15 36.5 t36 15.5t35.5 -15.5t14.5 -36.5t-14.5 -37t-35.5 -16t-36 16t-15 37z" />
<glyph unicode="&#x10c;" horiz-adv-x="550" d="M53 223v279q0 118 64 173.5t167 55.5q105 0 171.5 -52t66.5 -138q0 -37 -15 -50.5t-50 -13.5q-64 0 -65 41q-1 13 -2.5 22.5t-8 25t-16.5 26t-30 18t-47 7.5q-105 0 -105 -115v-279q0 -115 107 -115q32 0 53.5 10t31 28.5t13 33t4.5 35.5q3 41 64 41q35 0 50.5 -13.5 t15.5 -50.5q0 -90 -66.5 -144t-172.5 -54q-103 0 -166.5 55.5t-63.5 173.5zM143 936q0 15 8 27t20 12q7 0 12 -4l103 -66l102 66q7 4 12 4q12 0 20 -12t8 -27q0 -25 -21 -38l-103 -66q-10 -6 -18 -6q-9 0 -18 6l-103 66q-22 13 -22 38z" />
<glyph unicode="&#x10d;" horiz-adv-x="434" d="M34 196v80q0 92 54 148.5t162 56.5q68 0 114 -24t46 -54q0 -21 -15 -42t-36 -21q-6 0 -35.5 14t-63.5 14q-97 0 -97 -92v-80q0 -92 98 -92q34 0 63 15t37 15q24 0 39.5 -20t15.5 -41q0 -31 -48.5 -56.5t-116.5 -25.5q-109 0 -163 56t-54 149zM88 693q0 15 8 27t20 12 q7 0 12 -4l103 -66l102 66q7 4 12 4q12 0 20 -12t8 -27q0 -25 -21 -38l-103 -66q-11 -6 -18 -6q-9 0 -18 6l-103 66q-22 13 -22 38z" />
<glyph unicode="&#x10e;" horiz-adv-x="580" d="M60 40v651q0 16 16 28t41 12h177q107 0 171 -55t64 -174v-273q0 -119 -64 -174t-171 -55h-177q-25 0 -41 12t-16 28zM132 936q0 15 8 27t20 12q7 0 12 -4l103 -66l102 66q7 4 12 4q12 0 20 -12t8 -27q0 -25 -21 -38l-103 -66q-11 -6 -18 -6q-9 0 -18 6l-103 66 q-22 13 -22 38zM190 114h104q105 0 105 115v273q0 115 -105 115h-104v-503z" />
<glyph unicode="&#x10f;" horiz-adv-x="520" d="M33 196v82q0 83 52.5 143t125.5 60q44 0 77.5 -22t51.5 -54v307q0 18 18.5 29t46.5 11t46 -11t18 -29v-671q0 -16 -18.5 -28.5t-45.5 -12.5q-23 0 -40.5 13t-17.5 28v29q-16 -32 -54.5 -55.5t-84.5 -23.5q-69 0 -122 62t-53 143zM162 196q0 -35 26 -63.5t61 -28.5 t63 27.5t28 46.5v100q0 40 -27.5 65t-62.5 25q-36 0 -62 -27.5t-26 -62.5v-82zM519 673q0 28 19.5 48t47.5 20t48 -20t20 -47q0 -18 -55 -147q-8 -16 -27 -16q-15 0 -29 9.5t-14 24.5q0 7 4 14l23 53q-37 20 -37 61z" />
<glyph unicode="&#x110;" horiz-adv-x="587" d="M-7 382q0 19 9 33t24 14h41v262q0 16 16 28t41 12h177q107 0 171 -55t64 -174v-273q0 -119 -64 -174t-171 -55h-177q-25 0 -41 12t-16 28v296h-41q-15 0 -24 13.5t-9 32.5zM197 114h104q105 0 105 115v273q0 115 -105 115h-104v-188h77q16 0 25 -14t9 -33t-9 -32.5 t-25 -13.5h-77v-222z" />
<glyph unicode="&#x111;" horiz-adv-x="520" d="M33 196v82q0 83 52.5 143t125.5 60q44 0 77.5 -22t51.5 -54v148h-78q-16 0 -25 14t-9 33t9 33t25 14h78v65q0 18 18.5 29t46.5 11t46 -11t18 -29v-65h29q16 0 25 -14t9 -33q0 -20 -9 -33.5t-25 -13.5h-29v-512q0 -16 -18.5 -28.5t-45.5 -12.5q-23 0 -40.5 13t-17.5 28v29 q-16 -32 -54.5 -55.5t-84.5 -23.5q-69 0 -122 62t-53 143zM162 196q0 -35 26 -63.5t61 -28.5t63 27.5t28 46.5v100q0 40 -27.5 65t-62.5 25q-36 0 -62 -27.5t-26 -62.5v-82z" />
<glyph unicode="&#x112;" horiz-adv-x="530" d="M60 41v649q0 19 17 30t40 11h356q20 0 30.5 -17t10.5 -39q0 -24 -11 -41t-30 -17h-283v-200h152q19 0 30 -15.5t11 -36.5q0 -19 -10.5 -34.5t-30.5 -15.5h-152v-201h283q19 0 30 -17t11 -41q0 -22 -10.5 -39t-30.5 -17h-356q-23 0 -40 11t-17 30zM147 895q0 18 11 30.5 t29 12.5h205q16 0 28.5 -12.5t12.5 -30.5t-12.5 -30t-28.5 -12h-205q-18 0 -29 11.5t-11 30.5z" />
<glyph unicode="&#x113;" horiz-adv-x="484" d="M32 196v85q0 82 64 141t155 59q85 0 145.5 -53.5t60.5 -134.5q0 -30 -7.5 -49.5t-23 -27.5t-28.5 -10t-34 -2h-203v-15q0 -43 32 -69.5t85 -26.5q38 0 75 19t48 19q21 0 35 -19.5t14 -37.5q0 -28 -50.5 -55.5t-125.5 -27.5q-107 0 -174.5 56.5t-67.5 148.5zM107 652 q0 18 11 30.5t29 12.5h205q16 0 28.5 -12.5t12.5 -30.5t-12.5 -30t-28.5 -12h-205q-18 0 -29 11.5t-11 30.5zM161 280h146q16 0 22.5 5.5t6.5 21.5q0 35 -25.5 57t-62.5 22q-35 0 -61 -21.5t-26 -56.5v-28z" />
<glyph unicode="&#x114;" horiz-adv-x="530" d="M60 41v649q0 19 17 30t40 11h356q20 0 30.5 -17t10.5 -39q0 -24 -11 -41t-30 -17h-283v-200h152q19 0 30 -15.5t11 -36.5q0 -19 -10.5 -34.5t-30.5 -15.5h-152v-201h283q19 0 30 -17t11 -41q0 -22 -10.5 -39t-30.5 -17h-356q-23 0 -40 11t-17 30zM153 964h70 q0 -32 19 -53.5t44 -21.5q24 0 43.5 21.5t19.5 53.5h70q0 -53 -40.5 -93t-92.5 -40t-92.5 40t-40.5 93z" />
<glyph unicode="&#x115;" horiz-adv-x="484" d="M32 196v85q0 82 64 141t155 59q85 0 145.5 -53.5t60.5 -134.5q0 -30 -7.5 -49.5t-23 -27.5t-28.5 -10t-34 -2h-203v-15q0 -43 32 -69.5t85 -26.5q38 0 75 19t48 19q21 0 35 -19.5t14 -37.5q0 -28 -50.5 -55.5t-125.5 -27.5q-107 0 -174.5 56.5t-67.5 148.5zM116 721h70 q0 -32 19 -53.5t44 -21.5q24 0 43.5 21.5t19.5 53.5h70q0 -53 -40.5 -93t-92.5 -40t-92.5 40t-40.5 93zM161 280h146q16 0 22.5 5.5t6.5 21.5q0 35 -25.5 57t-62.5 22q-35 0 -61 -21.5t-26 -56.5v-28z" />
<glyph unicode="&#x116;" horiz-adv-x="530" d="M60 41v649q0 19 17 30t40 11h356q20 0 30.5 -17t10.5 -39q0 -24 -11 -41t-30 -17h-283v-200h152q19 0 30 -15.5t11 -36.5q0 -19 -10.5 -34.5t-30.5 -15.5h-152v-201h283q19 0 30 -17t11 -41q0 -22 -10.5 -39t-30.5 -17h-356q-23 0 -40 11t-17 30zM247 873q0 21 15 36.5 t36 15.5t35.5 -15.5t14.5 -36.5t-14.5 -37t-35.5 -16t-36 16t-15 37z" />
<glyph unicode="&#x117;" horiz-adv-x="484" d="M32 196v85q0 82 64 141t155 59q85 0 145.5 -53.5t60.5 -134.5q0 -30 -7.5 -49.5t-23 -27.5t-28.5 -10t-34 -2h-203v-15q0 -43 32 -69.5t85 -26.5q38 0 75 19t48 19q21 0 35 -19.5t14 -37.5q0 -28 -50.5 -55.5t-125.5 -27.5q-107 0 -174.5 56.5t-67.5 148.5zM161 280h146 q16 0 22.5 5.5t6.5 21.5q0 35 -25.5 57t-62.5 22q-35 0 -61 -21.5t-26 -56.5v-28zM198 630q0 21 15 36.5t36 15.5t35.5 -15.5t14.5 -36.5t-14.5 -37t-35.5 -16t-36 16t-15 37z" />
<glyph unicode="&#x118;" horiz-adv-x="530" d="M60 41v649q0 19 17 30t40 11h356q20 0 30.5 -17t10.5 -39q0 -24 -11 -41t-30 -17h-283v-200h152q19 0 30 -15.5t11 -36.5q0 -19 -10.5 -34.5t-30.5 -15.5h-152v-201h283q19 0 30 -17t11 -41q0 -41 -27 -53q-31 -21 -51 -52.5t-20 -61.5q0 -47 60 -47q23 0 23 -29 q0 -26 -29 -26q-56 0 -86.5 24.5t-30.5 65.5q0 68 60 123h-296q-23 0 -40 11t-17 30z" />
<glyph unicode="&#x119;" horiz-adv-x="484" d="M32 196v85q0 82 64 141t155 59q85 0 145.5 -53.5t60.5 -134.5q0 -30 -7.5 -49.5t-23 -27.5t-28.5 -10t-34 -2h-203v-15q0 -43 32 -69.5t85 -26.5q38 0 75 19t48 19q21 0 35 -19.5t14 -37.5q0 -15 -17.5 -32t-46.5 -30q-34 -21 -56 -54t-22 -64q0 -47 60 -47q23 0 23 -29 q0 -26 -29 -26q-56 0 -86.5 24.5t-30.5 65.5q0 58 46 110q-5 -1 -17 -1q-107 0 -174.5 56.5t-67.5 148.5zM161 280h146q16 0 22.5 5.5t6.5 21.5q0 35 -25.5 57t-62.5 22q-35 0 -61 -21.5t-26 -56.5v-28z" />
<glyph unicode="&#x11a;" horiz-adv-x="530" d="M60 41v649q0 19 17 30t40 11h356q20 0 30.5 -17t10.5 -39q0 -24 -11 -41t-30 -17h-283v-200h152q19 0 30 -15.5t11 -36.5q0 -19 -10.5 -34.5t-30.5 -15.5h-152v-201h283q19 0 30 -17t11 -41q0 -22 -10.5 -39t-30.5 -17h-356q-23 0 -40 11t-17 30zM143 936q0 15 8 27 t20 12q7 0 12 -4l103 -66l102 66q7 4 12 4q12 0 20 -12t8 -27q0 -25 -21 -38l-103 -66q-10 -6 -18 -6q-9 0 -18 6l-103 66q-22 13 -22 38z" />
<glyph unicode="&#x11b;" horiz-adv-x="484" d="M32 196v85q0 82 64 141t155 59q85 0 145.5 -53.5t60.5 -134.5q0 -30 -7.5 -49.5t-23 -27.5t-28.5 -10t-34 -2h-203v-15q0 -43 32 -69.5t85 -26.5q38 0 75 19t48 19q21 0 35 -19.5t14 -37.5q0 -28 -50.5 -55.5t-125.5 -27.5q-107 0 -174.5 56.5t-67.5 148.5zM108 693 q0 15 8 27t20 12q7 0 12 -4l103 -66l102 66q7 4 12 4q12 0 20 -12t8 -27q0 -25 -21 -38l-103 -66q-11 -6 -18 -6q-9 0 -18 6l-103 66q-22 13 -22 38zM161 280h146q16 0 22.5 5.5t6.5 21.5q0 35 -25.5 57t-62.5 22q-35 0 -61 -21.5t-26 -56.5v-28z" />
<glyph unicode="&#x11c;" horiz-adv-x="564" d="M52 223v279q0 118 63.5 173.5t166.5 55.5q106 0 172.5 -52t66.5 -140q0 -36 -15.5 -49t-49.5 -13q-64 0 -65 41q-3 44 -25 71.5t-79 27.5q-105 0 -105 -115v-279q0 -115 104 -115q50 0 77.5 29t27.5 86v59h-81q-19 0 -29.5 15t-10.5 36q0 20 11 35.5t29 15.5h170 q19 0 30 -12.5t11 -29.5v-119q0 -119 -64 -174t-171 -55t-170.5 55t-63.5 174zM131 859q0 26 22 37l104 56q8 5 17 5q7 0 17 -5l104 -55q21 -13 21 -39q0 -15 -8 -27t-20 -12q-6 0 -10 3l-104 56l-104 -56q-6 -3 -11 -3q-12 0 -20 12t-8 28z" />
<glyph unicode="&#x11d;" horiz-adv-x="470" d="M15 -80q0 69 73 106q-42 20 -42 64t51 78q-62 48 -62 127v21q0 73 54 119t141 46q66 0 114 -29q30 68 61 68q23 0 37 -13t14 -27q0 -16 -16 -28q-37 -26 -47 -38q35 -41 35 -98v-21q0 -72 -55.5 -119.5t-142.5 -47.5q-36 0 -65 9q-12 -10 -12 -20q0 -17 31 -25 t75.5 -13.5t88.5 -16t75 -42.5t31 -84q0 -78 -63 -117.5t-155 -39.5q-93 0 -157 38t-64 103zM92 616q0 26 22 37l104 56q8 5 17 5q7 0 17 -5l104 -55q21 -13 21 -39q0 -15 -8 -27t-20 -12q-5 0 -10 3l-104 56l-104 -56q-6 -3 -11 -3q-12 0 -20 12t-8 28zM137 -67 q0 -33 28 -52t69 -19t68 19t27 51q0 14 -5 24.5t-17.5 17.5t-22 11.5t-30.5 8t-30.5 4.5t-32.5 4q-54 -25 -54 -69zM160 296q0 -39 19 -64.5t53 -25.5q33 0 52 24.5t19 64.5v21q0 37 -19.5 62t-52.5 25t-52 -24.5t-19 -62.5v-20z" />
<glyph unicode="&#x11e;" horiz-adv-x="564" d="M52 223v279q0 118 63.5 173.5t166.5 55.5q106 0 172.5 -52t66.5 -140q0 -36 -15.5 -49t-49.5 -13q-64 0 -65 41q-3 44 -25 71.5t-79 27.5q-105 0 -105 -115v-279q0 -115 104 -115q50 0 77.5 29t27.5 86v59h-81q-19 0 -29.5 15t-10.5 36q0 20 11 35.5t29 15.5h170 q19 0 30 -12.5t11 -29.5v-119q0 -119 -64 -174t-171 -55t-170.5 55t-63.5 174zM152 964h70q0 -32 19 -53.5t44 -21.5q24 0 43.5 21.5t19.5 53.5h70q0 -53 -40.5 -93t-92.5 -40t-92.5 40t-40.5 93z" />
<glyph unicode="&#x11f;" horiz-adv-x="470" d="M15 -80q0 69 73 106q-42 20 -42 64t51 78q-62 48 -62 127v21q0 73 54 119t141 46q66 0 114 -29q30 68 61 68q23 0 37 -13t14 -27q0 -16 -16 -28q-37 -26 -47 -38q35 -41 35 -98v-21q0 -72 -55.5 -119.5t-142.5 -47.5q-36 0 -65 9q-12 -10 -12 -20q0 -17 31 -25 t75.5 -13.5t88.5 -16t75 -42.5t31 -84q0 -78 -63 -117.5t-155 -39.5q-93 0 -157 38t-64 103zM101 721h70q0 -32 19 -53.5t44 -21.5q24 0 43.5 21.5t19.5 53.5h70q0 -53 -40.5 -93t-92.5 -40t-92.5 40t-40.5 93zM137 -67q0 -33 28 -52t69 -19t68 19t27 51q0 14 -5 24.5 t-17.5 17.5t-22 11.5t-30.5 8t-30.5 4.5t-32.5 4q-54 -25 -54 -69zM160 296q0 -39 19 -64.5t53 -25.5q33 0 52 24.5t19 64.5v21q0 37 -19.5 62t-52.5 25t-52 -24.5t-19 -62.5v-20z" />
<glyph unicode="&#x120;" horiz-adv-x="564" d="M52 223v279q0 118 63.5 173.5t166.5 55.5q106 0 172.5 -52t66.5 -140q0 -36 -15.5 -49t-49.5 -13q-64 0 -65 41q-3 44 -25 71.5t-79 27.5q-105 0 -105 -115v-279q0 -115 104 -115q50 0 77.5 29t27.5 86v59h-81q-19 0 -29.5 15t-10.5 36q0 20 11 35.5t29 15.5h170 q19 0 30 -12.5t11 -29.5v-119q0 -119 -64 -174t-171 -55t-170.5 55t-63.5 174zM232 873q0 21 15 36.5t36 15.5t35.5 -15.5t14.5 -36.5t-14.5 -37t-35.5 -16t-36 16t-15 37z" />
<glyph unicode="&#x121;" horiz-adv-x="470" d="M15 -80q0 69 73 106q-42 20 -42 64t51 78q-62 48 -62 127v21q0 73 54 119t141 46q66 0 114 -29q30 68 61 68q23 0 37 -13t14 -27q0 -16 -16 -28q-37 -26 -47 -38q35 -41 35 -98v-21q0 -72 -55.5 -119.5t-142.5 -47.5q-36 0 -65 9q-12 -10 -12 -20q0 -17 31 -25 t75.5 -13.5t88.5 -16t75 -42.5t31 -84q0 -78 -63 -117.5t-155 -39.5q-93 0 -157 38t-64 103zM137 -67q0 -33 28 -52t69 -19t68 19t27 51q0 14 -5 24.5t-17.5 17.5t-22 11.5t-30.5 8t-30.5 4.5t-32.5 4q-54 -25 -54 -69zM160 296q0 -39 19 -64.5t53 -25.5q33 0 52 24.5 t19 64.5v21q0 37 -19.5 62t-52.5 25t-52 -24.5t-19 -62.5v-20zM183 630q0 21 15 36.5t36 15.5t35.5 -15.5t14.5 -36.5t-14.5 -37t-35.5 -16t-36 16t-15 37z" />
<glyph unicode="&#x122;" horiz-adv-x="564" d="M52 223v279q0 118 63.5 173.5t166.5 55.5q106 0 172.5 -52t66.5 -140q0 -36 -15.5 -49t-49.5 -13q-64 0 -65 41q-3 44 -25 71.5t-79 27.5q-105 0 -105 -115v-279q0 -115 104 -115q50 0 77.5 29t27.5 86v59h-81q-19 0 -29.5 15t-10.5 36q0 20 11 35.5t29 15.5h170 q19 0 30 -12.5t11 -29.5v-119q0 -119 -64 -174t-171 -55t-170.5 55t-63.5 174zM184 -145q0 21 17 30l132 64q7 3 13 3q16 0 28 -15.5t12 -33.5q0 -23 -18 -31l-130 -62q-10 -4 -14 -4q-16 0 -28 16t-12 33z" />
<glyph unicode="&#x123;" horiz-adv-x="470" d="M15 -80q0 69 73 106q-42 20 -42 64t51 78q-62 48 -62 127v21q0 73 54 119t141 46q66 0 114 -29q30 68 61 68q23 0 37 -13t14 -27q0 -16 -16 -28q-37 -26 -47 -38q35 -41 35 -98v-21q0 -72 -55.5 -119.5t-142.5 -47.5q-36 0 -65 9q-12 -10 -12 -20q0 -17 31 -25 t75.5 -13.5t88.5 -16t75 -42.5t31 -84q0 -78 -63 -117.5t-155 -39.5q-93 0 -157 38t-64 103zM137 -67q0 -33 28 -52t69 -19t68 19t27 51q0 14 -5 24.5t-17.5 17.5t-22 11.5t-30.5 8t-30.5 4.5t-32.5 4q-54 -25 -54 -69zM148 617q0 23 17 31l132 64q10 2 13 2q16 0 28 -15.5 t12 -33.5q0 -22 -18 -30l-130 -63q-10 -4 -14 -4q-16 0 -28 16t-12 33zM160 296q0 -39 19 -64.5t53 -25.5q33 0 52 24.5t19 64.5v21q0 37 -19.5 62t-52.5 25t-52 -24.5t-19 -62.5v-20zM170 837q0 18 56 147q7 16 26 16q15 0 29 -9.5t14 -24.5q0 -5 -3 -14l-24 -53 q37 -20 37 -61q0 -28 -19.5 -48t-47.5 -20t-48 20t-20 47z" />
<glyph unicode="&#x124;" horiz-adv-x="605" d="M60 41v650q0 20 19 30t46 10t46 -10t19 -30v-261h225v261q0 20 19 30t46 10t46 -10t19 -30v-650q0 -19 -19.5 -30t-45.5 -11q-27 0 -46 11t-19 30v287h-225v-287q0 -19 -19.5 -30t-45.5 -11q-27 0 -46 11t-19 30zM160 859q0 26 22 37l104 56q8 5 17 5q7 0 17 -5l104 -55 q21 -13 21 -39q0 -15 -8 -27t-20 -12q-5 0 -10 3l-104 56l-104 -56q-6 -3 -11 -3q-12 0 -20 12t-8 28z" />
<glyph unicode="&#x125;" d="M-30 871q0 26 22 37l104 56q8 5 17 5q7 0 17 -5l104 -55q21 -13 21 -39q0 -15 -8 -27t-20 -12q-5 0 -10 3l-104 56l-104 -56q-6 -3 -11 -3q-12 0 -20 12t-8 28zM51 41v671q0 18 17.5 29t46.5 11q27 0 46 -11t19 -29v-307q15 32 48 54t78 22q69 0 120.5 -60t51.5 -143 v-237q0 -19 -19.5 -30t-45.5 -11q-25 0 -44.5 11t-19.5 30v237q0 34 -26 62t-61 28q-33 0 -57.5 -25t-24.5 -65v-237q0 -15 -19.5 -28t-45.5 -13q-27 0 -45.5 12.5t-18.5 28.5z" />
<glyph unicode="&#x126;" horiz-adv-x="610" d="M17 576q0 17 9 30t24 13h13v72q0 20 19 30t46 10t46 -10t19 -30v-72h225v72q0 20 19 30t46 10t46 -10t19 -30v-72h11q15 0 24 -13t9 -30t-9 -29.5t-24 -12.5h-11v-493q0 -19 -19.5 -30t-45.5 -11q-27 0 -46 11t-19 30v287h-225v-287q0 -19 -19.5 -30t-45.5 -11 q-27 0 -46 11t-19 30v493h-13q-15 0 -24 12.5t-9 29.5zM193 430h225v104h-225v-104z" />
<glyph unicode="&#x127;" d="M-15 597q0 18 11 30.5t29 12.5h26v72q0 18 17.5 29t46.5 11q27 0 46 -11t19 -29v-72h50q16 0 28.5 -12.5t12.5 -30.5t-12.5 -30t-28.5 -12h-50v-150q15 32 48 54t78 22q69 0 120.5 -60t51.5 -143v-237q0 -19 -19.5 -30t-45.5 -11q-25 0 -44.5 11t-19.5 30v237 q0 34 -26 62t-61 28q-33 0 -57.5 -25t-24.5 -65v-237q0 -15 -19.5 -28t-45.5 -13q-27 0 -45.5 12.5t-18.5 28.5v514h-26q-18 0 -29 11.5t-11 30.5z" />
<glyph unicode="&#x128;" horiz-adv-x="250" d="M-46 878q0 28 18 44.5t34.5 20t33.5 3.5q30 0 73 -14.5t69 -14.5q24 0 48.5 12t32.5 12q17 0 25 -15t8 -27q0 -22 -9.5 -36.5t-25 -21t-27.5 -8.5t-23 -2q-35 0 -77 14.5t-65 14.5q-24 0 -49 -12t-33 -12q-17 0 -25 15t-8 27zM60 41v650q0 20 19 30t46 10t46 -10t19 -30 v-650q0 -19 -19.5 -30t-45.5 -11q-27 0 -46 11t-19 30z" />
<glyph unicode="&#x129;" horiz-adv-x="229" d="M-56 635q0 28 18 44.5t34.5 20t33.5 3.5q30 0 73 -14.5t69 -14.5q24 0 48.5 12t32.5 12q17 0 25 -15t8 -27q0 -22 -9.5 -36.5t-25 -21t-27.5 -8.5t-23 -2q-35 0 -77 14.5t-65 14.5q-24 0 -49 -12t-33 -12q-17 0 -25 15t-8 27zM50 41v394q0 18 18 29t46 11t46.5 -11 t18.5 -29v-394q0 -15 -19.5 -28t-45.5 -13q-27 0 -45.5 12.5t-18.5 28.5z" />
<glyph unicode="&#x12a;" horiz-adv-x="250" d="M-19 895q0 18 11 30.5t29 12.5h205q16 0 28.5 -12.5t12.5 -30.5t-12.5 -30t-28.5 -12h-205q-18 0 -29 11.5t-11 30.5zM60 41v650q0 20 19 30t46 10t46 -10t19 -30v-650q0 -19 -19.5 -30t-45.5 -11q-27 0 -46 11t-19 30z" />
<glyph unicode="&#x12b;" horiz-adv-x="229" d="M-28 652q0 18 11 30.5t29 12.5h205q16 0 28.5 -12.5t12.5 -30.5t-12.5 -30t-28.5 -12h-205q-18 0 -29 11.5t-11 30.5zM50 41v394q0 18 18 29t46 11t46.5 -11t18.5 -29v-394q0 -15 -19.5 -28t-45.5 -13q-27 0 -45.5 12.5t-18.5 28.5z" />
<glyph unicode="&#x12c;" horiz-adv-x="250" d="M-8 964h70q0 -32 19 -53.5t44 -21.5q24 0 43.5 21.5t19.5 53.5h70q0 -53 -40.5 -93t-92.5 -40t-92.5 40t-40.5 93zM60 41v650q0 20 19 30t46 10t46 -10t19 -30v-650q0 -19 -19.5 -30t-45.5 -11q-27 0 -46 11t-19 30z" />
<glyph unicode="&#x12d;" horiz-adv-x="229" d="M-18 721h70q0 -32 19 -53.5t44 -21.5q24 0 43.5 21.5t19.5 53.5h70q0 -53 -40.5 -93t-92.5 -40t-92.5 40t-40.5 93zM50 41v394q0 18 18 29t46 11t46.5 -11t18.5 -29v-394q0 -15 -19.5 -28t-45.5 -13q-27 0 -45.5 12.5t-18.5 28.5z" />
<glyph unicode="&#x12e;" horiz-adv-x="250" d="M23 -122q0 73 65 128q-28 10 -28 35v650q0 20 19 30t46 10t46 -10t19 -30v-650q0 -22 -29 -35q-33 -20 -54 -53t-21 -63q0 -47 60 -47q23 0 23 -29q0 -26 -29 -26q-56 0 -86.5 24.5t-30.5 65.5z" />
<glyph unicode="&#x12f;" horiz-adv-x="229" d="M10 -123q0 75 68 130q-28 13 -28 34v394q0 18 18 29t46 11t46.5 -11t18.5 -29v-394q0 -20 -28 -34q-34 -21 -56 -54t-22 -64q0 -47 60 -47q23 0 23 -29q0 -26 -29 -26q-56 0 -86.5 24.5t-30.5 65.5zM43 644q0 26 20.5 44.5t50.5 18.5q29 0 49.5 -18.5t20.5 -44.5 q0 -25 -20.5 -44t-49.5 -19q-30 0 -50.5 19t-20.5 44z" />
<glyph unicode="&#x130;" horiz-adv-x="250" d="M60 41v650q0 20 19 30t46 10t46 -10t19 -30v-650q0 -19 -19.5 -30t-45.5 -11q-27 0 -46 11t-19 30zM75 873q0 21 15 36.5t36 15.5t35.5 -15.5t14.5 -36.5t-14.5 -37t-35.5 -16t-36 16t-15 37z" />
<glyph unicode="&#x131;" horiz-adv-x="229" d="M50 41v394q0 18 18 29t46 11t46.5 -11t18.5 -29v-394q0 -15 -19.5 -28t-45.5 -13q-27 0 -45.5 12.5t-18.5 28.5z" />
<glyph unicode="&#x132;" horiz-adv-x="781" d="M60 41v650q0 20 19 30t46 10t46 -10t19 -30v-650q0 -19 -19.5 -30t-45.5 -11q-27 0 -46 11t-19 30zM255 193q0 36 15 49.5t50 13.5q61 0 65 -41q4 -107 103 -107q106 0 106 115v394h-102q-19 0 -30 17t-11 41q0 23 10.5 39.5t30.5 16.5h175q23 0 40 -11t17 -30v-467 q0 -118 -63.5 -173.5t-166.5 -55.5q-106 0 -172.5 53.5t-66.5 145.5z" />
<glyph unicode="&#x133;" horiz-adv-x="438" d="M43 644q0 26 20.5 44.5t50.5 18.5q29 0 49.5 -18.5t20.5 -44.5q0 -25 -20.5 -44t-49.5 -19q-30 0 -50.5 19t-20.5 44zM50 41v394q0 18 18 29t46 11t46.5 -11t18.5 -29v-394q0 -15 -19.5 -28t-45.5 -13q-27 0 -45.5 12.5t-18.5 28.5zM169 -168q0 25 14 40.5t35 15.5 q25 0 32.5 20t7.5 60v467q0 18 18 29t45 11q28 0 47 -11t19 -29v-467q0 -86 -39 -137.5t-112 -51.5q-67 0 -67 53zM251 644q0 26 20.5 44.5t50.5 18.5q29 0 49.5 -18.5t20.5 -44.5q0 -25 -20.5 -44t-49.5 -19q-30 0 -50.5 19t-20.5 44z" />
<glyph unicode="&#x134;" horiz-adv-x="539" d="M13 193q0 36 15 49.5t50 13.5q61 0 65 -41q4 -107 103 -107q106 0 106 115v394h-102q-19 0 -30 17t-11 41q0 23 10.5 39.5t30.5 16.5h175q23 0 40 -11t17 -30v-467q0 -118 -63.5 -173.5t-166.5 -55.5q-106 0 -172.5 53.5t-66.5 145.5zM128 859q0 26 22 37l104 56 q8 5 17 5q7 0 17 -5l104 -55q21 -13 21 -39q0 -15 -8 -27t-20 -12q-5 0 -10 3l-104 56l-104 -56q-6 -3 -11 -3q-12 0 -20 12t-8 28z" />
<glyph unicode="&#x135;" horiz-adv-x="231" d="M-38 -168q0 25 14 40.5t35 15.5q25 0 32.5 20t7.5 60v467q0 18 18 29t45 11q28 0 47 -11t19 -29v-467q0 -86 -39 -137.5t-112 -51.5q-67 0 -67 53zM-27 616q0 26 22 37l104 56q8 5 17 5q7 0 17 -5l104 -55q21 -13 21 -39q0 -15 -8 -27t-20 -12q-6 0 -10 3l-104 56 l-104 -56q-6 -3 -11 -3q-12 0 -20 12t-8 28z" />
<glyph unicode="&#x136;" horiz-adv-x="552" d="M60 41v650q0 20 19 30t46 10t46 -10t19 -30v-273l216 294q14 19 36 19q25 0 50 -21.5t25 -45.5q0 -15 -8 -25l-179 -224l218 -332q7 -10 7 -23q0 -24 -24.5 -44.5t-53.5 -20.5q-30 0 -45 25l-188 285l-54 -68v-196q0 -19 -19.5 -30t-45.5 -11q-27 0 -46 11t-19 30z M179 -145q0 21 17 30l132 64q8 3 13 3q16 0 28 -15.5t12 -33.5q0 -23 -18 -31l-130 -62q-10 -4 -14 -4q-16 0 -28 16t-12 33z" />
<glyph unicode="&#x137;" horiz-adv-x="492" d="M51 41v671q0 18 17.5 29t45.5 11t47 -11t19 -29v-419l188 177q12 10 26 10q21 0 42 -20t21 -42q0 -13 -11 -24l-118 -107l147 -210q7 -10 7 -21q0 -22 -24.5 -43t-48.5 -21q-20 0 -32 17l-135 199l-62 -57v-110q0 -15 -20 -28t-46 -13q-27 0 -45 12.5t-18 28.5zM144 -145 q0 21 17 30l132 64q7 3 13 3q16 0 28 -15.5t12 -33.5q0 -23 -18 -31l-130 -62q-10 -4 -14 -4q-16 0 -28 16t-12 33z" />
<glyph unicode="&#x138;" horiz-adv-x="491" d="M50 41v394q0 18 17.5 29t45.5 11t47 -11t19 -29v-142l188 177q12 10 26 10q21 0 42 -20t21 -42q0 -13 -11 -24l-118 -107l147 -210q7 -10 7 -21q0 -22 -24.5 -43t-48.5 -21q-20 0 -32 17l-135 199l-62 -57v-110q0 -15 -20 -28t-46 -13q-27 0 -45 12.5t-18 28.5z" />
<glyph unicode="&#x139;" horiz-adv-x="484" d="M60 41v650q0 20 19 30t46 10t46 -10t19 -30v-577h244q18 0 28.5 -17t10.5 -40t-10.5 -40t-28.5 -17h-317q-23 0 -40 11t-17 30zM156 860q0 22 17 31l132 64q10 2 13 2q16 0 28 -15.5t12 -33.5q0 -22 -18 -30l-130 -63q-10 -4 -14 -4q-16 0 -28 16t-12 33z" />
<glyph unicode="&#x13a;" horiz-adv-x="247" d="M46 843q0 23 17 31l132 64q10 2 13 2q16 0 28 -15.5t12 -33.5q0 -22 -18 -30l-130 -63q-10 -4 -14 -4q-16 0 -28 16t-12 33zM59 41v671q0 18 17.5 29t46.5 11q27 0 46 -11t19 -29v-671q0 -15 -19.5 -28t-45.5 -13q-27 0 -45.5 12.5t-18.5 28.5z" />
<glyph unicode="&#x13b;" horiz-adv-x="484" d="M60 41v650q0 20 19 30t46 10t46 -10t19 -30v-577h244q18 0 28.5 -17t10.5 -40t-10.5 -40t-28.5 -17h-317q-23 0 -40 11t-17 30zM157 -145q0 21 17 30l132 64q8 3 13 3q16 0 28 -15.5t12 -33.5q0 -23 -18 -31l-130 -62q-10 -4 -14 -4q-16 0 -28 16t-12 33z" />
<glyph unicode="&#x13c;" horiz-adv-x="247" d="M23 -145q0 21 17 30l132 64q8 3 13 3q16 0 28 -15.5t12 -33.5q0 -23 -18 -31l-130 -62q-10 -4 -14 -4q-16 0 -28 16t-12 33zM59 41v671q0 18 17.5 29t46.5 11q27 0 46 -11t19 -29v-671q0 -15 -19.5 -28t-45.5 -13q-27 0 -45.5 12.5t-18.5 28.5z" />
<glyph unicode="&#x13d;" horiz-adv-x="485" d="M60 41v650q0 20 19 30t46 10t46 -10t19 -30v-577h244q18 0 28.5 -17t10.5 -40t-10.5 -40t-28.5 -17h-317q-23 0 -40 11t-17 30zM307 673q0 28 19.5 48t47.5 20t48 -20t20 -47q0 -18 -55 -147q-8 -16 -27 -16q-15 0 -29 9.5t-14 24.5q0 7 4 14l23 53q-37 20 -37 61z" />
<glyph unicode="&#x13e;" horiz-adv-x="247" d="M59 41v671q0 18 17.5 29t46.5 11q27 0 46 -11t19 -29v-671q0 -15 -19.5 -28t-45.5 -13q-27 0 -45.5 12.5t-18.5 28.5zM241 673q0 28 19.5 48t47.5 20t48 -20t20 -47q0 -18 -55 -147q-8 -16 -27 -16q-15 0 -29 9.5t-14 24.5q0 7 4 14l23 53q-37 20 -37 61z" />
<glyph unicode="&#x13f;" horiz-adv-x="485" d="M60 41v650q0 20 19 30t46 10t46 -10t19 -30v-577h244q18 0 28.5 -17t10.5 -40t-10.5 -40t-28.5 -17h-317q-23 0 -40 11t-17 30zM296 421q0 26 21 44.5t51 18.5t50.5 -18.5t20.5 -44.5t-20.5 -45t-50.5 -19t-51 19t-21 45z" />
<glyph unicode="&#x140;" horiz-adv-x="370" d="M59 41v671q0 18 17.5 29t46.5 11q27 0 46 -11t19 -29v-671q0 -15 -19.5 -28t-45.5 -13q-27 0 -45.5 12.5t-18.5 28.5zM227 300q0 26 21 44.5t51 18.5t50.5 -18.5t20.5 -44.5t-20.5 -45t-50.5 -19t-51 19t-21 45z" />
<glyph unicode="&#x141;" horiz-adv-x="490" d="M-7 310q0 23 16 30l57 28v323q0 20 19 30t46 10t46 -10t19 -30v-260l60 30q4 2 12 2q17 0 31.5 -19t14.5 -38q0 -22 -17 -30l-101 -50v-212h244q18 0 28.5 -17t10.5 -40t-10.5 -40t-28.5 -17h-317q-23 0 -40 11t-17 30v222l-16 -8q-6 -3 -12 -3q-18 0 -31.5 18.5 t-13.5 39.5z" />
<glyph unicode="&#x142;" horiz-adv-x="319" d="M10 310q0 23 16 30l68 33v339q0 18 17.5 29t46.5 11q27 0 46 -11t19 -29v-276l30 15q6 3 11 3q18 0 32 -19t14 -39q0 -22 -17 -30l-70 -35v-290q0 -15 -19.5 -28t-45.5 -13q-27 0 -45.5 12.5t-18.5 28.5v227l-27 -13q-6 -3 -12 -3q-18 0 -31.5 18.5t-13.5 39.5z" />
<glyph unicode="&#x143;" horiz-adv-x="605" d="M60 41v649q0 20 19 30.5t46 10.5q36 0 55 -13t42 -56l193 -373v402q0 20 19 30t46 10t46 -10t19 -30v-650q0 -19 -19.5 -30t-45.5 -11q-53 0 -75 41l-215 402v-402q0 -19 -19.5 -30t-45.5 -11q-27 0 -46 11t-19 30zM190 860q0 22 17 31l132 64q10 2 13 2q16 0 28 -15.5 t12 -33.5q0 -22 -18 -30l-130 -63q-10 -4 -14 -4q-16 0 -28 16t-12 33z" />
<glyph unicode="&#x144;" horiz-adv-x="523" d="M50 41v394q0 18 17.5 29t46.5 11q24 0 40.5 -11t16.5 -29v-30q16 32 51.5 54t82.5 22q69 0 120.5 -60t51.5 -143v-237q0 -19 -19.5 -30t-45.5 -11q-25 0 -44.5 11t-19.5 30v237q0 35 -26 62.5t-61 27.5q-33 0 -57.5 -25t-24.5 -65v-237q0 -15 -19.5 -28t-45.5 -13 q-27 0 -45.5 12.5t-18.5 28.5zM167 617q0 23 17 31l132 64q10 2 13 2q16 0 28 -15.5t12 -33.5q0 -22 -18 -30l-130 -63q-10 -4 -14 -4q-16 0 -28 16t-12 33z" />
<glyph unicode="&#x145;" horiz-adv-x="605" d="M60 41v649q0 20 19 30.5t46 10.5q36 0 55 -13t42 -56l193 -373v402q0 20 19 30t46 10t46 -10t19 -30v-650q0 -19 -19.5 -30t-45.5 -11q-53 0 -75 41l-215 402v-402q0 -19 -19.5 -30t-45.5 -11q-27 0 -46 11t-19 30zM201 -145q0 21 17 30l132 64q8 3 13 3q16 0 28 -15.5 t12 -33.5q0 -23 -18 -31l-130 -62q-10 -4 -14 -4q-16 0 -28 16t-12 33z" />
<glyph unicode="&#x146;" horiz-adv-x="523" d="M50 41v394q0 18 17.5 29t46.5 11q24 0 40.5 -11t16.5 -29v-30q16 32 51.5 54t82.5 22q69 0 120.5 -60t51.5 -143v-237q0 -19 -19.5 -30t-45.5 -11q-25 0 -44.5 11t-19.5 30v237q0 35 -26 62.5t-61 27.5q-33 0 -57.5 -25t-24.5 -65v-237q0 -15 -19.5 -28t-45.5 -13 q-27 0 -45.5 12.5t-18.5 28.5zM158 -145q0 21 17 30l132 64q7 3 13 3q16 0 28 -15.5t12 -33.5q0 -23 -18 -31l-130 -62q-10 -4 -14 -4q-16 0 -28 16t-12 33z" />
<glyph unicode="&#x147;" horiz-adv-x="605" d="M60 41v649q0 20 19 30.5t46 10.5q36 0 55 -13t42 -56l193 -373v402q0 20 19 30t46 10t46 -10t19 -30v-650q0 -19 -19.5 -30t-45.5 -11q-53 0 -75 41l-215 402v-402q0 -19 -19.5 -30t-45.5 -11q-27 0 -46 11t-19 30zM160 936q0 15 8 27t20 12q7 0 12 -4l103 -66l102 66 q7 4 12 4q12 0 20 -12t8 -27q0 -25 -21 -38l-103 -66q-11 -6 -18 -6q-9 0 -18 6l-103 66q-22 13 -22 38z" />
<glyph unicode="&#x148;" horiz-adv-x="523" d="M50 41v394q0 18 17.5 29t46.5 11q24 0 40.5 -11t16.5 -29v-30q16 32 51.5 54t82.5 22q69 0 120.5 -60t51.5 -143v-237q0 -19 -19.5 -30t-45.5 -11q-25 0 -44.5 11t-19.5 30v237q0 35 -26 62.5t-61 27.5q-33 0 -57.5 -25t-24.5 -65v-237q0 -15 -19.5 -28t-45.5 -13 q-27 0 -45.5 12.5t-18.5 28.5zM115 693q0 15 8 27t20 12q7 0 12 -4l103 -66l102 66q7 4 12 4q12 0 20 -12t8 -27q0 -25 -21 -38l-103 -66q-10 -6 -18 -6q-9 0 -18 6l-103 66q-22 13 -22 38z" />
<glyph unicode="&#x14a;" horiz-adv-x="606" d="M60 41v649q0 20 19 30.5t46 10.5q36 0 55 -13t42 -56l193 -373v402q0 20 19 30t46 10t46 -10t19 -30v-723q0 -86 -39 -137.5t-112 -51.5q-67 0 -67 53q0 25 14 40.5t35 15.5q23 0 31 20t8 60v38q0 16 -10 35l-215 402v-402q0 -19 -19.5 -30t-45.5 -11q-27 0 -46 11 t-19 30z" />
<glyph unicode="&#x14b;" d="M50 41v394q0 18 17.5 29t46.5 11q24 0 40.5 -11t16.5 -29v-30q16 32 51.5 54t82.5 22q69 0 120.5 -60t51.5 -143v-310q0 -86 -39 -137.5t-112 -51.5q-67 0 -67 53q0 25 14 40.5t35 15.5q24 0 32 20t8 60v310q0 35 -26 62.5t-61 27.5q-33 0 -57.5 -25t-24.5 -65v-237 q0 -15 -19.5 -28t-45.5 -13q-27 0 -45.5 12.5t-18.5 28.5z" />
<glyph unicode="&#x14c;" horiz-adv-x="572" d="M52 223v279q0 119 63.5 174t170.5 55t171 -55t64 -174v-279q0 -119 -64 -174t-171 -55t-170.5 55t-63.5 174zM143 895q0 18 11 30.5t29 12.5h205q16 0 28.5 -12.5t12.5 -30.5t-12.5 -30t-28.5 -12h-205q-18 0 -29 11.5t-11 30.5zM182 223q0 -115 104 -115q105 0 105 115 v279q0 115 -105 115q-104 0 -104 -115v-279z" />
<glyph unicode="&#x14d;" horiz-adv-x="498" d="M32 196v82q0 82 64 142.5t153 60.5q87 0 152 -60t65 -143v-82q0 -81 -65 -143t-152 -62t-152 62t-65 143zM106 652q0 18 11 30.5t29 12.5h205q16 0 28.5 -12.5t12.5 -30.5t-12.5 -30t-28.5 -12h-205q-18 0 -29 11.5t-11 30.5zM161 196q0 -36 26 -64t62 -28q35 0 61.5 28 t26.5 64v82q0 34 -26.5 62t-61.5 28q-36 0 -62 -27.5t-26 -62.5v-82z" />
<glyph unicode="&#x14e;" horiz-adv-x="572" d="M52 223v279q0 119 63.5 174t170.5 55t171 -55t64 -174v-279q0 -119 -64 -174t-171 -55t-170.5 55t-63.5 174zM152 964h70q0 -32 19 -53.5t44 -21.5q24 0 43.5 21.5t19.5 53.5h70q0 -53 -40.5 -93t-92.5 -40t-92.5 40t-40.5 93zM182 223q0 -115 104 -115q105 0 105 115 v279q0 115 -105 115q-104 0 -104 -115v-279z" />
<glyph unicode="&#x14f;" horiz-adv-x="498" d="M32 196v82q0 82 64 142.5t153 60.5q87 0 152 -60t65 -143v-82q0 -81 -65 -143t-152 -62t-152 62t-65 143zM117 721h70q0 -32 19 -53.5t44 -21.5q24 0 43.5 21.5t19.5 53.5h70q0 -53 -40.5 -93t-92.5 -40t-92.5 40t-40.5 93zM161 196q0 -36 26 -64t62 -28q35 0 61.5 28 t26.5 64v82q0 34 -26.5 62t-61.5 28q-36 0 -62 -27.5t-26 -62.5v-82z" />
<glyph unicode="&#x150;" horiz-adv-x="572" d="M52 223v279q0 119 63.5 174t170.5 55t171 -55t64 -174v-279q0 -119 -64 -174t-171 -55t-170.5 55t-63.5 174zM163 847q0 9 7 16l84 88q7 8 19 8q14 0 26 -12.5t12 -25.5q0 -10 -7 -17l-82 -86q-8 -9 -19 -9q-15 0 -27.5 12t-12.5 26zM182 223q0 -115 104 -115 q105 0 105 115v279q0 115 -105 115q-104 0 -104 -115v-279zM320 847q0 9 7 16l84 88q8 8 19 8q14 0 26 -12.5t12 -25.5q0 -10 -7 -17l-82 -86q-8 -9 -19 -9q-15 0 -27.5 12t-12.5 26z" />
<glyph unicode="&#x151;" horiz-adv-x="498" d="M32 196v82q0 82 64 142.5t153 60.5q87 0 152 -60t65 -143v-82q0 -81 -65 -143t-152 -62t-152 62t-65 143zM126 606q0 9 7 16l84 88q7 8 19 8q14 0 26 -12.5t12 -25.5q0 -10 -7 -17l-82 -86q-8 -9 -19 -9q-15 0 -27.5 12t-12.5 26zM161 196q0 -36 26 -64t62 -28 q35 0 61.5 28t26.5 64v82q0 34 -26.5 62t-61.5 28q-36 0 -62 -27.5t-26 -62.5v-82zM283 606q0 9 7 16l84 88q8 8 19 8q14 0 26 -12.5t12 -25.5q0 -10 -7 -17l-82 -86q-8 -9 -19 -9q-15 0 -27.5 12t-12.5 26z" />
<glyph unicode="&#x152;" horiz-adv-x="829" d="M53 223v279q0 119 56 174t154 55q45 0 85.5 -19t60.5 -55v33q0 19 17 30t40 11h307q20 0 30 -16.5t10 -39.5q0 -24 -10.5 -41t-29.5 -17h-251v-200h120q19 0 29.5 -15t10.5 -37q0 -20 -10.5 -35t-29.5 -15h-120v-201h251q19 0 29.5 -17t10.5 -41q0 -23 -10 -39.5 t-30 -16.5h-307q-23 0 -40 11t-17 30v27q-20 -36 -60.5 -55t-85.5 -19q-98 0 -154 55t-56 174zM183 223q0 -115 104 -115q105 0 105 115v279q0 115 -105 115q-104 0 -104 -115v-279z" />
<glyph unicode="&#x153;" horiz-adv-x="789" d="M32 196v82q0 82 64 142.5t153 60.5q97 0 158 -79q61 79 148 79q85 0 146 -53t61 -134q0 -31 -7.5 -50t-23 -27.5t-28.5 -10.5t-35 -2h-202v-15q0 -43 32 -69.5t85 -26.5q37 0 74.5 19t48.5 19q21 0 34.5 -19.5t13.5 -38.5q0 -28 -50.5 -55t-125.5 -27q-109 0 -171 79 q-64 -79 -158 -79q-87 0 -152 62t-65 143zM161 196q0 -36 26 -64t62 -28q35 0 61.5 28t26.5 64v82q0 34 -26.5 62t-61.5 28q-36 0 -62 -27.5t-26 -62.5v-82zM466 280h146q16 0 22.5 5.5t6.5 21.5q0 35 -25.5 57t-62.5 22q-35 0 -61 -21.5t-26 -55.5v-29z" />
<glyph unicode="&#x154;" horiz-adv-x="570" d="M60 41v650q0 16 12 28t30 12h198q237 0 237 -209q0 -82 -35.5 -132t-95.5 -68l131 -243q5 -6 5 -16q0 -25 -26 -46.5t-55 -21.5t-45 31l-142 276h-84v-261q0 -19 -19 -30t-46 -11q-26 0 -45.5 11t-19.5 30zM190 404h110q107 0 107 106q0 107 -107 107h-110v-213zM217 860 q0 22 17 31l132 64q10 2 13 2q16 0 28 -15.5t12 -33.5q0 -22 -18 -30l-130 -63q-10 -4 -14 -4q-16 0 -28 16t-12 33z" />
<glyph unicode="&#x155;" horiz-adv-x="377" d="M50 41v394q0 18 17.5 29t45.5 11q25 0 41.5 -11t16.5 -29v-41q16 35 50 61t73 26h31q18 0 32.5 -17t14.5 -39q0 -23 -14.5 -40t-32.5 -17h-31q-46 0 -80.5 -41t-34.5 -107v-179q0 -15 -20 -28t-46 -13q-27 0 -45 12.5t-18 28.5zM107 617q0 23 17 31l132 64q10 2 13 2 q16 0 28 -15.5t12 -33.5q0 -22 -18 -30l-130 -63q-10 -4 -14 -4q-16 0 -28 16t-12 33z" />
<glyph unicode="&#x156;" horiz-adv-x="570" d="M60 41v650q0 16 12 28t30 12h198q237 0 237 -209q0 -82 -35.5 -132t-95.5 -68l131 -243q5 -6 5 -16q0 -25 -26 -46.5t-55 -21.5t-45 31l-142 276h-84v-261q0 -19 -19 -30t-46 -11q-26 0 -45.5 11t-19.5 30zM181 -145q0 21 17 30l132 64q8 3 13 3q16 0 28 -15.5t12 -33.5 q0 -23 -18 -31l-130 -62q-10 -4 -14 -4q-16 0 -28 16t-12 33zM190 404h110q107 0 107 106q0 107 -107 107h-110v-213z" />
<glyph unicode="&#x157;" horiz-adv-x="377" d="M7 -145q0 21 17 30l132 64q8 3 13 3q16 0 28 -15.5t12 -33.5q0 -23 -18 -31l-130 -62q-10 -4 -14 -4q-16 0 -28 16t-12 33zM50 41v394q0 18 17.5 29t45.5 11q25 0 41.5 -11t16.5 -29v-41q16 35 50 61t73 26h31q18 0 32.5 -17t14.5 -39q0 -23 -14.5 -40t-32.5 -17h-31 q-46 0 -80.5 -41t-34.5 -107v-179q0 -15 -20 -28t-46 -13q-27 0 -45 12.5t-18 28.5z" />
<glyph unicode="&#x158;" horiz-adv-x="570" d="M60 41v650q0 16 12 28t30 12h198q237 0 237 -209q0 -82 -35.5 -132t-95.5 -68l131 -243q5 -6 5 -16q0 -25 -26 -46.5t-55 -21.5t-45 31l-142 276h-84v-261q0 -19 -19 -30t-46 -11q-26 0 -45.5 11t-19.5 30zM132 936q0 15 8 27t20 12q7 0 12 -4l103 -66l102 66q7 4 12 4 q12 0 20 -12t8 -27q0 -25 -21 -38l-103 -66q-11 -6 -18 -6q-9 0 -18 6l-103 66q-22 13 -22 38zM190 404h110q107 0 107 106q0 107 -107 107h-110v-213z" />
<glyph unicode="&#x159;" horiz-adv-x="377" d="M50 41v394q0 18 17.5 29t45.5 11q25 0 41.5 -11t16.5 -29v-41q16 35 50 61t73 26h31q18 0 32.5 -17t14.5 -39q0 -23 -14.5 -40t-32.5 -17h-31q-46 0 -80.5 -41t-34.5 -107v-179q0 -15 -20 -28t-46 -13q-27 0 -45 12.5t-18 28.5zM50 693q0 15 8 27t20 12q7 0 12 -4 l103 -66l102 66q7 4 12 4q12 0 20 -12t8 -27q0 -25 -21 -38l-103 -66q-11 -6 -18 -6q-9 0 -18 6l-103 66q-22 13 -22 38z" />
<glyph unicode="&#x15a;" horiz-adv-x="522" d="M24 115q0 23 17.5 46.5t39.5 23.5q13 0 29.5 -12t32 -26.5t44.5 -26.5t64 -12q48 0 80 22t32 65q0 30 -17.5 53.5t-46 39t-62.5 30t-68.5 32.5t-63 40.5t-46 60t-17.5 85.5q0 53 21.5 93.5t57.5 63t77 33t87 10.5q26 0 55 -3.5t61.5 -11.5t53 -25t20.5 -40 q0 -22 -14 -45.5t-38 -23.5q-9 0 -49 19t-89 19q-54 0 -83.5 -20.5t-29.5 -56.5q0 -29 24 -50.5t59.5 -35t77 -34t77 -44.5t59.5 -69.5t24 -106.5q0 -104 -65.5 -160.5t-172.5 -56.5q-95 0 -163 39t-68 85zM176 860q0 22 17 31l132 64q10 2 13 2q16 0 28 -15.5t12 -33.5 q0 -22 -18 -30l-130 -63q-10 -4 -14 -4q-16 0 -28 16t-12 33z" />
<glyph unicode="&#x15b;" horiz-adv-x="414" d="M23 77q0 18 13 37.5t30 19.5q11 0 27.5 -11t43.5 -22.5t64 -11.5q73 0 73 43q0 24 -24.5 38t-59 23t-69.5 21.5t-59.5 42t-24.5 75.5q0 61 43 105t136 44q62 0 110.5 -19t48.5 -46q0 -17 -13.5 -39.5t-33.5 -22.5q-8 0 -43.5 14.5t-66.5 14.5q-34 0 -52 -14t-18 -31 t18 -28t44.5 -17t57.5 -16.5t57.5 -24.5t44.5 -43.5t18 -71.5q0 -68 -48.5 -107t-135.5 -39q-75 0 -128 26t-53 60zM115 617q0 23 17 31l132 64q10 2 13 2q16 0 28 -15.5t12 -33.5q0 -22 -18 -30l-130 -63q-10 -4 -14 -4q-16 0 -28 16t-12 33z" />
<glyph unicode="&#x15c;" horiz-adv-x="522" d="M24 115q0 23 17.5 46.5t39.5 23.5q13 0 29.5 -12t32 -26.5t44.5 -26.5t64 -12q48 0 80 22t32 65q0 30 -17.5 53.5t-46 39t-62.5 30t-68.5 32.5t-63 40.5t-46 60t-17.5 85.5q0 53 21.5 93.5t57.5 63t77 33t87 10.5q26 0 55 -3.5t61.5 -11.5t53 -25t20.5 -40 q0 -22 -14 -45.5t-38 -23.5q-9 0 -49 19t-89 19q-54 0 -83.5 -20.5t-29.5 -56.5q0 -29 24 -50.5t59.5 -35t77 -34t77 -44.5t59.5 -69.5t24 -106.5q0 -104 -65.5 -160.5t-172.5 -56.5q-95 0 -163 39t-68 85zM116 859q0 26 22 37l104 56q8 5 17 5q7 0 17 -5l104 -55 q21 -13 21 -39q0 -15 -8 -27t-20 -12q-5 0 -10 3l-104 56l-104 -56q-6 -3 -11 -3q-12 0 -20 12t-8 28z" />
<glyph unicode="&#x15d;" horiz-adv-x="414" d="M23 77q0 18 13 37.5t30 19.5q11 0 27.5 -11t43.5 -22.5t64 -11.5q73 0 73 43q0 24 -24.5 38t-59 23t-69.5 21.5t-59.5 42t-24.5 75.5q0 61 43 105t136 44q62 0 110.5 -19t48.5 -46q0 -17 -13.5 -39.5t-33.5 -22.5q-8 0 -43.5 14.5t-66.5 14.5q-34 0 -52 -14t-18 -31 t18 -28t44.5 -17t57.5 -16.5t57.5 -24.5t44.5 -43.5t18 -71.5q0 -68 -48.5 -107t-135.5 -39q-75 0 -128 26t-53 60zM62 616q0 26 22 37l104 56q8 5 17 5q7 0 17 -5l104 -55q21 -13 21 -39q0 -15 -8 -27t-20 -12q-5 0 -10 3l-104 56l-104 -56q-6 -3 -11 -3q-12 0 -20 12 t-8 28z" />
<glyph unicode="&#x15e;" horiz-adv-x="522" d="M24 115q0 23 17.5 46.5t39.5 23.5q13 0 29.5 -12t32 -26.5t44.5 -26.5t64 -12q48 0 80 22t32 65q0 30 -17.5 53.5t-46 39t-62.5 30t-68.5 32.5t-63 40.5t-46 60t-17.5 85.5q0 53 21.5 93.5t57.5 63t77 33t87 10.5q26 0 55 -3.5t61.5 -11.5t53 -25t20.5 -40 q0 -22 -14 -45.5t-38 -23.5q-9 0 -49 19t-89 19q-54 0 -83.5 -20.5t-29.5 -56.5q0 -29 24 -50.5t59.5 -35t77 -34t77 -44.5t59.5 -69.5t24 -106.5q0 -92 -51 -146.5t-138 -66.5l-14 -46q49 -2 74 -23.5t25 -53.5q0 -33 -25.5 -60.5t-79.5 -27.5q-30 0 -57.5 7.5t-27.5 21.5 q0 9 6.5 23t16.5 14q3 0 21 -7t37 -7q47 0 47 33t-48 37l-55 5l23 80q-92 2 -157.5 40.5t-65.5 83.5z" />
<glyph unicode="&#x15f;" horiz-adv-x="414" d="M23 77q0 18 13 37.5t30 19.5q11 0 27.5 -11t43.5 -22.5t64 -11.5q73 0 73 43q0 24 -24.5 38t-59 23t-69.5 21.5t-59.5 42t-24.5 75.5q0 61 43 105t136 44q62 0 110.5 -19t48.5 -46q0 -17 -13.5 -39.5t-33.5 -22.5q-8 0 -43.5 14.5t-66.5 14.5q-34 0 -52 -14t-18 -31 t18 -28t44.5 -17t57.5 -16.5t57.5 -24.5t44.5 -43.5t18 -71.5q0 -60 -38 -98t-108 -46l-14 -44q49 -2 74 -23.5t25 -53.5q0 -33 -25.5 -60.5t-79.5 -27.5q-30 0 -57.5 7.5t-27.5 21.5q0 9 6.5 23t16.5 14q3 0 21 -7t37 -7q47 0 47 33t-48 37l-55 5l23 81q-69 4 -115.5 29 t-46.5 56z" />
<glyph unicode="&#x160;" horiz-adv-x="522" d="M24 115q0 23 17.5 46.5t39.5 23.5q13 0 29.5 -12t32 -26.5t44.5 -26.5t64 -12q48 0 80 22t32 65q0 30 -17.5 53.5t-46 39t-62.5 30t-68.5 32.5t-63 40.5t-46 60t-17.5 85.5q0 53 21.5 93.5t57.5 63t77 33t87 10.5q26 0 55 -3.5t61.5 -11.5t53 -25t20.5 -40 q0 -22 -14 -45.5t-38 -23.5q-9 0 -49 19t-89 19q-54 0 -83.5 -20.5t-29.5 -56.5q0 -29 24 -50.5t59.5 -35t77 -34t77 -44.5t59.5 -69.5t24 -106.5q0 -104 -65.5 -160.5t-172.5 -56.5q-95 0 -163 39t-68 85zM116 936q0 15 8 27t20 12q7 0 12 -4l103 -66l102 66q7 4 12 4 q12 0 20 -12t8 -27q0 -25 -21 -38l-103 -66q-11 -6 -18 -6q-9 0 -18 6l-103 66q-22 13 -22 38z" />
<glyph unicode="&#x161;" horiz-adv-x="414" d="M23 77q0 18 13 37.5t30 19.5q11 0 27.5 -11t43.5 -22.5t64 -11.5q73 0 73 43q0 24 -24.5 38t-59 23t-69.5 21.5t-59.5 42t-24.5 75.5q0 61 43 105t136 44q62 0 110.5 -19t48.5 -46q0 -17 -13.5 -39.5t-33.5 -22.5q-8 0 -43.5 14.5t-66.5 14.5q-34 0 -52 -14t-18 -31 t18 -28t44.5 -17t57.5 -16.5t57.5 -24.5t44.5 -43.5t18 -71.5q0 -68 -48.5 -107t-135.5 -39q-75 0 -128 26t-53 60zM65 693q0 15 8 27t20 12q7 0 12 -4l103 -66l102 66q7 4 12 4q12 0 20 -12t8 -27q0 -25 -21 -38l-103 -66q-10 -6 -18 -6q-9 0 -18 6l-103 66q-22 13 -22 38z " />
<glyph unicode="&#x162;" horiz-adv-x="528" d="M12 673q0 23 10.5 40.5t30.5 17.5h423q20 0 30.5 -17.5t10.5 -40.5q0 -24 -11 -41.5t-30 -17.5h-146v-573q0 -19 -19.5 -30t-45.5 -11q-27 0 -46 11t-19 30v573h-147q-19 0 -30 17t-11 42zM161 -145q0 21 17 30l132 64q8 3 13 3q16 0 28 -15.5t12 -33.5q0 -23 -18 -31 l-130 -62q-10 -4 -14 -4q-16 0 -28 16t-12 33z" />
<glyph unicode="&#x163;" horiz-adv-x="347" d="M49 162v485q0 17 20 28.5t44 11.5q26 0 45.5 -11.5t19.5 -28.5v-172h118q15 0 24 -14t9 -33t-9 -33t-24 -14h-118v-219q0 -29 12.5 -41t43.5 -12h39q26 0 40.5 -16t14.5 -38q0 -23 -14.5 -39t-40.5 -16h-39q-185 0 -185 162zM67 -145q0 21 17 30l132 64q8 3 13 3 q16 0 28 -15.5t12 -33.5q0 -23 -18 -31l-130 -62q-10 -4 -14 -4q-16 0 -28 16t-12 33z" />
<glyph unicode="&#x164;" horiz-adv-x="528" d="M12 673q0 23 10.5 40.5t30.5 17.5h423q20 0 30.5 -17.5t10.5 -40.5q0 -24 -11 -41.5t-30 -17.5h-146v-573q0 -19 -19.5 -30t-45.5 -11q-27 0 -46 11t-19 30v573h-147q-19 0 -30 17t-11 42zM121 936q0 15 8 27t20 12q7 0 12 -4l103 -66l102 66q7 4 12 4q12 0 20 -12t8 -27 q0 -25 -21 -38l-103 -66q-10 -6 -18 -6q-9 0 -18 6l-103 66q-22 13 -22 38z" />
<glyph unicode="&#x165;" horiz-adv-x="347" d="M49 162v485q0 17 20 28.5t44 11.5q26 0 45.5 -11.5t19.5 -28.5v-172h118q15 0 24 -14t9 -33t-9 -33t-24 -14h-118v-219q0 -29 12.5 -41t43.5 -12h39q26 0 40.5 -16t14.5 -38q0 -23 -14.5 -39t-40.5 -16h-39q-185 0 -185 162zM220 694q0 28 19.5 48t47.5 20t48 -20t20 -47 q0 -18 -55 -147q-8 -16 -27 -16q-15 0 -29 9.5t-14 24.5q0 7 4 14l23 53q-37 20 -37 61z" />
<glyph unicode="&#x166;" horiz-adv-x="528" d="M12 673q0 23 10.5 40.5t30.5 17.5h423q20 0 30.5 -17.5t10.5 -40.5q0 -24 -11 -41.5t-30 -17.5h-146v-202h84q16 0 25 -14t9 -33t-9 -33t-25 -14h-84v-277q0 -19 -19.5 -30t-45.5 -11q-27 0 -46 11t-19 30v277h-86q-16 0 -24.5 14t-8.5 33t8.5 33t24.5 14h86v202h-147 q-19 0 -30 17t-11 42z" />
<glyph unicode="&#x167;" horiz-adv-x="348" d="M49 162v485q0 17 20 28.5t44 11.5q26 0 45.5 -11.5t19.5 -28.5v-172h118q15 0 24 -14t9 -33t-9 -33t-24 -14h-118v-73h118q15 0 24 -14t9 -33q0 -20 -9 -33.5t-24 -13.5h-118v-52q0 -29 12.5 -41t43.5 -12h39q26 0 40.5 -16t14.5 -38q0 -23 -14.5 -39t-40.5 -16h-39 q-185 0 -185 162z" />
<glyph unicode="&#x168;" horiz-adv-x="594" d="M57 223v468q0 20 19 30t46 10t46 -10t19 -30v-468q0 -115 110 -115t110 115v468q0 20 19 30t46 10t46 -10t19 -30v-468q0 -118 -65.5 -173.5t-174.5 -55.5t-174.5 55t-65.5 174zM121 878q0 28 18 44.5t34.5 20t33.5 3.5q29 0 72 -14.5t70 -14.5q24 0 48.5 12t32.5 12 q17 0 25 -15t8 -27q0 -22 -9.5 -36.5t-25 -21t-27.5 -8.5t-23 -2q-35 0 -77 14.5t-65 14.5q-24 0 -49 -12t-33 -12q-17 0 -25 15t-8 27z" />
<glyph unicode="&#x169;" d="M45 194v240q0 15 19.5 28t45.5 13q25 0 44.5 -13t19.5 -28v-240q0 -35 26 -62.5t62 -27.5t61.5 27.5t25.5 62.5v241q0 16 19.5 28t45.5 12q28 0 46 -12t18 -28v-241q0 -81 -64 -142t-152 -61t-152.5 61t-64.5 142zM91 635q0 28 18 44.5t34.5 20t33.5 3.5q29 0 72 -14.5 t70 -14.5q24 0 48.5 12t32.5 12q17 0 25 -15t8 -27q0 -22 -9.5 -36.5t-25 -21t-27.5 -8.5t-23 -2q-35 0 -77 14.5t-65 14.5q-24 0 -49 -12t-33 -12q-17 0 -25 15t-8 27z" />
<glyph unicode="&#x16a;" horiz-adv-x="594" d="M57 223v468q0 20 19 30t46 10t46 -10t19 -30v-468q0 -115 110 -115t110 115v468q0 20 19 30t46 10t46 -10t19 -30v-468q0 -118 -65.5 -173.5t-174.5 -55.5t-174.5 55t-65.5 174zM152 895q0 18 11 30.5t29 12.5h205q16 0 28.5 -12.5t12.5 -30.5t-12.5 -30t-28.5 -12h-205 q-18 0 -29 11.5t-11 30.5z" />
<glyph unicode="&#x16b;" d="M45 194v240q0 15 19.5 28t45.5 13q25 0 44.5 -13t19.5 -28v-240q0 -35 26 -62.5t62 -27.5t61.5 27.5t25.5 62.5v241q0 16 19.5 28t45.5 12q28 0 46 -12t18 -28v-241q0 -81 -64 -142t-152 -61t-152.5 61t-64.5 142zM121 652q0 18 11 30.5t29 12.5h205q16 0 28.5 -12.5 t12.5 -30.5t-12.5 -30t-28.5 -12h-205q-18 0 -29 11.5t-11 30.5z" />
<glyph unicode="&#x16c;" horiz-adv-x="594" d="M57 223v468q0 20 19 30t46 10t46 -10t19 -30v-468q0 -115 110 -115t110 115v468q0 20 19 30t46 10t46 -10t19 -30v-468q0 -118 -65.5 -173.5t-174.5 -55.5t-174.5 55t-65.5 174zM161 964h70q0 -32 19 -53.5t44 -21.5q24 0 43.5 21.5t19.5 53.5h70q0 -53 -40.5 -93 t-92.5 -40t-92.5 40t-40.5 93z" />
<glyph unicode="&#x16d;" d="M45 194v240q0 15 19.5 28t45.5 13q25 0 44.5 -13t19.5 -28v-240q0 -35 26 -62.5t62 -27.5t61.5 27.5t25.5 62.5v241q0 16 19.5 28t45.5 12q28 0 46 -12t18 -28v-241q0 -81 -64 -142t-152 -61t-152.5 61t-64.5 142zM130 721h70q0 -32 19 -53.5t44 -21.5q24 0 43.5 21.5 t19.5 53.5h70q0 -53 -40.5 -93t-92.5 -40t-92.5 40t-40.5 93z" />
<glyph unicode="&#x16e;" horiz-adv-x="594" d="M57 223v468q0 20 19 30t46 10t46 -10t19 -30v-468q0 -115 110 -115t110 115v468q0 20 19 30t46 10t46 -10t19 -30v-468q0 -118 -65.5 -173.5t-174.5 -55.5t-174.5 55t-65.5 174zM198 913q0 39 28.5 69t68.5 30t69.5 -30t29.5 -69q0 -40 -30 -70.5t-69 -30.5t-68 30.5 t-29 70.5zM249 912q0 -18 14 -33t33 -15q18 0 31 14.5t13 33.5q0 18 -13 31.5t-31 13.5q-19 0 -33 -14t-14 -31z" />
<glyph unicode="&#x16f;" d="M45 194v240q0 15 19.5 28t45.5 13q25 0 44.5 -13t19.5 -28v-240q0 -35 26 -62.5t62 -27.5t61.5 27.5t25.5 62.5v241q0 16 19.5 28t45.5 12q28 0 46 -12t18 -28v-241q0 -81 -64 -142t-152 -61t-152.5 61t-64.5 142zM163 670q0 39 28.5 69t68.5 30t69.5 -30t29.5 -69 q0 -40 -30 -70.5t-69 -30.5t-68 30.5t-29 70.5zM214 669q0 -18 14 -33t33 -15q18 0 31 14.5t13 33.5q0 18 -13 31.5t-31 13.5q-19 0 -33 -14t-14 -31z" />
<glyph unicode="&#x170;" horiz-adv-x="594" d="M57 223v468q0 20 19 30t46 10t46 -10t19 -30v-468q0 -115 110 -115t110 115v468q0 20 19 30t46 10t46 -10t19 -30v-468q0 -118 -65.5 -173.5t-174.5 -55.5t-174.5 55t-65.5 174zM172 847q0 9 7 16l84 88q7 8 19 8q14 0 26 -12.5t12 -25.5q0 -10 -7 -17l-82 -86 q-8 -9 -19 -9q-15 0 -27.5 12t-12.5 26zM329 847q0 9 7 16l84 88q8 8 19 8q14 0 26 -12.5t12 -25.5q0 -10 -7 -17l-82 -86q-8 -9 -19 -9q-15 0 -27.5 12t-12.5 26z" />
<glyph unicode="&#x171;" d="M45 194v240q0 15 19.5 28t45.5 13q25 0 44.5 -13t19.5 -28v-240q0 -35 26 -62.5t62 -27.5t61.5 27.5t25.5 62.5v241q0 16 19.5 28t45.5 12q28 0 46 -12t18 -28v-241q0 -81 -64 -142t-152 -61t-152.5 61t-64.5 142zM137 604q0 9 7 16l84 88q7 8 19 8q14 0 26 -12.5 t12 -25.5q0 -10 -7 -17l-82 -86q-8 -9 -19 -9q-15 0 -27.5 12t-12.5 26zM294 604q0 9 7 16l84 88q8 8 19 8q14 0 26 -12.5t12 -25.5q0 -10 -7 -17l-82 -86q-8 -9 -19 -9q-15 0 -27.5 12t-12.5 26z" />
<glyph unicode="&#x172;" horiz-adv-x="594" d="M57 223v468q0 20 19 30t46 10t46 -10t19 -30v-468q0 -115 110 -115t110 115v468q0 20 19 30t46 10t46 -10t19 -30v-468q0 -172 -143 -216q-34 -21 -56 -54t-22 -64q0 -47 60 -47q23 0 23 -29q0 -26 -29 -26q-56 0 -86.5 24.5t-30.5 65.5q0 62 53 117h-9q-109 0 -174.5 55 t-65.5 174z" />
<glyph unicode="&#x173;" d="M45 194v240q0 15 19.5 28t45.5 13q25 0 44.5 -13t19.5 -28v-240q0 -35 26 -62.5t62 -27.5t61.5 27.5t25.5 62.5v241q0 16 19.5 28t45.5 12q28 0 46 -12t18 -28v-241q0 -61 -37.5 -112t-96.5 -75q-34 -21 -56 -54t-22 -64q0 -47 60 -47q23 0 23 -29q0 -26 -29 -26 q-56 0 -86.5 24.5t-30.5 65.5q0 62 50 114q-86 4 -147 64t-61 139z" />
<glyph unicode="&#x174;" horiz-adv-x="883" d="M9 679q0 21 27 36.5t56 15.5q36 0 43 -26l158 -542l85 348q9 36 64 36q54 0 63 -36l85 -348l158 542q7 26 43 26q29 0 56 -15.5t27 -36.5q0 -6 -2 -12l-198 -629q-15 -44 -85 -44q-30 0 -54 11.5t-29 32.5l-64 270l-65 -270q-5 -21 -29 -32.5t-54 -11.5q-31 0 -55 11.5 t-30 32.5l-198 629q-2 6 -2 12zM299 859q0 26 22 37l104 56q8 5 17 5q7 0 17 -5l104 -55q21 -13 21 -39q0 -15 -8 -27t-20 -12q-6 0 -10 3l-104 56l-104 -56q-6 -3 -11 -3q-12 0 -20 12t-8 28z" />
<glyph unicode="&#x175;" horiz-adv-x="693" d="M7 427q0 22 28 37.5t56 15.5q29 0 37 -21l100 -284l75 247q8 26 44 26t44 -26l74 -248l101 285q8 21 37 21q27 0 55 -16t28 -38q0 -11 -4 -18l-154 -396q-9 -23 -51 -23q-44 0 -53 23l-77 218l-76 -217q-9 -24 -55 -24q-41 0 -50 24l-154 395q-5 10 -5 19zM205 616 q0 26 22 37l104 56q8 5 17 5q7 0 17 -5l104 -55q21 -13 21 -39q0 -15 -8 -27t-20 -12q-6 0 -10 3l-104 56l-104 -56q-6 -3 -11 -3q-12 0 -20 12t-8 28z" />
<glyph unicode="&#x176;" horiz-adv-x="574" d="M9 677q0 22 28.5 38t57.5 16q27 0 40 -26l152 -289l153 289q14 26 39 26q29 0 57.5 -16t28.5 -38q0 -8 -3 -13l-206 -358q-4 -6 -4 -13v-252q0 -19 -19 -30t-46 -11q-26 0 -45.5 11t-19.5 30v252q0 9 -3 13l-207 358q-3 8 -3 13zM145 859q0 26 22 37l104 56q8 5 17 5 q7 0 17 -5l104 -55q21 -13 21 -39q0 -15 -8 -27t-20 -12q-6 0 -10 3l-104 56l-104 -56q-6 -3 -11 -3q-12 0 -20 12t-8 28z" />
<glyph unicode="&#x177;" horiz-adv-x="476" d="M6 -166q0 54 33 54q47 0 92.5 34t50.5 113l-172 368q-4 10 -4 17q0 24 29.5 43t56.5 19q30 0 37 -22l120 -299l97 299q7 22 34 22q26 0 57 -19.5t31 -44.5q0 -8 -3 -15l-146 -373l-17 -44q-12 -34 -17.5 -47t-19 -40.5t-24 -40t-29.5 -31t-38.5 -27t-47.5 -15t-61 -6.5 q-29 0 -44 11t-15 44zM107 616q0 26 22 37l104 56q8 5 17 5q7 0 17 -5l104 -55q21 -13 21 -39q0 -15 -8 -27t-20 -12q-6 0 -10 3l-104 56l-104 -56q-6 -3 -11 -3q-12 0 -20 12t-8 28z" />
<glyph unicode="&#x178;" horiz-adv-x="574" d="M9 677q0 22 28.5 38t57.5 16q27 0 40 -26l152 -289l153 289q14 26 39 26q29 0 57.5 -16t28.5 -38q0 -8 -3 -13l-206 -358q-4 -6 -4 -13v-252q0 -19 -19 -30t-46 -11q-26 0 -45.5 11t-19.5 30v252q0 9 -3 13l-207 358q-3 8 -3 13zM162 873q0 21 15 36.5t36 15.5 t35.5 -15.5t14.5 -36.5t-14.5 -37t-35.5 -16t-36 16t-15 37zM311 873q0 21 15 36.5t37 15.5q20 0 35 -15.5t15 -36.5t-15 -37t-35 -16q-21 0 -36.5 16t-15.5 37z" />
<glyph unicode="&#x179;" horiz-adv-x="522" d="M14 36q0 22 14 45l297 536h-253q-19 0 -29.5 16.5t-10.5 40.5q0 23 10 40t30 17h380q39 0 39 -35q0 -22 -15 -47l-296 -535h288q18 0 29.5 -17.5t11.5 -39.5t-11.5 -39.5t-29.5 -17.5h-415q-39 0 -39 36zM184 860q0 22 17 31l132 64q10 2 13 2q16 0 28 -15.5t12 -33.5 q0 -22 -18 -30l-130 -63q-10 -4 -14 -4q-16 0 -28 16t-12 33z" />
<glyph unicode="&#x17a;" horiz-adv-x="437" d="M21 46q0 26 22 52l197 272h-173q-16 0 -27 15.5t-11 37.5t10.5 37t27.5 15h294q18 0 30 -11.5t12 -32.5q0 -28 -20 -54l-198 -272h196q16 0 27 -15.5t11 -37.5t-10.5 -37t-27.5 -15h-316q-22 0 -33 13.5t-11 32.5zM154 617q0 23 17 31l132 64q10 2 13 2q16 0 28 -15.5 t12 -33.5q0 -22 -18 -30l-130 -63q-10 -4 -14 -4q-16 0 -28 16t-12 33z" />
<glyph unicode="&#x17b;" horiz-adv-x="522" d="M14 36q0 22 14 45l297 536h-253q-19 0 -29.5 16.5t-10.5 40.5q0 23 10 40t30 17h380q39 0 39 -35q0 -22 -15 -47l-296 -535h288q18 0 29.5 -17.5t11.5 -39.5t-11.5 -39.5t-29.5 -17.5h-415q-39 0 -39 36zM220 873q0 21 15 36.5t36 15.5t35.5 -15.5t14.5 -36.5t-14.5 -37 t-35.5 -16t-36 16t-15 37z" />
<glyph unicode="&#x17c;" horiz-adv-x="437" d="M21 46q0 26 22 52l197 272h-173q-16 0 -27 15.5t-11 37.5t10.5 37t27.5 15h294q18 0 30 -11.5t12 -32.5q0 -28 -20 -54l-198 -272h196q16 0 27 -15.5t11 -37.5t-10.5 -37t-27.5 -15h-316q-22 0 -33 13.5t-11 32.5zM170 630q0 21 15 36.5t36 15.5t35.5 -15.5t14.5 -36.5 t-14.5 -37t-35.5 -16t-36 16t-15 37z" />
<glyph unicode="&#x17d;" horiz-adv-x="522" d="M14 36q0 22 14 45l297 536h-253q-19 0 -29.5 16.5t-10.5 40.5q0 23 10 40t30 17h380q39 0 39 -35q0 -22 -15 -47l-296 -535h288q18 0 29.5 -17.5t11.5 -39.5t-11.5 -39.5t-29.5 -17.5h-415q-39 0 -39 36zM121 936q0 15 8 27t20 12q7 0 12 -4l103 -66l102 66q7 4 12 4 q12 0 20 -12t8 -27q0 -25 -21 -38l-103 -66q-10 -6 -18 -6q-9 0 -18 6l-103 66q-22 13 -22 38z" />
<glyph unicode="&#x17e;" horiz-adv-x="437" d="M21 46q0 26 22 52l197 272h-173q-16 0 -27 15.5t-11 37.5t10.5 37t27.5 15h294q18 0 30 -11.5t12 -32.5q0 -28 -20 -54l-198 -272h196q16 0 27 -15.5t11 -37.5t-10.5 -37t-27.5 -15h-316q-22 0 -33 13.5t-11 32.5zM78 693q0 15 8 27t20 12q7 0 12 -4l103 -66l102 66 q7 4 12 4q12 0 20 -12t8 -27q0 -25 -21 -38l-103 -66q-11 -6 -18 -6q-9 0 -18 6l-103 66q-22 13 -22 38z" />
<glyph unicode="&#x192;" horiz-adv-x="386" d="M-72 -80q0 26 12.5 44.5t31.5 18.5h22q37 0 50 92l67 492q11 84 75 142.5t145 58.5h52q17 0 27.5 -15.5t10.5 -38.5q0 -26 -12.5 -42.5t-30.5 -16.5h-49q-37 0 -60 -24t-29 -64l-18 -122h124q16 0 24.5 -13.5t8.5 -32.5q0 -20 -9 -34t-25 -14h-137l-38 -276 q-12 -92 -56.5 -152t-121.5 -60h-25q-18 0 -28.5 16.5t-10.5 40.5z" />
<glyph unicode="&#x1fc;" horiz-adv-x="787" d="M57 46v456q0 118 62.5 173.5t165.5 55.5h445q20 0 30.5 -16.5t10.5 -39.5q0 -24 -11 -41t-30 -17h-228v-200h119q19 0 30 -15.5t11 -36.5q0 -19 -10.5 -34.5t-30.5 -15.5h-119v-201h228q19 0 30 -17t11 -41q0 -23 -10.5 -39.5t-30.5 -16.5h-301q-23 0 -40 11t-17 30v274 h-192v-269q0 -23 -13 -34.5t-52 -11.5q-58 0 -58 46zM180 417h192v200h-87q-105 0 -105 -115v-85zM364 857q0 23 17 31l132 64q10 2 13 2q16 0 28 -15.5t12 -33.5q0 -22 -18 -30l-130 -63q-10 -4 -14 -4q-16 0 -28 16t-12 33z" />
<glyph unicode="&#x1fd;" horiz-adv-x="748" d="M22 123q0 82 60 115t173 33h40v14q0 37 -21.5 64.5t-66.5 27.5t-76.5 -16t-36.5 -16q-20 0 -32.5 20t-12.5 45q0 29 52 50t109 21q105 0 156 -78q61 78 148 78q84 0 145.5 -52.5t61.5 -138.5q0 -29 -7 -47t-21.5 -26t-28.5 -10.5t-37 -2.5h-202v-15q0 -43 32.5 -69.5 t83.5 -26.5q37 0 75 19t49 19q21 0 34.5 -19.5t13.5 -37.5q0 -29 -52.5 -56t-125.5 -27q-120 0 -185 96q-35 -45 -81.5 -70.5t-93.5 -25.5q-66 0 -109.5 34t-43.5 98zM151 140q0 -26 14.5 -39.5t38.5 -13.5q32 0 61.5 30t29.5 66v21h-15q-39 0 -64 -3.5t-45 -18.5t-20 -42z M283 617q0 23 17 31l132 64q10 2 13 2q16 0 28 -15.5t12 -33.5q0 -22 -18 -30l-130 -63q-10 -4 -14 -4q-16 0 -28 16t-12 33zM425 280h146q17 0 23 5.5t6 20.5q0 35 -25.5 57.5t-62.5 22.5q-36 0 -61.5 -21.5t-25.5 -56.5v-28z" />
<glyph unicode="&#x1fe;" horiz-adv-x="573" d="M52 223v279q0 119 63.5 174t170.5 55q70 0 120 -23l21 42q11 21 36 21q19 0 34.5 -13t15.5 -32q0 -10 -4 -18l-29 -58q41 -57 41 -148v-279q0 -119 -64 -174t-171 -55q-72 0 -119 22l-17 -34q-11 -22 -39 -22q-21 0 -34.5 13.5t-13.5 30.5q0 9 5 17l26 52q-42 56 -42 150 zM182 252l170 346q-25 19 -66 19q-104 0 -104 -115v-250zM204 860q0 22 17 31l132 64q10 2 13 2q16 0 28 -15.5t12 -33.5q0 -22 -18 -30l-130 -63q-10 -4 -14 -4q-16 0 -28 16t-12 33zM221 125q24 -17 65 -17q105 0 105 115v246z" />
<glyph unicode="&#x1ff;" horiz-adv-x="498" d="M32 196v82q0 82 64 142.5t153 60.5q62 0 113 -31l34 48q8 12 20 12t21 -9t9 -20q0 -9 -7 -19l-33 -46q60 -60 60 -138v-82q0 -81 -65 -143t-152 -62q-65 0 -120 36l-35 -50q-6 -9 -17 -9q-10 0 -19 8t-9 19q0 6 6 16l34 49q-57 60 -57 136zM161 196q0 -16 4 -28l130 185 q-23 15 -46 15q-36 0 -62 -27.5t-26 -62.5v-82zM185 617q0 23 17 31l132 64q10 2 13 2q16 0 28 -15.5t12 -33.5q0 -22 -18 -30l-130 -63q-10 -4 -14 -4q-16 0 -28 16t-12 33zM197 122q25 -18 52 -18q35 0 61.5 28t26.5 64v82q0 14 -7 31z" />
<glyph unicode="&#x218;" horiz-adv-x="522" d="M24 115q0 23 17.5 46.5t39.5 23.5q13 0 29.5 -12t32 -26.5t44.5 -26.5t64 -12q48 0 80 22t32 65q0 30 -17.5 53.5t-46 39t-62.5 30t-68.5 32.5t-63 40.5t-46 60t-17.5 85.5q0 53 21.5 93.5t57.5 63t77 33t87 10.5q26 0 55 -3.5t61.5 -11.5t53 -25t20.5 -40 q0 -22 -14 -45.5t-38 -23.5q-9 0 -49 19t-89 19q-54 0 -83.5 -20.5t-29.5 -56.5q0 -29 24 -50.5t59.5 -35t77 -34t77 -44.5t59.5 -69.5t24 -106.5q0 -104 -65.5 -160.5t-172.5 -56.5q-95 0 -163 39t-68 85zM169 -145q0 21 17 30l132 64q8 3 13 3q16 0 28 -15.5t12 -33.5 q0 -23 -18 -31l-130 -62q-10 -4 -14 -4q-16 0 -28 16t-12 33z" />
<glyph unicode="&#x219;" horiz-adv-x="414" d="M23 77q0 18 13 37.5t30 19.5q11 0 27.5 -11t43.5 -22.5t64 -11.5q73 0 73 43q0 24 -24.5 38t-59 23t-69.5 21.5t-59.5 42t-24.5 75.5q0 61 43 105t136 44q62 0 110.5 -19t48.5 -46q0 -17 -13.5 -39.5t-33.5 -22.5q-8 0 -43.5 14.5t-66.5 14.5q-34 0 -52 -14t-18 -31 t18 -28t44.5 -17t57.5 -16.5t57.5 -24.5t44.5 -43.5t18 -71.5q0 -68 -48.5 -107t-135.5 -39q-75 0 -128 26t-53 60zM109 -145q0 21 17 30l132 64q8 3 13 3q16 0 28 -15.5t12 -33.5q0 -23 -18 -31l-130 -62q-10 -4 -14 -4q-16 0 -28 16t-12 33z" />
<glyph unicode="&#x237;" horiz-adv-x="231" d="M-38 -168q0 25 14 40.5t35 15.5q25 0 32.5 20t7.5 60v467q0 18 18 29t45 11q28 0 47 -11t19 -29v-467q0 -86 -39 -137.5t-112 -51.5q-67 0 -67 53z" />
<glyph unicode="&#x259;" horiz-adv-x="484" d="M27 179q0 30 7.5 49.5t23 27.5t29 10t34.5 2h203v15q0 43 -32.5 69.5t-84.5 26.5q-38 0 -76 -19t-48 -19q-21 0 -34.5 19.5t-13.5 37.5q0 29 50.5 56t125.5 27q106 0 173.5 -56.5t67.5 -148.5v-85q0 -82 -64 -141t-154 -59q-85 0 -146 53t-61 135zM148 165 q0 -35 25.5 -57t62.5 -22q36 0 62 21.5t26 56.5v28h-146q-17 0 -23.5 -5.5t-6.5 -21.5z" />
<glyph unicode="&#x2c6;" horiz-adv-x="285" d="M0 616q0 26 22 37l104 56q8 5 17 5q7 0 17 -5l104 -55q21 -13 21 -39q0 -15 -8 -27t-20 -12q-5 0 -10 3l-104 56l-104 -56q-6 -3 -11 -3q-12 0 -20 12t-8 28z" />
<glyph unicode="&#x2c7;" horiz-adv-x="289" d="M2 693q0 15 8 27t20 12q7 0 12 -4l103 -66l102 66q7 4 12 4q12 0 20 -12t8 -27q0 -25 -21 -38l-103 -66q-11 -6 -18 -6q-9 0 -18 6l-103 66q-22 13 -22 38z" />
<glyph unicode="&#x2d8;" horiz-adv-x="266" d="M0 721h70q0 -32 19 -53.5t44 -21.5q24 0 43.5 21.5t19.5 53.5h70q0 -53 -40.5 -93t-92.5 -40t-92.5 40t-40.5 93z" />
<glyph unicode="&#x2d9;" horiz-adv-x="191" d="M49 630q0 21 15 36.5t36 15.5t35.5 -15.5t14.5 -36.5t-14.5 -37t-35.5 -16t-36 16t-15 37z" />
<glyph unicode="&#x2da;" horiz-adv-x="196" d="M0 670q0 39 28.5 69t68.5 30t69.5 -30t29.5 -69q0 -40 -30 -70.5t-69 -30.5t-68 30.5t-29 70.5zM51 669q0 -18 14 -33t33 -15q18 0 31 14.5t13 33.5q0 18 -13 31.5t-31 13.5q-19 0 -33 -14t-14 -31z" />
<glyph unicode="&#x2db;" horiz-adv-x="146" d="M0 -123q0 41 25.5 81.5t68.5 67.5l47 -19q-34 -21 -56 -54t-22 -64q0 -47 60 -47q23 0 23 -29q0 -26 -29 -26q-56 0 -86.5 24.5t-30.5 65.5z" />
<glyph unicode="&#x2dc;" horiz-adv-x="342" d="M0 635q0 28 18 44.5t34.5 20t33.5 3.5q30 0 73 -14.5t69 -14.5q24 0 48.5 12t32.5 12q17 0 25 -15t8 -27q0 -22 -9.5 -36.5t-25 -21t-27.5 -8.5t-23 -2q-35 0 -77 14.5t-65 14.5q-24 0 -49 -12t-33 -12q-17 0 -25 15t-8 27z" />
<glyph unicode="&#x2dd;" horiz-adv-x="305" d="M0 604q0 9 7 16l84 88q7 8 19 8q14 0 26 -12.5t12 -25.5q0 -10 -7 -17l-82 -86q-8 -9 -19 -9q-15 0 -27.5 12t-12.5 26zM157 604q0 9 7 16l84 88q8 8 19 8q14 0 26 -12.5t12 -25.5q0 -10 -7 -17l-82 -86q-8 -9 -19 -9q-15 0 -27.5 12t-12.5 26z" />
<glyph unicode="&#x3c0;" horiz-adv-x="540" d="M50 40v394q0 19 17 30t40 11h326q23 0 40 -11t17 -30v-394q0 -20 -19 -30t-46 -10t-46 10t-19 30v321h-181v-321q0 -20 -19 -30t-46 -10q-26 0 -45 10t-19 30z" />
<glyph unicode="&#x1e80;" horiz-adv-x="883" d="M9 679q0 21 27 36.5t56 15.5q36 0 43 -26l158 -542l85 348q9 36 64 36q54 0 63 -36l85 -348l158 542q7 26 43 26q29 0 56 -15.5t27 -36.5q0 -6 -2 -12l-198 -629q-15 -44 -85 -44q-30 0 -54 11.5t-29 32.5l-64 270l-65 -270q-5 -21 -29 -32.5t-54 -11.5q-31 0 -55 11.5 t-30 32.5l-198 629q-2 6 -2 12zM325 908q0 18 12 33.5t28 15.5q3 0 13 -2l132 -64q17 -9 17 -31q0 -17 -12 -33t-28 -16q-4 0 -14 4l-130 63q-18 8 -18 30z" />
<glyph unicode="&#x1e81;" horiz-adv-x="693" d="M7 427q0 22 28 37.5t56 15.5q29 0 37 -21l100 -284l75 247q8 26 44 26t44 -26l74 -248l101 285q8 21 37 21q27 0 55 -16t28 -38q0 -11 -4 -18l-154 -396q-9 -23 -51 -23q-44 0 -53 23l-77 218l-76 -217q-9 -24 -55 -24q-41 0 -50 24l-154 395q-5 10 -5 19zM222 665 q0 18 12 33.5t28 15.5q3 0 13 -2l132 -64q17 -8 17 -31q0 -17 -12 -33t-28 -16q-4 0 -14 4l-130 63q-18 8 -18 30z" />
<glyph unicode="&#x1e82;" horiz-adv-x="883" d="M9 679q0 21 27 36.5t56 15.5q36 0 43 -26l158 -542l85 348q9 36 64 36q54 0 63 -36l85 -348l158 542q7 26 43 26q29 0 56 -15.5t27 -36.5q0 -6 -2 -12l-198 -629q-15 -44 -85 -44q-30 0 -54 11.5t-29 32.5l-64 270l-65 -270q-5 -21 -29 -32.5t-54 -11.5q-31 0 -55 11.5 t-30 32.5l-198 629q-2 6 -2 12zM357 860q0 22 17 31l132 64q10 2 13 2q16 0 28 -15.5t12 -33.5q0 -22 -18 -30l-130 -63q-10 -4 -14 -4q-16 0 -28 16t-12 33z" />
<glyph unicode="&#x1e83;" horiz-adv-x="693" d="M7 427q0 22 28 37.5t56 15.5q29 0 37 -21l100 -284l75 247q8 26 44 26t44 -26l74 -248l101 285q8 21 37 21q27 0 55 -16t28 -38q0 -11 -4 -18l-154 -396q-9 -23 -51 -23q-44 0 -53 23l-77 218l-76 -217q-9 -24 -55 -24q-41 0 -50 24l-154 395q-5 10 -5 19zM269 617 q0 23 17 31l132 64q10 2 13 2q16 0 28 -15.5t12 -33.5q0 -22 -18 -30l-130 -63q-10 -4 -14 -4q-16 0 -28 16t-12 33z" />
<glyph unicode="&#x1e84;" horiz-adv-x="883" d="M9 679q0 21 27 36.5t56 15.5q36 0 43 -26l158 -542l85 348q9 36 64 36q54 0 63 -36l85 -348l158 542q7 26 43 26q29 0 56 -15.5t27 -36.5q0 -6 -2 -12l-198 -629q-15 -44 -85 -44q-30 0 -54 11.5t-29 32.5l-64 270l-65 -270q-5 -21 -29 -32.5t-54 -11.5q-31 0 -55 11.5 t-30 32.5l-198 629q-2 6 -2 12zM316 873q0 21 15 36.5t36 15.5t35.5 -15.5t14.5 -36.5t-14.5 -37t-35.5 -16t-36 16t-15 37zM465 873q0 21 15 36.5t37 15.5q20 0 35 -15.5t15 -36.5t-15 -37t-35 -16q-21 0 -36.5 16t-15.5 37z" />
<glyph unicode="&#x1e85;" horiz-adv-x="693" d="M7 427q0 22 28 37.5t56 15.5q29 0 37 -21l100 -284l75 247q8 26 44 26t44 -26l74 -248l101 285q8 21 37 21q27 0 55 -16t28 -38q0 -11 -4 -18l-154 -396q-9 -23 -51 -23q-44 0 -53 23l-77 218l-76 -217q-9 -24 -55 -24q-41 0 -50 24l-154 395q-5 10 -5 19zM222 630 q0 21 15 36.5t36 15.5t35.5 -15.5t14.5 -36.5t-14.5 -37t-35.5 -16t-36 16t-15 37zM371 630q0 21 15 36.5t37 15.5q20 0 35 -15.5t15 -36.5t-15 -37t-35 -16q-21 0 -36.5 16t-15.5 37z" />
<glyph unicode="&#x1ef2;" horiz-adv-x="574" d="M9 677q0 22 28.5 38t57.5 16q27 0 40 -26l152 -289l153 289q14 26 39 26q29 0 57.5 -16t28.5 -38q0 -8 -3 -13l-206 -358q-4 -6 -4 -13v-252q0 -19 -19 -30t-46 -11q-26 0 -45.5 11t-19.5 30v252q0 9 -3 13l-207 358q-3 8 -3 13zM170 908q0 18 12 33.5t28 15.5q3 0 13 -2 l132 -64q17 -9 17 -31q0 -17 -12 -33t-28 -16q-4 0 -14 4l-130 63q-18 8 -18 30z" />
<glyph unicode="&#x1ef3;" horiz-adv-x="476" d="M6 -166q0 54 33 54q47 0 92.5 34t50.5 113l-172 368q-4 10 -4 17q0 24 29.5 43t56.5 19q30 0 37 -22l120 -299l97 299q7 22 34 22q26 0 57 -19.5t31 -44.5q0 -8 -3 -15l-146 -373l-17 -44q-12 -34 -17.5 -47t-19 -40.5t-24 -40t-29.5 -31t-38.5 -27t-47.5 -15t-61 -6.5 q-29 0 -44 11t-15 44zM113 665q0 18 12 33.5t28 15.5q3 0 13 -2l132 -64q17 -8 17 -31q0 -17 -12 -33t-28 -16q-4 0 -14 4l-130 63q-18 8 -18 30z" />
<glyph unicode="&#x2013;" horiz-adv-x="473" d="M36 240q0 23 11 38.5t29 15.5h320q16 0 29 -16t13 -38q0 -23 -12.5 -38t-29.5 -15h-320q-18 0 -29 14.5t-11 38.5z" />
<glyph unicode="&#x2014;" horiz-adv-x="754" d="M36 240q0 23 11 38.5t29 15.5h601q16 0 28.5 -16t12.5 -38q0 -23 -12.5 -38t-28.5 -15h-601q-18 0 -29 14.5t-11 38.5z" />
<glyph unicode="&#x2018;" horiz-adv-x="184" d="M22 578q0 18 56 147q7 16 26 16q15 0 29 -9.5t14 -24.5q0 -5 -3 -14l-24 -53q37 -20 37 -61q0 -28 -19.5 -48t-47.5 -20t-48 20t-20 47z" />
<glyph unicode="&#x2019;" horiz-adv-x="183" d="M28 673q0 28 19.5 48t47.5 20t48 -20t20 -47q0 -18 -56 -147q-7 -16 -26 -16q-15 0 -29 9.5t-14 24.5q0 7 4 14l23 53q-37 20 -37 61z" />
<glyph unicode="&#x201a;" horiz-adv-x="193" d="M29 62q0 28 19.5 48t47.5 20t48 -20t20 -47q0 -18 -56 -146q-7 -17 -26 -17q-16 0 -29.5 9.5t-13.5 24.5q0 6 3 14l24 53q-37 20 -37 61z" />
<glyph unicode="&#x201c;" horiz-adv-x="370" d="M22 578q0 18 56 147q7 16 26 16q16 0 29.5 -9.5t13.5 -24.5q0 -5 -3 -14l-24 -53q37 -20 37 -61q0 -28 -19.5 -48t-47.5 -20t-48 20t-20 47zM208 578q0 18 56 147q7 16 26 16q15 0 29 -9.5t14 -24.5q0 -6 -4 -14l-23 -53q37 -20 37 -61q0 -28 -19.5 -48t-47.5 -20t-48 20 t-20 47z" />
<glyph unicode="&#x201d;" horiz-adv-x="369" d="M28 673q0 28 19.5 48t47.5 20t48 -20t20 -47q0 -18 -56 -147q-7 -16 -26 -16q-15 0 -29 9.5t-14 24.5q0 7 4 14l23 53q-37 20 -37 61zM214 673q0 28 19.5 48t47.5 20t48 -20t20 -47q0 -18 -56 -147q-7 -16 -26 -16q-16 0 -29.5 9.5t-13.5 24.5q0 7 3 14l24 53 q-37 20 -37 61z" />
<glyph unicode="&#x201e;" horiz-adv-x="379" d="M29 62q0 28 19.5 48t47.5 20t48 -20t20 -47q0 -18 -56 -146q-7 -17 -26 -17q-16 0 -29.5 9.5t-13.5 24.5q0 6 3 14l24 53q-37 20 -37 61zM214 62q0 28 20 48t48 20t48 -20t20 -47q0 -18 -56 -146q-8 -17 -27 -17q-15 0 -28.5 9.5t-13.5 24.5q0 9 3 14l24 53 q-38 20 -38 61z" />
<glyph unicode="&#x2020;" horiz-adv-x="441" d="M20 454q0 21 11 36t29 15l95 -6v192q0 16 19 28t46 12q25 0 45 -12t20 -28v-192l95 6q16 0 29 -15t13 -36q0 -22 -13 -36t-29 -14l-95 6v-383q0 -19 -20 -33.5t-45 -14.5q-27 0 -46 14.5t-19 33.5v383l-95 -6q-18 0 -29 14t-11 36z" />
<glyph unicode="&#x2021;" horiz-adv-x="449" d="M24 241q0 21 11 36t29 15l95 -6v124l-95 -6q-18 0 -29 14t-11 36q0 21 11 36t29 15l95 -6v192q0 16 19 28t46 12q24 0 44.5 -12t20.5 -28v-192l95 6q16 0 28.5 -15t12.5 -36q0 -22 -12.5 -36t-28.5 -14l-95 6v-124l95 6q16 0 28.5 -15t12.5 -36q0 -22 -12.5 -36 t-28.5 -14l-95 6v-170q0 -19 -20.5 -33.5t-44.5 -14.5q-27 0 -46 14.5t-19 33.5v170l-95 -6q-18 0 -29 13.5t-11 36.5z" />
<glyph unicode="&#x2022;" horiz-adv-x="329" d="M33 300q0 50 39.5 88t92.5 38q52 0 91.5 -38t39.5 -88q0 -51 -39 -89t-92 -38t-92.5 38t-39.5 89z" />
<glyph unicode="&#x2026;" horiz-adv-x="575" d="M28 62q0 28 19.5 48t48.5 20q27 0 47 -20t20 -48q0 -27 -20 -47.5t-47 -20.5q-29 0 -48.5 20t-19.5 48zM221 62q0 28 19.5 48t48.5 20q27 0 47 -20t20 -48q0 -27 -20 -47.5t-47 -20.5q-29 0 -48.5 20t-19.5 48zM412 62q0 28 19.5 48t48.5 20q27 0 47 -20t20 -48 q0 -27 -20 -47.5t-47 -20.5q-29 0 -48.5 20t-19.5 48z" />
<glyph unicode="&#x2030;" horiz-adv-x="1124" d="M25 457v145q0 67 39 98t104 31t103.5 -31t38.5 -98v-145q0 -67 -38.5 -98t-103.5 -31t-104 31t-39 98zM112 457q0 -54 56 -54q57 0 57 54v145q0 54 -57 54q-56 0 -56 -54v-145zM171 4q0 7 4 17l360 729q11 21 36 21q19 0 34.5 -13t15.5 -32q0 -10 -4 -18l-360 -726 q-9 -22 -39 -22q-20 0 -33.5 13.5t-13.5 30.5zM476 126v145q0 67 39 98t104 31t103.5 -31t38.5 -98v-145q0 -67 -38.5 -98t-103.5 -31q-143 0 -143 129zM563 126q0 -54 56 -54q57 0 57 54v145q0 54 -57 54q-56 0 -56 -54v-145zM814 126v145q0 67 39 98t104 31t103.5 -31 t38.5 -98v-145q0 -67 -38.5 -98t-103.5 -31q-143 0 -143 129zM901 126q0 -54 56 -54q57 0 57 54v145q0 54 -57 54q-56 0 -56 -54v-145z" />
<glyph unicode="&#x2039;" horiz-adv-x="272" d="M24 276q0 7 2.5 13.5t9.5 18.5l11 19l73 136q9 17 37 17q30 0 55 -22t25 -43q0 -7 -3 -12l-67 -126l67 -125q3 -6 3 -13q0 -22 -25 -43.5t-56 -21.5q-27 0 -36 17l-73 136q-4 8 -11 19t-9.5 17t-2.5 13z" />
<glyph unicode="&#x203a;" horiz-adv-x="272" d="M35 139q0 7 3 13l67 125l-67 126q-3 5 -3 12q0 22 24.5 43.5t55.5 21.5q28 0 36 -17l74 -136l11 -19q7 -12 9.5 -18.5t2.5 -13.5t-2.5 -13t-9.5 -17t-11 -19l-74 -136q-8 -17 -36 -17q-31 0 -55.5 21.5t-24.5 43.5z" />
<glyph unicode="&#x2044;" horiz-adv-x="186" d="M-132 4q0 7 4 17l360 729q10 21 36 21q18 0 34 -13t16 -32q0 -10 -4 -18l-360 -726q-9 -22 -39 -22q-20 0 -33.5 13.5t-13.5 30.5z" />
<glyph unicode="&#x2070;" horiz-adv-x="349" d="M32 457v145q0 67 39 98t104 31t103.5 -31t38.5 -98v-145q0 -67 -38.5 -98t-103.5 -31t-104 31t-39 98zM119 457q0 -54 56 -54q57 0 57 54v145q0 54 -57 54q-56 0 -56 -54v-145z" />
<glyph unicode="&#x2074;" horiz-adv-x="317" d="M4 445q0 8 4 16l138 248q12 22 36 22q13 0 28 -9t15 -23q0 -5 -3 -11l-108 -193h58v37q0 13 13 19.5t30 6.5q44 0 44 -26v-37h26q26 0 26 -40q0 -14 -8 -26.5t-18 -12.5h-26v-58q0 -13 -13 -20t-31 -7q-17 0 -30 7t-13 20v58h-140q-28 0 -28 29z" />
<glyph unicode="&#x2075;" horiz-adv-x="323" d="M18 429q0 22 10 30.5t32 8.5q26 0 35 -8t9 -24q0 -33 54 -33q58 0 58 51v11q0 52 -56 52h-89q-33 0 -33 34q0 11 1 19l14 135q3 26 17 26h185q26 0 26 -37q0 -38 -26 -38h-130l-7 -72h42q65 0 103.5 -28.5t38.5 -90.5v-11q0 -65 -39 -95.5t-102 -30.5q-67 0 -105 30 t-38 71z" />
<glyph unicode="&#x2076;" horiz-adv-x="344" d="M32 457v145q0 67 40 98t107 31q68 0 103 -31.5t35 -70.5q0 -20 -9 -27.5t-31 -7.5q-45 0 -45 31t-55 31q-58 0 -58 -54v-49q23 24 75 24q123 0 123 -115v-6q0 -66 -38.5 -97t-103.5 -31q-143 0 -143 129zM119 451q0 -54 56 -54t56 54v5q0 55 -57 55q-55 0 -55 -50v-10z " />
<glyph unicode="&#x2077;" horiz-adv-x="314" d="M16 620v85q0 10 12 18t26 8h209q13 0 25.5 -8t12.5 -18v-69q0 -22 -17 -52l-143 -244q-6 -12 -25 -12q-21 0 -37.5 12.5t-16.5 30.5q0 8 3 14l150 233v38h-113v-36q0 -11 -13 -18.5t-30 -7.5q-18 0 -30.5 7.5t-12.5 18.5z" />
<glyph unicode="&#x2078;" horiz-adv-x="334" d="M24 441v7q0 79 72 102q-58 19 -58 84q0 49 35 73t94 24t93.5 -24t34.5 -73q0 -66 -58 -84q72 -23 72 -102v-7q0 -58 -39 -85.5t-103 -27.5t-103.5 27.5t-39.5 85.5zM110 451q0 -55 57 -55q56 0 56 55v12q0 52 -56 52q-57 0 -57 -52v-12zM121 623q0 -39 46 -39q45 0 45 39 q0 40 -45 40q-46 0 -46 -40z" />
<glyph unicode="&#x2079;" horiz-adv-x="344" d="M27 431q0 19 9.5 26.5t30.5 7.5q45 0 45 -31t55 -31q59 0 59 54v49q-24 -24 -76 -24q-123 0 -123 115v6q0 66 38.5 97t103.5 31t104 -31t39 -98v-145q0 -67 -40 -98t-108 -31q-67 0 -102 32t-35 71zM113 602q0 -54 57 -54q56 0 56 50v10q0 54 -57 54q-56 0 -56 -54v-6z " />
<glyph unicode="&#x2080;" horiz-adv-x="349" d="M32 126v145q0 67 39 98t104 31t103.5 -31t38.5 -98v-145q0 -67 -38.5 -98t-103.5 -31q-143 0 -143 129zM119 126q0 -54 56 -54q57 0 57 54v145q0 54 -57 54q-56 0 -56 -54v-145z" />
<glyph unicode="&#x2081;" horiz-adv-x="192" d="M7 324q0 20 15 29l76 44q7 4 16 4q15 0 27 -7.5t12 -19.5v-348q0 -12 -13 -19t-30 -7q-18 0 -31 7t-13 19v278l-17 -10q-7 -3 -15 -3q-12 0 -19.5 10t-7.5 23z" />
<glyph unicode="&#x2082;" horiz-adv-x="322" d="M24 26v54q0 28 29.5 57.5t64.5 50.5t64.5 47t29.5 49q0 15 -12.5 26.5t-36.5 11.5q-47 0 -47 -41q0 -12 -13 -21.5t-33 -9.5q-39 0 -39 45q0 48 39 76.5t92 28.5q55 0 95.5 -30.5t40.5 -83.5q0 -39 -29 -73t-63 -53.5t-63 -40t-29 -35.5v-9h158q11 0 18.5 -11t7.5 -26 t-8 -26.5t-18 -11.5h-210q-13 0 -25.5 7.5t-12.5 18.5z" />
<glyph unicode="&#x2083;" horiz-adv-x="329" d="M20 100q0 18 8.5 24.5t31.5 6.5q26 0 35 -6t9 -22q0 -31 57 -31q32 0 45 11t13 37v11q0 43 -60 43q-26 0 -26 33t26 34q16 1 24.5 3t16.5 12.5t8 30.5q0 39 -47 39q-48 0 -48 -28q0 -30 -40 -30q-28 0 -36 6.5t-8 26.5q0 39 31.5 69t100.5 30q129 0 129 -99 q0 -70 -46 -90q60 -20 60 -80v-11q0 -63 -40 -93t-106 -30q-68 0 -103 32t-35 71z" />
<glyph unicode="&#x2084;" horiz-adv-x="317" d="M4 114q0 8 4 16l138 248q13 22 36 22q13 0 28 -9.5t15 -22.5q0 -6 -3 -11l-108 -194h58v38q0 13 13 19.5t30 6.5q44 0 44 -26v-38h26q26 0 26 -39q0 -15 -8 -27.5t-18 -12.5h-26v-58q0 -12 -13 -19t-31 -7q-17 0 -30 7t-13 19v58h-140q-28 0 -28 30z" />
<glyph unicode="&#x2085;" horiz-adv-x="323" d="M18 98q0 39 42 39q26 0 35 -8.5t9 -24.5q0 -32 54 -32q58 0 58 51v10q0 53 -56 53h-89q-33 0 -33 34q0 11 1 19l14 134q3 27 17 27h185q13 0 19.5 -11t6.5 -26q0 -38 -26 -38h-130l-7 -72h42q65 0 103.5 -29t38.5 -91v-10q0 -65 -39 -95.5t-102 -30.5q-67 0 -105 30 t-38 71z" />
<glyph unicode="&#x2086;" horiz-adv-x="344" d="M32 126v145q0 67 40 98t107 31q68 0 103 -32t35 -71q0 -19 -9.5 -27t-30.5 -8q-45 0 -45 32q0 31 -55 31q-58 0 -58 -54v-49q24 24 75 24q123 0 123 -115v-6q0 -67 -38.5 -97.5t-103.5 -30.5q-143 0 -143 129zM119 120q0 -54 56 -54t56 53v6q0 55 -57 55q-55 0 -55 -50 v-10z" />
<glyph unicode="&#x2087;" horiz-adv-x="314" d="M16 289v84q0 10 12 18.5t26 8.5h209q13 0 25.5 -8.5t12.5 -18.5v-68q0 -24 -17 -52l-143 -245q-5 -11 -25 -11q-21 0 -37.5 12.5t-16.5 30.5q0 8 3 14l150 233v38h-113v-36q0 -11 -13 -19t-30 -8q-18 0 -30.5 8t-12.5 19z" />
<glyph unicode="&#x2088;" horiz-adv-x="335" d="M25 109v7q0 80 72 103q-58 19 -58 83q0 50 35 74t94 24t93.5 -24t34.5 -74q0 -65 -58 -83q72 -23 72 -103v-7q0 -58 -39 -85t-103 -27q-65 0 -104 27t-39 85zM111 120q0 -55 57 -55q56 0 56 55v12q0 51 -56 51q-57 0 -57 -51v-12zM122 291q0 -39 46 -39q45 0 45 39 q0 40 -45 40q-46 0 -46 -40z" />
<glyph unicode="&#x2089;" horiz-adv-x="344" d="M27 99q0 20 9.5 27.5t30.5 7.5q45 0 45 -31t55 -31q59 0 59 54v49q-23 -24 -76 -24q-123 0 -123 115v6q0 66 38.5 97t103.5 31t104 -31t39 -98v-145q0 -129 -148 -129q-67 0 -102 32t-35 70zM113 271q0 -54 57 -54q56 0 56 50v9q0 55 -57 55q-56 0 -56 -55v-5z" />
<glyph unicode="&#x20ac;" horiz-adv-x="616" d="M24 271q0 20 11.5 33.5t29.5 13.5h46v70h-46q-18 0 -29.5 12.5t-11.5 32.5t11.5 33.5t29.5 13.5h46v22q0 118 63.5 173.5t167.5 55.5q105 0 171.5 -52t66.5 -140q0 -35 -15 -47t-50 -12q-65 0 -65 38t-23 68.5t-80 30.5q-106 0 -106 -115v-22h94q16 0 29 -14t13 -33 t-13 -32t-29 -13h-94v-70h94q16 0 29 -14t13 -32q0 -20 -13 -33t-29 -13h-94v-17q0 -36 24 -68.5t83 -32.5q55 0 78.5 31t23.5 76q0 21 15.5 29.5t49.5 8.5q36 0 50.5 -12.5t14.5 -47.5q0 -91 -66.5 -145t-171.5 -54q-109 0 -170 58.5t-61 156.5v17h-46q-18 0 -29.5 12.5 t-11.5 32.5z" />
<glyph unicode="&#x2122;" horiz-adv-x="673" d="M40 735q0 33 22 33h216q22 0 22 -33q0 -13 -6 -23t-16 -10h-72v-203q0 -11 -10.5 -17.5t-24.5 -6.5q-37 0 -37 24v203h-72q-10 0 -16 10t-6 23zM320 499v233q0 18 10.5 27t24.5 9q21 0 32 -7.5t23 -31.5l59 -122l59 122q12 24 23 31.5t32 7.5q35 0 35 -36v-233 q0 -11 -10.5 -17.5t-24.5 -6.5q-15 0 -25.5 6.5t-10.5 17.5v123l-55 -114q-8 -15 -24 -15t-23 15l-54 118v-127q0 -11 -10.5 -17.5t-25.5 -6.5q-14 0 -24.5 6.5t-10.5 17.5z" />
<glyph unicode="&#x2126;" horiz-adv-x="574" d="M41 57q0 25 11.5 40.5t28.5 15.5h99v18q-127 47 -127 217v154q0 119 63.5 174t170.5 55t170.5 -55t63.5 -174v-154q0 -171 -128 -217v-18h99q17 0 29 -15.5t12 -40.5q0 -24 -11.5 -40.5t-29.5 -16.5h-173v238q72 15 72 110v154q0 115 -104 115q-105 0 -105 -115v-154 q0 -105 72 -110v-238h-173q-18 0 -29 16.5t-11 40.5z" />
<glyph unicode="&#x212e;" horiz-adv-x="557" d="M36 219v39q0 91 73.5 157t177.5 66q97 0 167 -53.5t70 -134.5q0 -27 -7.5 -44.5t-23 -25t-29 -9.5t-34.5 -2h-231v-15q0 -59 23.5 -89t86.5 -30q44 0 77.5 8.5t47.5 17.5l27 18q12 9 19 9q14 0 25 -20t11 -37q0 -28 -59.5 -55.5t-146.5 -27.5q-121 0 -197.5 63t-76.5 165 zM199 272h142q16 0 22.5 5.5t6.5 21.5q0 105 -85 105q-42 0 -64 -23.5t-22 -80.5v-28z" />
<glyph unicode="&#x2153;" horiz-adv-x="670" d="M22 655q0 21 15 30l76 44q10 4 16 4q15 0 27 -8t12 -20v-347q0 -13 -13 -20t-30 -7q-18 0 -31 7t-13 20v278l-17 -10q-7 -4 -15 -4q-12 0 -19.5 10t-7.5 23zM59 4q0 7 4 17l360 729q11 21 36 21q19 0 34.5 -13t15.5 -32q0 -10 -4 -18l-360 -726q-9 -22 -39 -22 q-20 0 -33.5 13.5t-13.5 30.5zM361 100q0 18 8.5 24.5t31.5 6.5q26 0 35 -6t9 -22q0 -31 57 -31q32 0 45 11t13 37v11q0 43 -60 43q-26 0 -26 33t26 34q16 1 24.5 3t16.5 12.5t8 30.5q0 39 -47 39q-48 0 -48 -28q0 -30 -40 -30q-28 0 -36 6.5t-8 26.5q0 39 31.5 69t100.5 30 q129 0 129 -99q0 -70 -46 -90q60 -20 60 -80v-11q0 -63 -40 -93t-106 -30q-68 0 -103 32t-35 71z" />
<glyph unicode="&#x2154;" horiz-adv-x="782" d="M26 358v53q0 29 29.5 58t64.5 50t64.5 47t29.5 49q0 15 -12.5 27t-36.5 12q-47 0 -47 -41q0 -13 -13 -22t-33 -9q-39 0 -39 44q0 48 39 76.5t92 28.5q55 0 95.5 -30.5t40.5 -82.5q0 -39 -29 -73t-63 -53.5t-63 -40t-29 -35.5v-10h158q11 0 18.5 -11t7.5 -26t-8 -26.5 t-18 -11.5h-210q-13 0 -25.5 8t-12.5 19zM182 4q0 7 4 17l360 729q10 21 36 21q18 0 34 -13t16 -32q0 -10 -4 -18l-360 -726q-9 -22 -39 -22q-20 0 -33.5 13.5t-13.5 30.5zM475 100q0 18 8.5 24.5t31.5 6.5q26 0 35 -6t9 -22q0 -31 57 -31q32 0 45 11t13 37v11q0 43 -60 43 q-26 0 -26 33t26 34q16 1 24.5 3t16.5 12.5t8 30.5q0 39 -47 39q-48 0 -48 -28q0 -30 -40 -30q-28 0 -36 6.5t-8 26.5q0 39 31.5 69t100.5 30q129 0 129 -99q0 -70 -46 -90q60 -20 60 -80v-11q0 -63 -40 -93t-106 -30q-68 0 -103 32t-35 71z" />
<glyph unicode="&#x215b;" horiz-adv-x="669" d="M22 655q0 21 15 30l76 44q10 4 16 4q15 0 27 -8t12 -20v-347q0 -13 -13 -20t-30 -7q-18 0 -31 7t-13 20v278l-17 -10q-7 -4 -15 -4q-12 0 -19.5 10t-7.5 23zM59 4q0 7 4 17l360 729q11 21 36 21q19 0 34.5 -13t15.5 -32q0 -10 -4 -18l-360 -726q-9 -22 -39 -22 q-20 0 -33.5 13.5t-13.5 30.5zM359 109v7q0 80 72 103q-58 19 -58 83q0 50 35 74t94 24t93.5 -24t34.5 -74q0 -65 -58 -83q72 -23 72 -103v-7q0 -58 -39 -85t-103 -27q-65 0 -104 27t-39 85zM445 120q0 -55 57 -55q56 0 56 55v12q0 51 -56 51q-57 0 -57 -51v-12zM456 291 q0 -39 46 -39q45 0 45 39q0 40 -45 40q-46 0 -46 -40z" />
<glyph unicode="&#x215c;" horiz-adv-x="790" d="M23 432q0 18 8.5 24.5t31.5 6.5q26 0 35 -6t9 -22q0 -32 57 -32q31 0 44.5 11.5t13.5 37.5v10q0 26 -15.5 34.5t-44.5 8.5q-26 0 -26 33t26 34q16 1 24.5 3t16.5 12.5t8 30.5q0 40 -47 40q-48 0 -48 -28q0 -31 -40 -31q-28 0 -36 7t-8 27q0 39 31.5 68.5t100.5 29.5 q129 0 129 -99q0 -70 -46 -90q60 -20 60 -80v-10q0 -64 -40 -94t-106 -30q-68 0 -103 32t-35 72zM180 4q0 7 4 17l360 729q10 21 36 21q18 0 34 -13t16 -32q0 -10 -4 -18l-360 -726q-9 -22 -39 -22q-20 0 -33.5 13.5t-13.5 30.5zM481 109v7q0 80 72 103q-58 19 -58 83 q0 50 35 74t94 24t93.5 -24t34.5 -74q0 -65 -58 -83q72 -23 72 -103v-7q0 -58 -39 -85t-103 -27q-65 0 -104 27t-39 85zM567 120q0 -55 57 -55q56 0 56 55v12q0 51 -56 51q-57 0 -57 -51v-12zM578 291q0 -39 46 -39q45 0 45 39q0 40 -45 40q-46 0 -46 -40z" />
<glyph unicode="&#x215d;" horiz-adv-x="790" d="M22 429q0 22 10 30.5t32 8.5q26 0 35 -8t9 -24q0 -33 54 -33q58 0 58 51v11q0 52 -56 52h-89q-33 0 -33 34q0 11 1 19l14 135q3 26 17 26h185q26 0 26 -37q0 -38 -26 -38h-130l-7 -72h42q65 0 103.5 -28.5t38.5 -90.5v-11q0 -65 -39 -95.5t-102 -30.5q-67 0 -105 30 t-38 71zM179 4q0 7 4 17l360 729q11 21 36 21q19 0 34.5 -13t15.5 -32q0 -10 -4 -18l-360 -726q-9 -22 -39 -22q-20 0 -33.5 13.5t-13.5 30.5zM480 109v7q0 80 72 103q-58 19 -58 83q0 50 35 74t94 24t93.5 -24t34.5 -74q0 -65 -58 -83q72 -23 72 -103v-7q0 -58 -39 -85 t-103 -27q-65 0 -104 27t-39 85zM566 120q0 -55 57 -55q56 0 56 55v12q0 51 -56 51q-57 0 -57 -51v-12zM577 291q0 -39 46 -39q45 0 45 39q0 40 -45 40q-46 0 -46 -40z" />
<glyph unicode="&#x215e;" horiz-adv-x="789" d="M22 620v85q0 10 12 18t26 8h209q13 0 25.5 -8t12.5 -18v-69q0 -22 -17 -52l-143 -244q-6 -12 -25 -12q-21 0 -37.5 12.5t-16.5 30.5q0 8 3 14l150 233v38h-113v-36q0 -11 -13 -18.5t-30 -7.5q-18 0 -30.5 7.5t-12.5 18.5zM129 4q0 7 4 17l360 729q11 21 36 21 q19 0 34.5 -13t15.5 -32q0 -10 -4 -18l-360 -726q-9 -22 -39 -22q-20 0 -33.5 13.5t-13.5 30.5zM480 109v7q0 80 72 103q-58 19 -58 83q0 50 35 74t94 24t93.5 -24t34.5 -74q0 -65 -58 -83q72 -23 72 -103v-7q0 -58 -39 -85t-103 -27q-65 0 -104 27t-39 85zM566 120 q0 -55 57 -55q56 0 56 55v12q0 51 -56 51q-57 0 -57 -51v-12zM577 291q0 -39 46 -39q45 0 45 39q0 40 -45 40q-46 0 -46 -40z" />
<glyph unicode="&#x2190;" horiz-adv-x="771" d="M70 240q0 14 17 31l196 196q12 10 26 10q22 0 41 -19.5t19 -41.5q0 -15 -10 -25l-97 -97h399q18 0 29 -15.5t11 -38.5q0 -24 -11 -38.5t-29 -14.5h-399l97 -97q10 -10 10 -25q0 -22 -19 -41.5t-41 -19.5q-16 0 -26 10l-196 196q-17 17 -17 30z" />
<glyph unicode="&#x2191;" horiz-adv-x="771" d="M149 317q0 16 10 26l196 196q15 15 31 17q13 0 30 -17l196 -196q10 -12 10 -26q0 -22 -19.5 -41t-41.5 -19q-15 0 -25 10l-97 97v-399q0 -18 -14.5 -29t-38.5 -11t-39 11t-15 29v399l-97 -97q-10 -10 -25 -10q-22 0 -41.5 19t-19.5 41z" />
<glyph unicode="&#x2192;" horiz-adv-x="771" d="M70 240q0 23 11 38.5t29 15.5h399l-97 97q-10 10 -10 25q0 22 19 41.5t41 19.5q14 0 26 -10l196 -196q17 -19 17 -31q0 -13 -17 -30l-196 -196q-10 -10 -26 -10q-22 0 -41 19.5t-19 41.5q0 15 10 25l97 97h-399q-18 0 -29 14.5t-11 38.5z" />
<glyph unicode="&#x2193;" horiz-adv-x="771" d="M149 164q0 22 19.5 41t41.5 19q15 0 25 -10l97 -97v399q0 18 15 29t39 11t38.5 -11t14.5 -29v-399l97 97q10 10 25 10q22 0 41.5 -19t19.5 -41q0 -14 -10 -26l-196 -196q-17 -17 -30 -17q-16 2 -31 17l-196 196q-10 10 -10 26z" />
<glyph unicode="&#x2202;" horiz-adv-x="515" d="M34 196v84q0 83 52 143t125 60q44 0 79.5 -22t51.5 -56q-6 122 -39 176.5t-103 54.5q-30 0 -61.5 -12t-38.5 -12q-20 0 -34 25.5t-14 42.5q0 23 48.5 44.5t109.5 21.5q52 0 96.5 -19.5t82.5 -62.5t60 -121t22 -185v-155q0 -83 -65.5 -147.5t-153.5 -64.5q-86 0 -152 62.5 t-66 142.5zM163 196q0 -36 27 -64t63 -28t62.5 28t26.5 64v85q0 38 -28 63.5t-63 25.5q-36 0 -62 -27.5t-26 -62.5v-84z" />
<glyph unicode="&#x2206;" horiz-adv-x="591" d="M21 45q0 17 5 29l185 615q15 48 85 48q69 0 84 -48l185 -615q5 -12 5 -29q0 -45 -55 -45h-439q-55 0 -55 45zM170 114h251l-125 462z" />
<glyph unicode="&#x220f;" horiz-adv-x="589" d="M60 40v650q0 19 17 30t40 11h355q23 0 40 -11t17 -30v-650q0 -20 -19 -30t-46 -10t-46 10t-19 30v577h-210v-577q0 -20 -19 -30t-46 -10q-26 0 -45 10t-19 30z" />
<glyph unicode="&#x2211;" horiz-adv-x="519" d="M23 -178q0 26 15 54l203 376l-203 376q-15 28 -15 54q0 21 13 35t42 14h377q18 0 29.5 -17.5t11.5 -39.5t-11.5 -39.5t-29.5 -17.5h-272l148 -268q39 -69 39 -97t-39 -97l-148 -268h272q18 0 29.5 -17.5t11.5 -39.5t-11.5 -39.5t-29.5 -17.5h-377q-29 0 -42 14t-13 35z " />
<glyph unicode="&#x2212;" horiz-adv-x="493" d="M46 284q0 23 11 38.5t29 15.5h320q16 0 29 -16t13 -38q0 -23 -12.5 -38t-29.5 -15h-320q-18 0 -29 14.5t-11 38.5z" />
<glyph unicode="&#x221a;" horiz-adv-x="686" d="M1 390q0 23 11 38.5t29 15.5h105q28 0 41 -46l78 -280l171 620q3 12 13.5 21t23.5 9h176q16 0 29 -16t13 -38q0 -23 -12.5 -38t-29.5 -15h-101l-199 -652q-6 -21 -30 -32.5t-54 -11.5q-69 0 -84 44l-109 328h-31q-18 0 -29 14.5t-11 38.5z" />
<glyph unicode="&#x221e;" horiz-adv-x="900" d="M39 236q0 97 62.5 150.5t150.5 53.5q55 0 109 -32t88 -87q35 55 88.5 87t109.5 32q89 0 151.5 -53.5t62.5 -150.5t-62.5 -150.5t-152.5 -53.5q-55 0 -108.5 31.5t-88.5 86.5q-34 -55 -87.5 -86.5t-109.5 -31.5q-88 0 -150.5 53.5t-62.5 150.5zM153 236q0 -48 28.5 -73 t71.5 -25q44 0 87 25.5t66 72.5q-23 47 -66 72.5t-87 25.5q-43 0 -71.5 -25t-28.5 -73zM494 236q23 -47 66 -72.5t86 -25.5t72 25t29 73t-29 73t-72 25t-86 -25.5t-66 -72.5z" />
<glyph unicode="&#x222b;" horiz-adv-x="357" d="M-1 -151q0 21 11.5 37t32.5 16q37 0 54 19t17 61v592q0 174 205 174q14 0 27 -14t13 -34q0 -19 -10 -35t-30 -16q-42 0 -58.5 -18.5t-16.5 -61.5v-586q0 -183 -195 -183q-21 0 -35.5 14.5t-14.5 34.5z" />
<glyph unicode="&#x2248;" horiz-adv-x="446" d="M52 163q0 29 18.5 46.5t35 21t32.5 3.5q30 0 73 -14.5t69 -14.5q24 0 49 12t33 12q16 0 24 -16t8 -29q0 -30 -18 -47.5t-34 -20.5t-32 -3q-35 0 -77.5 14.5t-65.5 14.5q-24 0 -49 -12t-33 -12q-17 0 -25 16t-8 29zM52 370q0 30 18.5 47.5t35 21t32.5 3.5q30 0 73 -14.5 t69 -14.5q24 0 49 11.5t33 11.5q16 0 24 -16t8 -29q0 -23 -9.5 -38.5t-25 -22t-27 -8.5t-22.5 -2q-35 0 -77.5 14.5t-65.5 14.5q-24 0 -49 -12t-33 -12q-17 0 -25 16t-8 29z" />
<glyph unicode="&#x2260;" horiz-adv-x="500" d="M35 144q0 23 11 38.5t29 15.5h106l52 96h-158q-18 0 -29 14.5t-11 38.5q0 23 11 38.5t29 15.5h222l68 123q7 11 21 11q13 0 25 -10t12 -23q0 -4 -4 -14l-49 -87h55q15 0 28 -16t13 -38q0 -23 -12.5 -38t-28.5 -15h-119l-53 -96h172q15 0 28 -16t13 -38q0 -23 -12.5 -38 t-28.5 -15h-237l-56 -102q-6 -11 -19 -11t-24 9.5t-11 21.5q0 6 5 14l35 68h-43q-18 0 -29 14.5t-11 38.5z" />
<glyph unicode="&#x2264;" horiz-adv-x="442" d="M35 84q0 23 11.5 38.5t29.5 15.5h277q16 0 28.5 -15.5t12.5 -38.5t-12.5 -38t-28.5 -15h-277q-18 0 -29.5 14.5t-11.5 38.5zM35 361q0 35 27 48l258 131q10 5 17 5q21 0 39 -20t18 -42q0 -24 -22 -34l-187 -88l187 -88q22 -10 22 -34q0 -22 -18 -42t-39 -20q-9 0 -17 4 l-258 132q-27 13 -27 48z" />
<glyph unicode="&#x2265;" horiz-adv-x="442" d="M48 84q0 23 12.5 38.5t28.5 15.5h277q18 0 29.5 -15.5t11.5 -38.5q0 -24 -11.5 -38.5t-29.5 -14.5h-277q-16 0 -28.5 15t-12.5 38zM48 239q0 24 22 34l187 88l-187 88q-22 10 -22 34q0 22 18 42t39 20q9 0 17 -5l258 -131q27 -13 27 -48t-27 -48l-258 -132q-7 -4 -17 -4 q-21 0 -39 20t-18 42z" />
<glyph unicode="&#x25ca;" horiz-adv-x="514" d="M21 366q0 28 38 97l136 245q17 31 62 31q43 0 61 -31l137 -245q38 -69 38 -97t-38 -97l-137 -245q-17 -31 -61 -31t-62 31l-136 245q-38 69 -38 97zM138 366l119 -222l119 222l-119 229z" />
<glyph unicode="&#x25fc;" horiz-adv-x="480" d="M0 480h480v-480h-480v480z" />
<glyph unicode="&#xe000;" horiz-adv-x="480" d="M0 480h480v-480h-480v480z" />
<glyph unicode="&#xf6c3;" horiz-adv-x="246" d="M17 -145q0 21 17 30l132 64q8 3 13 3q16 0 28 -15.5t12 -33.5q0 -23 -18 -31l-130 -62q-10 -4 -14 -4q-16 0 -28 16t-12 33z" />
<glyph horiz-adv-x="493" d="M22 124q0 81 60.5 113.5t172.5 32.5h41v14q0 39 -21.5 65.5t-73.5 26.5q-37 0 -69 -15.5t-39 -15.5q-19 0 -31 20.5t-12 39.5q0 35 51.5 55.5t115.5 20.5q102 0 155 -56.5t53 -138.5v-119q0 -34 9 -46t25 -14q30 -5 30 -50q0 -66 -61 -66q-45 0 -76.5 22t-36.5 57 q-70 -79 -159 -79q-58 0 -96 34t-38 99zM151 140q0 -26 14.5 -39.5t35.5 -13.5q34 0 64.5 30t30.5 66v21h-15q-62 0 -96 -12.5t-34 -51.5z" />
<glyph horiz-adv-x="513" d="M46 190v522q0 18 17.5 29t45.5 11t47 -11t19 -29v-307q17 32 50.5 54t77.5 22q73 0 125.5 -60t52.5 -143v-82q0 -80 -64 -142.5t-155 -62.5q-87 0 -151.5 58t-64.5 141zM175 192q0 -37 25.5 -62.5t61.5 -25.5q40 0 65 28.5t25 63.5v82q0 35 -26 62.5t-62 27.5 q-34 0 -61.5 -25t-27.5 -65v-86z" />
<glyph horiz-adv-x="135" d="M0 673q0 28 19.5 48t47.5 20t48 -20t20 -47q0 -18 -55 -147q-8 -16 -27 -16q-15 0 -29 9.5t-14 24.5q0 7 4 14l23 53q-37 20 -37 61z" />
<glyph horiz-adv-x="520" d="M33 204v74q0 84 52.5 143.5t127.5 59.5q45 0 80.5 -22t53.5 -54v30q0 18 17 29t43 11t44 -11t18 -29v-444q0 -99 -65 -163.5t-195 -64.5q-69 0 -120 20.5t-51 64.5q0 24 14 42t32 18q7 0 49.5 -16.5t83.5 -16.5q123 0 123 129v74q-16 -33 -52.5 -56t-79.5 -23 q-69 0 -122 62t-53 143zM162 204q0 -36 27 -64t62 -28t62 27t27 47v92q0 40 -26.5 65t-60.5 25q-37 0 -64 -27.5t-27 -62.5v-74z" />
<glyph horiz-adv-x="803" d="M46 41v237q0 84 57.5 143.5t135.5 59.5q98 0 162 -70q64 70 163 70q78 0 135.5 -59.5t57.5 -143.5v-237q0 -17 -18.5 -29t-46.5 -12q-26 0 -45 12.5t-19 28.5v237q0 37 -24.5 63.5t-56.5 26.5t-56.5 -27t-24.5 -63v-238q0 -17 -18.5 -28.5t-45.5 -11.5q-26 0 -45.5 12 t-19.5 28v238q0 36 -24.5 63t-56.5 27t-56.5 -26.5t-24.5 -63.5v-237q0 -15 -19.5 -28t-44.5 -13q-26 0 -45.5 13t-19.5 28z" />
<glyph horiz-adv-x="519" d="M45 41v237q0 81 63.5 142t150.5 61t150.5 -60.5t63.5 -142.5v-237q0 -17 -18 -29t-46 -12q-26 0 -45.5 12t-19.5 29v237q0 35 -25 62.5t-60 27.5t-60 -27.5t-25 -62.5v-237q0 -15 -19.5 -28t-45.5 -13t-45 13t-19 28z" />
<glyph horiz-adv-x="410" d="M13 57q0 24 12 40.5t29 16.5h92v461l-32 -32q-10 -9 -23 -9q-18 0 -30 16t-12 36q0 31 24 46l118 91q12 10 28 10q22 0 39.5 -11.5t17.5 -30.5v-577h90q16 0 28.5 -17t12.5 -40t-12.5 -40t-28.5 -17h-312q-17 0 -29 16.5t-12 40.5z" />
<glyph horiz-adv-x="514" d="M32 196v81q0 81 62.5 142.5t155.5 61.5q88 0 153 -58t65 -147v-456q0 -16 -18.5 -28.5t-45.5 -12.5t-46 12.5t-19 28.5v250q-16 -33 -52 -56t-79 -23q-70 0 -123 62t-53 143zM161 196q0 -35 27 -63.5t61 -28.5q35 0 62.5 27t27.5 47v96q0 41 -26 67.5t-64 26.5 q-40 0 -64 -28t-24 -63v-81z" />
<glyph horiz-adv-x="369" d="M42 41v175q0 105 58 185t159 80h55q24 0 37 -16t13 -40q0 -23 -14 -40t-33 -17h-33q-47 0 -80 -44t-33 -110v-173q0 -16 -19.5 -28.5t-46.5 -12.5q-26 0 -44.5 12.5t-18.5 28.5z" />
<glyph horiz-adv-x="528" d="M46 196v238q0 18 19 29.5t47 11.5q27 0 45 -11.5t18 -29.5v-238q0 -35 26 -63.5t61 -28.5q33 0 60 27.5t27 54.5v248q0 18 19 29.5t47 11.5q27 0 45 -11.5t18 -29.5v-393q0 -16 -18.5 -28.5t-44.5 -12.5q-24 0 -41 12.5t-17 28.5v29q-16 -33 -53.5 -56t-82.5 -23 q-70 0 -122.5 62t-52.5 143z" />
</font>
</defs>
</svg>
