<?xml version="1.0" standalone="no"?>
<!DOCTYPE svg PUBLIC "-//W3C//DTD SVG 1.1//EN" "http://www.w3.org/Graphics/SVG/1.1/DTD/svg11.dtd" >
<svg xmlns="http://www.w3.org/2000/svg">
<metadata></metadata>
<defs>
<font id="dosisregular" horiz-adv-x="496" >
<font-face units-per-em="1000" ascent="800" descent="-200" />
<missing-glyph horiz-adv-x="200" />
<glyph unicode="&#xfb01;" horiz-adv-x="506" d="M63 25v547q0 77 56 134t152 57q57 0 105.5 -18.5t48.5 -43.5q0 -11 -8 -23.5t-18 -12.5q-6 0 -20.5 9.5t-41.5 19.5t-63 10q-74 0 -110 -40t-36 -90v-101h127q10 0 16.5 -8t6.5 -18q0 -12 -6.5 -20t-16.5 -8h-127v-394q0 -11 -10 -18t-24 -7q-13 0 -22 7t-9 18zM379 26 v423q0 10 9 17t23 7t23.5 -7t9.5 -17v-423q0 -10 -10 -18t-23 -8t-22.5 8t-9.5 18z" />
<glyph unicode="&#xfb02;" horiz-adv-x="515" d="M63 25v547q0 86 64 138.5t152 52.5q47 0 92 -17t73 -51v-669q0 -10 -9.5 -18t-23.5 -8q-13 0 -22.5 8t-9.5 18v645q-39 39 -102 39q-60 0 -104.5 -37.5t-44.5 -98.5v-101h127q10 0 16.5 -8t6.5 -18q0 -12 -6.5 -20t-16.5 -8h-127v-394q0 -11 -10 -18t-24 -7q-13 0 -22 7 t-9 18z" />
<glyph horiz-adv-x="0" />
<glyph horiz-adv-x="0" />
<glyph unicode="&#xd;" horiz-adv-x="333" />
<glyph unicode=" "  horiz-adv-x="200" />
<glyph unicode="&#x09;" horiz-adv-x="200" />
<glyph unicode="&#xa0;" horiz-adv-x="200" />
<glyph unicode="!" horiz-adv-x="205" d="M57 40q0 20 13 33.5t33 13.5q19 0 32 -13.5t13 -33.5q0 -18 -13.5 -32t-31.5 -14q-20 0 -33 13.5t-13 32.5zM64 705q0 18 11 28.5t27 10.5t27 -10.5t11 -28.5q0 -82 -5.5 -258.5t-5.5 -258.5q0 -11 -8.5 -17t-18.5 -6q-26 0 -26 23q0 82 -6 258.5t-6 258.5z" />
<glyph unicode="&#x22;" horiz-adv-x="270" d="M38 746q0 9 10 15.5t21 6.5q12 0 22.5 -6.5t10.5 -15.5l-10 -147q0 -23 -23 -23q-21 0 -21 23zM168 746q0 9 10 15.5t21 6.5q12 0 22.5 -6.5t10.5 -15.5l-10 -147q0 -23 -23 -23q-21 0 -21 23z" />
<glyph unicode="#" horiz-adv-x="583" d="M26 278q0 11 5.5 18.5t14.5 7.5h110l24 160h-96q-24 0 -24 26q0 25 20 25h110l29 183q3 15 25 15q32 0 32 -29l-27 -169h127l29 183q3 15 25 15q32 0 32 -29l-27 -169h98q9 0 17 -7t8 -18q0 -10 -6.5 -18t-14.5 -8h-110l-26 -160h98q9 0 17 -7.5t8 -18.5 q0 -10 -6.5 -17.5t-14.5 -7.5h-111l-31 -199q-5 -20 -28 -20q-13 0 -22 7.5t-9 21.5l29 190h-125l-31 -198q-1 -10 -9.5 -15.5t-17.5 -5.5q-13 0 -22 7.5t-9 21.5l28 190h-95q-24 0 -24 25zM215 304h126l25 160h-126z" />
<glyph unicode="$" horiz-adv-x="499" d="M39 111q0 12 9.5 24.5t20.5 12.5q7 0 19 -12l28 -28q15 -15 48 -28t75 -14v291l-27 10l-25 9q-20 8 -27 12l-22 12q-17 8 -23.5 15t-18.5 18t-17 22l-11 25q-6 14 -8.5 30.5t-2.5 35.5q0 86 52.5 126.5t129.5 45.5v31q0 8 6.5 13.5t16.5 5.5q8 0 15.5 -6t7.5 -13v-29 q58 -2 105 -19.5t47 -41.5q0 -12 -8.5 -24.5t-20.5 -12.5q-3 0 -41 17.5t-82 19.5v-248q38 -14 63 -27t52 -36.5t41 -60t14 -85.5q0 -87 -45.5 -136.5t-124.5 -59.5v-39q0 -7 -7.5 -13t-15.5 -6q-10 0 -16.5 5.5t-6.5 13.5v36q-86 1 -143 38t-57 70zM120 552q0 -53 30.5 -79 t90.5 -47v232q-121 -10 -121 -106zM282 68q109 17 109 128q0 60 -28 91.5t-81 53.5v-273z" />
<glyph unicode="%" horiz-adv-x="757" d="M40 465v152q0 59 34 86.5t90 27.5t90 -27.5t34 -86.5v-152q0 -59 -34 -86.5t-90 -27.5t-90 27.5t-34 86.5zM91 465q0 -69 73 -69q74 0 74 69v152q0 69 -74 69q-73 0 -73 -69v-152zM166 -2q0 6 3 12l381 747q5 12 20 12q10 0 19 -8t9 -19q0 -7 -3 -13l-379 -741 q-8 -15 -24 -15q-10 0 -18 7.5t-8 17.5zM469 111v152q0 58 34 86t90 28t90 -28t34 -86v-152q0 -59 -34 -86.5t-90 -27.5t-90 27.5t-34 86.5zM520 111q0 -69 73 -69q74 0 74 69v152q0 69 -74 69q-73 0 -73 -69v-152z" />
<glyph unicode="&#x26;" horiz-adv-x="610" d="M34 203q0 71 39 122t97 77q-39 45 -60 85t-21 91q0 79 52 124.5t129 45.5q73 0 118 -34t45 -62q0 -13 -9 -21.5t-22 -8.5q-8 0 -18.5 11t-21 24.5t-34.5 24.5t-55 11q-54 0 -85 -32.5t-31 -86.5q0 -33 15 -66t31.5 -53.5t46.5 -53.5l203 -222q29 66 34 182q1 15 7 21 t23 6q28 0 28 -35q0 -121 -50 -219l92 -99q6 -7 6 -14q0 -11 -9.5 -19.5t-20.5 -8.5q-10 0 -19 9l-81 87q-73 -99 -200 -99q-105 0 -167 62t-62 151zM101 209q0 -67 46 -113t125 -46q100 0 150 81l-215 229q-22 -13 -36 -23.5t-32.5 -29t-28 -43.5t-9.5 -55z" />
<glyph unicode="'" horiz-adv-x="140" d="M38 746q0 9 10 15.5t21 6.5q12 0 22.5 -6.5t10.5 -15.5l-10 -147q0 -23 -23 -23q-21 0 -21 23z" />
<glyph unicode="(" horiz-adv-x="299" d="M62 151v433q0 76 54.5 130t131.5 54q32 0 32 -29q0 -13 -7 -22t-17 -9q-58 0 -93 -37.5t-35 -86.5v-433q0 -43 21 -69t47.5 -34t59.5 -8q24 0 24 -30t-33 -30q-81 0 -133 45t-52 126z" />
<glyph unicode=")" horiz-adv-x="299" d="M19 10q0 30 24 30q33 0 59.5 8t47.5 34t21 69v433q0 49 -35 86.5t-93 37.5q-10 0 -17 8.5t-7 22.5q0 29 32 29q77 0 131.5 -54t54.5 -130v-433q0 -81 -52 -126t-133 -45q-33 0 -33 30z" />
<glyph unicode="*" horiz-adv-x="431" d="M33 592q0 11 8 20t20 9q4 0 7 -1l126 -44l-5 130q1 25 27 25t27 -25l-5 -131l126 45q3 1 9 1q10 0 17.5 -9.5t7.5 -20.5q0 -19 -17 -23l-125 -36l81 -109q4 -5 4 -14q0 -12 -9 -20t-21 -8q-13 0 -19 10l-76 112l-76 -113q-6 -9 -17 -9q-10 0 -21 7.5t-11 19.5q0 8 6 16 l80 106l-127 38q-17 4 -17 24z" />
<glyph unicode="+" horiz-adv-x="431" d="M31 240q0 13 7 21.5t17 8.5h132v130q0 10 8.5 18t20.5 8t20.5 -8t8.5 -18v-130h130q10 0 18 -9t8 -21t-8 -20t-18 -8h-130v-132q0 -11 -8 -17.5t-21 -6.5q-12 0 -20.5 7t-8.5 17v132h-132q-24 0 -24 28z" />
<glyph unicode="," horiz-adv-x="171" d="M40 40q0 20 13 33.5t32 13.5q18 0 32 -13t14 -34q0 -16 -38 -112q-6 -12 -20 -12q-9 0 -16.5 5.5t-7.5 13.5q0 6 1 10l20 52q-30 12 -30 43z" />
<glyph unicode="-" horiz-adv-x="413" d="M52 240q0 13 7 21.5t18 8.5h260q10 0 17.5 -8.5t7.5 -21.5q0 -12 -7.5 -20t-17.5 -8h-260q-25 0 -25 28z" />
<glyph unicode="." horiz-adv-x="171" d="M40 40q0 20 13 33.5t33 13.5q18 0 31.5 -14t13.5 -33q0 -18 -13.5 -32t-31.5 -14q-20 0 -33 13.5t-13 32.5z" />
<glyph unicode="/" horiz-adv-x="474" d="M20 -2q0 6 3 12l381 747q5 12 20 12q10 0 19.5 -8t9.5 -19q0 -8 -4 -13l-379 -741q-6 -15 -24 -15q-10 0 -18 7.5t-8 17.5z" />
<glyph unicode="0" horiz-adv-x="532" d="M58 208v310q0 110 56.5 161.5t151.5 51.5t151.5 -51.5t56.5 -161.5v-310q0 -111 -56.5 -162.5t-151.5 -51.5t-151.5 51.5t-56.5 162.5zM124 208q0 -153 142 -153t142 153v310q0 152 -142 152t-142 -152v-310zM230 362q0 16 10.5 26t26.5 10q15 0 25.5 -10t10.5 -26 q0 -15 -10.5 -26t-25.5 -11q-16 0 -26.5 11t-10.5 26z" />
<glyph unicode="1" horiz-adv-x="233" d="M13 571q0 17 15 30l82 116q11 15 25 15q11 0 20 -7t9 -18v-681q0 -12 -10 -19t-23 -7q-14 0 -23.5 7t-9.5 19v593l-40 -65q-8 -12 -19 -12t-18.5 8.5t-7.5 20.5z" />
<glyph unicode="2" horiz-adv-x="475" d="M34 26v97q0 46 35 89t85 79l98 71q50 36 85 81.5t35 93.5q0 52 -35.5 92t-99.5 40q-54 0 -87.5 -30.5t-33.5 -87.5q0 -11 -9.5 -19t-25.5 -8q-30 0 -30 41q0 72 54 119t134 47q86 0 142.5 -55t56.5 -137q0 -50 -25 -96t-62 -78t-81 -65l-81 -58q-37 -25 -62 -56.5 t-25 -62.5v-62h319q10 0 17 -9t7 -21t-7 -21.5t-17 -9.5h-356q-11 0 -21 7.5t-10 18.5z" />
<glyph unicode="3" horiz-adv-x="487" d="M28 159q0 20 7 27.5t24 7.5q34 0 34 -28q0 -41 33.5 -76t107.5 -35q144 0 144 150v19q0 67 -37.5 100t-104.5 33q-26 0 -26 28q0 29 25 29q63 0 94 28.5t31 99.5q0 66 -29 97.5t-92 31.5q-70 0 -99 -32.5t-29 -74.5q0 -32 -32 -32q-19 0 -26.5 8t-7.5 30q0 24 9 49 t29 51.5t61 43.5t97 17q183 0 183 -176q0 -65 -22.5 -108t-59.5 -61q102 -41 102 -162v-19q0 -109 -57.5 -160t-151.5 -51q-99 0 -153 51t-54 114z" />
<glyph unicode="4" horiz-adv-x="444" d="M8 199q0 10 4 17l251 495q10 20 31 20q11 0 21.5 -8t10.5 -19q0 -6 -3 -13l-231 -456h196v193q0 25 33 25q13 0 23 -6.5t10 -18.5v-193h55q12 0 18.5 -9.5t6.5 -21.5q0 -13 -7 -22.5t-18 -9.5h-55v-146q0 -12 -10 -19t-23 -7q-14 0 -23.5 7t-9.5 19v146h-254 q-26 0 -26 27z" />
<glyph unicode="5" horiz-adv-x="474" d="M28 164q0 33 32 33q34 0 34 -28q0 -53 40 -83.5t101 -30.5q68 0 105 37.5t37 113.5v19q0 74 -37 111t-104 37h-139q-34 0 -34 25q0 2 0.5 10t0.5 10l20 288q3 25 21 25h280q22 0 22 -30q0 -31 -22 -31h-242l-16 -240h109q95 0 151 -49t56 -156v-19q0 -109 -56.5 -160.5 t-150.5 -51.5q-96 0 -152 49t-56 121z" />
<glyph unicode="6" horiz-adv-x="517" d="M58 208v310q0 110 57 161.5t153 51.5t151 -50.5t55 -120.5q0 -30 -31 -30q-35 0 -35 27q0 51 -41 82t-101 31q-142 0 -142 -152v-153q49 66 151 66q199 0 199 -199v-24q0 -111 -56.5 -162.5t-151.5 -51.5t-151.5 51.5t-56.5 162.5zM124 205q0 -152 142 -152t142 152v24 q0 145 -142 145t-142 -136v-33z" />
<glyph unicode="7" horiz-adv-x="459" d="M27 555v151q0 9 9.5 17t20.5 8h355q11 0 21 -8t10 -17v-86q0 -14 -10 -29l-297 -580q-6 -13 -22 -13t-28 9t-12 23q0 4 4 14l299 572v54h-284v-115q0 -10 -10 -17.5t-23 -7.5q-14 0 -23.5 7.5t-9.5 17.5z" />
<glyph unicode="8" horiz-adv-x="502" d="M43 200v12q0 143 109 187q-89 37 -89 157q0 175 188 175t188 -175q0 -120 -88 -157q108 -43 108 -187v-12q0 -106 -57 -156t-151 -50t-151 50t-57 156zM109 205q0 -76 37.5 -114.5t105.5 -38.5t104.5 38.5t36.5 114.5v14q0 149 -142 149t-142 -149v-14zM128 551 q0 -124 123 -124q124 0 124 124q0 122 -124 122q-123 0 -123 -122z" />
<glyph unicode="9" horiz-adv-x="517" d="M43 165q0 31 31 31q34 0 34 -28q0 -51 41 -82t101 -31q143 0 143 153v153q-48 -67 -151 -67q-199 0 -199 200v24q0 110 56.5 161.5t150.5 51.5q95 0 152 -51.5t57 -161.5v-310q0 -111 -57.5 -162.5t-152.5 -51.5q-96 0 -151 50.5t-55 120.5zM109 496q0 -76 36 -110.5 t106 -34.5q142 0 142 136v33q0 77 -37.5 115t-105.5 38q-141 0 -141 -153v-24z" />
<glyph unicode=":" horiz-adv-x="203" d="M56 40q0 20 13 33.5t33 13.5q18 0 31.5 -14t13.5 -33q0 -18 -13.5 -32t-31.5 -14q-20 0 -33 13.5t-13 32.5zM56 376q0 20 13 33.5t33 13.5q18 0 31.5 -14t13.5 -33q0 -18 -13.5 -32t-31.5 -14q-20 0 -33 13.5t-13 32.5z" />
<glyph unicode=";" horiz-adv-x="209" d="M58 40q0 20 13 33.5t32 13.5q18 0 32 -13t14 -34q0 -16 -38 -112q-6 -12 -20 -12q-9 0 -16.5 5.5t-7.5 13.5q0 6 1 10l20 52q-30 12 -30 43zM61 376q0 20 13 33.5t33 13.5q18 0 31.5 -14t13.5 -33q0 -18 -13.5 -32t-31.5 -14q-20 0 -33 13.5t-13 32.5z" />
<glyph unicode="&#x3c;" horiz-adv-x="400" d="M25 277q0 17 16 28l269 178q5 4 12 4q11 0 21 -9.5t10 -21.5q0 -14 -11 -21l-238 -158l238 -157q11 -7 11 -21q0 -12 -10 -21.5t-21 -9.5q-7 0 -12 4l-269 178q-16 10 -16 27z" />
<glyph unicode="=" horiz-adv-x="434" d="M66 166q0 12 7 20.5t17 8.5h253q10 0 17.5 -8.5t7.5 -20.5t-7.5 -20.5t-17.5 -8.5h-253q-11 0 -17.5 8t-6.5 21zM66 369q0 12 7 20.5t17 8.5h253q10 0 17.5 -8.5t7.5 -20.5t-7.5 -20.5t-17.5 -8.5h-253q-11 0 -17.5 8t-6.5 21z" />
<glyph unicode="&#x3e;" horiz-adv-x="399" d="M47 99q0 14 11 21l238 157l-238 158q-11 7 -11 21q0 12 10 21.5t21 9.5q7 0 12 -4l269 -178q16 -11 16 -28t-16 -27l-269 -178q-5 -4 -12 -4q-11 0 -21 9.5t-10 21.5z" />
<glyph unicode="?" horiz-adv-x="398" d="M23 667q0 26 45.5 51.5t107.5 25.5q90 0 139.5 -50t49.5 -128q0 -43 -16.5 -82.5t-35 -60.5t-46.5 -47.5t-35 -35.5q-23 -25 -29 -56t-6 -96q0 -23 -27 -23t-27 29q0 77 11 113.5t32 60.5q8 8 35.5 33.5t42.5 42.5t29.5 49t14.5 68q0 60 -35 94t-100 34 q-39 0 -64.5 -12.5t-38.5 -24.5t-22 -12t-17 7.5t-8 19.5zM124 40q0 19 13.5 33t32.5 14t32.5 -14t13.5 -33q0 -18 -13.5 -32t-32.5 -14t-32.5 14t-13.5 32z" />
<glyph unicode="@" horiz-adv-x="716" d="M53 217q0 151 78 246t236 95q148 0 228 -83.5t80 -238.5q0 -57 -10.5 -100.5t-39 -73.5t-71.5 -30q-37 0 -64 19t-33 46q-29 -29 -55.5 -42.5t-67.5 -13.5q-56 0 -90.5 26.5t-34.5 82.5q0 64 49 88.5t147 24.5h43v19q0 44 -23.5 64.5t-74.5 20.5q-38 0 -65 -12.5 t-30 -12.5q-9 0 -15 9.5t-6 18.5q0 20 40 34.5t86 14.5q66 0 104 -33.5t38 -94.5v-166q3 -22 19.5 -36t36.5 -14q67 0 67 154q0 135 -65 207.5t-195 72.5q-72 0 -124.5 -23.5t-82 -65.5t-43 -92t-13.5 -110q0 -56 12 -103t38.5 -86.5t73 -62t109.5 -22.5q52 0 96 15.5 t45 15.5q9 0 15 -7.5t6 -14.5q0 -21 -55 -38.5t-114 -17.5q-116 0 -195.5 81.5t-79.5 238.5zM265 150q0 -33 21 -49t55 -16q47 0 78 26t31 56v55h-41q-72 0 -108 -14.5t-36 -57.5z" />
<glyph unicode="A" horiz-adv-x="540" d="M21 28q0 5 1 7l209 679q7 23 39 23t40 -23l208 -679q0 -1 0.5 -3t0.5 -3q0 -12 -13 -20.5t-27 -8.5q-19 0 -25 17l-46 154h-277l-46 -154q-4 -17 -26 -17q-14 0 -26 8t-12 20zM148 228h243l-121 403z" />
<glyph unicode="B" horiz-adv-x="538" d="M76 25v681q0 12 9 18.5t21 6.5h164q46 0 80 -7t63.5 -25t45 -52.5t15.5 -85.5q0 -62 -23 -105t-62 -60q50 -20 76.5 -60t26.5 -112v-18q0 -108 -54 -157t-144 -49h-188q-14 0 -22 7.5t-8 17.5zM141 61h145q140 0 140 148v17q0 142 -140 142h-145v-307zM141 425h131 q71 0 103.5 29.5t32.5 99.5q0 65 -36 90.5t-104 25.5h-127v-245z" />
<glyph unicode="C" horiz-adv-x="523" d="M68 208v310q0 109 58.5 161t151.5 52q95 0 150.5 -48.5t55.5 -118.5q0 -24 -7.5 -32t-25.5 -8q-31 0 -33 25q-1 15 -4 29t-12 31.5t-23.5 30.5t-40.5 21.5t-60 8.5q-144 0 -144 -152v-310q0 -153 148 -153q42 0 70 11.5t41 33.5t17.5 37.5t7.5 40.5q3 26 33 26 q18 0 25.5 -8.5t7.5 -32.5q0 -71 -56.5 -120t-152.5 -49q-92 0 -149.5 52t-57.5 162z" />
<glyph unicode="D" horiz-adv-x="560" d="M76 25v682q0 10 8.5 17t21.5 7h177q95 0 152 -51.5t57 -161.5v-304q0 -111 -57 -162.5t-152 -51.5h-177q-13 0 -21.5 7.5t-8.5 17.5zM142 61h141q68 0 105.5 38.5t37.5 114.5v304q0 76 -37.5 114t-105.5 38h-141v-609z" />
<glyph unicode="E" horiz-adv-x="508" d="M76 26v680q0 12 9 18.5t21 6.5h356q25 0 25 -29q0 -13 -6.5 -22.5t-18.5 -9.5h-320v-275h157q12 0 18.5 -8.5t6.5 -21.5q0 -27 -25 -27h-157v-277h320q11 0 18 -9t7 -22q0 -30 -25 -30h-356q-12 0 -21 7t-9 19z" />
<glyph unicode="F" horiz-adv-x="494" d="M76 25v681q0 12 9 18.5t21 6.5h354q12 0 18.5 -8.5t6.5 -20.5q0 -13 -6.5 -22.5t-18.5 -9.5h-318v-275h158q11 0 17.5 -8.5t6.5 -21.5q0 -27 -24 -27h-158v-313q0 -12 -10 -18.5t-23 -6.5q-33 0 -33 25z" />
<glyph unicode="G" horiz-adv-x="541" d="M68 208v310q0 110 56.5 161.5t150.5 51.5q95 0 152 -48.5t57 -124.5q0 -34 -33 -34q-32 0 -33 25q-14 121 -142 121q-142 0 -142 -152v-310q0 -77 37 -115t105 -38t105 38t37 115v119h-134q-11 0 -17.5 8.5t-6.5 20.5q0 11 6.5 19.5t17.5 8.5h176q24 0 24 -26v-150 q0 -111 -56.5 -162.5t-151.5 -51.5t-151.5 51.5t-56.5 162.5z" />
<glyph unicode="H" horiz-adv-x="573" d="M76 26v681q0 24 33 24t33 -24v-299h289v299q0 24 33 24t33 -24v-681q0 -12 -10 -19t-23 -7q-14 0 -23.5 7t-9.5 19v325h-289v-325q0 -12 -10 -19t-23 -7q-14 0 -23.5 7t-9.5 19z" />
<glyph unicode="I" horiz-adv-x="218" d="M76 26v681q0 24 33 24t33 -24v-681q0 -12 -10 -19t-23 -7q-14 0 -23.5 7t-9.5 19z" />
<glyph unicode="J" horiz-adv-x="512" d="M23 170q0 34 32 34q34 0 34 -26q0 -57 38.5 -90t103.5 -33q68 0 105 38t37 115v462h-141q-12 0 -18.5 9.5t-6.5 22.5q0 12 6.5 20.5t18.5 8.5h176q31 0 31 -25v-498q0 -111 -56.5 -162.5t-149.5 -51.5q-95 0 -152.5 49.5t-57.5 126.5z" />
<glyph unicode="K" horiz-adv-x="522" d="M76 26v681q0 24 33 24t33 -24v-354l289 368q7 10 21 10q12 0 24 -11t12 -23q0 -9 -5 -15l-215 -267l246 -370q4 -8 4 -13q0 -13 -12 -23.5t-26 -10.5t-25 15l-231 347l-82 -104v-230q0 -12 -10 -19t-23 -7q-14 0 -23.5 7t-9.5 19z" />
<glyph unicode="L" horiz-adv-x="463" d="M76 26v681q0 24 33 24t33 -24v-646h285q22 0 22 -30q0 -31 -22 -31h-321q-12 0 -21 7t-9 19z" />
<glyph unicode="M" horiz-adv-x="668" d="M76 26v673q0 32 33 32q29 0 53 -46l172 -332l172 332q24 46 53 46q33 0 33 -32v-673q0 -12 -9.5 -19t-23.5 -7q-13 0 -23 7t-10 19v562l-166 -314q-11 -21 -27 -21q-15 0 -26 21l-165 317v-565q0 -12 -10 -19t-23 -7q-14 0 -23.5 7t-9.5 19z" />
<glyph unicode="N" horiz-adv-x="573" d="M76 26v680q0 25 33 25q28 0 52 -46l270 -532v554q0 24 33 24t33 -24v-681q0 -12 -10 -19t-23 -7q-25 0 -44 38l-278 541v-553q0 -12 -10 -19t-23 -7q-14 0 -23.5 7t-9.5 19z" />
<glyph unicode="O" horiz-adv-x="552" d="M68 208v310q0 110 56.5 161.5t151.5 51.5t151.5 -51.5t56.5 -161.5v-310q0 -111 -56.5 -162.5t-151.5 -51.5t-151.5 51.5t-56.5 162.5zM134 208q0 -153 142 -153t142 153v310q0 152 -142 152t-142 -152v-310z" />
<glyph unicode="P" horiz-adv-x="527" d="M76 26v681q0 22 28 24h184q94 0 150 -51t56 -161v-10q0 -110 -56.5 -161.5t-151.5 -51.5h-144v-270q0 -12 -10 -19t-23 -7q-14 0 -23.5 7t-9.5 19zM142 353h144q68 0 105 38t37 115v12q0 152 -142 152h-144v-317z" />
<glyph unicode="Q" horiz-adv-x="552" d="M68 208v310q0 110 56.5 161.5t151.5 51.5t151.5 -51.5t56.5 -161.5v-310q0 -103 -49 -155t-133 -58v-79q0 -12 -7.5 -18.5t-17.5 -6.5q-11 0 -18.5 6.5t-7.5 18.5v79q-85 6 -134 57.5t-49 155.5zM134 208q0 -137 117 -150v74q0 24 26 24q25 0 25 -24v-74q116 14 116 150 v310q0 152 -142 152t-142 -152v-310z" />
<glyph unicode="R" horiz-adv-x="529" d="M76 26v681q0 22 25 24h177q97 0 156.5 -46t59.5 -151q0 -166 -156 -193l154 -296q4 -5 4 -13q0 -13 -12 -23.5t-26 -10.5q-18 0 -35 35l-154 300h-127v-307q0 -12 -10 -19t-23 -7q-14 0 -23.5 7t-9.5 19zM142 390h136q150 0 150 141q0 139 -150 139h-136v-280z" />
<glyph unicode="S" horiz-adv-x="494" d="M36 101q0 12 9.5 24.5t20.5 12.5q8 0 20 -13l28 -29q15 -16 47.5 -28.5t75.5 -12.5q71 0 110 35.5t39 102.5q0 45 -18.5 76.5t-47.5 48.5q-28 18 -64 32l-72 28q-36 14 -64.5 33.5t-47 55t-18.5 84.5q0 52 19.5 89.5t52.5 56.5t67.5 27.5t72.5 8.5q61 0 114.5 -17.5 t53.5 -43.5q0 -12 -8.5 -24.5t-20.5 -12.5q-6 0 -23 9.5t-47.5 19t-69.5 9.5q-63 0 -104 -27t-41 -89q0 -43 24.5 -72t61.5 -42t80 -31t80 -38.5t61.5 -65t24.5 -109.5q0 -103 -57 -154.5t-154 -51.5q-87 0 -146 37.5t-59 70.5z" />
<glyph unicode="T" horiz-adv-x="481" d="M15 700q0 12 6.5 21.5t18.5 9.5h401q12 0 18.5 -9t6.5 -21q0 -13 -6.5 -22.5t-18.5 -9.5h-167v-643q0 -12 -10 -19t-23 -7q-14 0 -23.5 7t-9.5 19v643h-168q-11 0 -18 9t-7 22z" />
<glyph unicode="U" horiz-adv-x="566" d="M73 208v499q0 24 33 24t33 -24v-499q0 -76 37.5 -114.5t106.5 -38.5t106.5 38.5t37.5 114.5v499q0 24 33 24t33 -24v-499q0 -111 -57.5 -162.5t-152.5 -51.5t-152.5 51.5t-57.5 162.5z" />
<glyph unicode="V" horiz-adv-x="538" d="M20 703q0 12 12 20t26 8q22 0 26 -17l185 -614l184 614q6 17 25 17q14 0 27 -8.5t13 -20.5q0 -1 -0.5 -3t-0.5 -3l-208 -678q-7 -24 -40 -24q-32 0 -39 24l-209 678q-1 2 -1 7z" />
<glyph unicode="W" horiz-adv-x="787" d="M22 704q0 11 12 19t26 8q21 0 26 -17l173 -614l100 373q5 23 35 23q27 0 34 -23l100 -373l173 614q5 17 26 17q14 0 26 -8t12 -19q0 -5 -1 -8l-196 -678q-8 -24 -40 -24q-33 0 -39 24l-95 353l-95 -353q-6 -24 -39 -24t-40 24l-197 678q-1 3 -1 8z" />
<glyph unicode="X" horiz-adv-x="484" d="M24 31q0 8 4 16l172 319l-169 317q-6 11 -6 21q0 12 11.5 20.5t27.5 8.5t34 -34l144 -275l144 275q18 34 34 34t27.5 -8.5t11.5 -20.5q0 -10 -6 -21l-170 -317l173 -319q4 -8 4 -16q0 -13 -12.5 -23t-26.5 -10q-15 0 -31 32l-148 280l-148 -280q-16 -32 -31 -32 q-14 0 -26.5 10t-12.5 23z" />
<glyph unicode="Y" horiz-adv-x="531" d="M19 703q0 12 11.5 20t24.5 8q16 0 26 -20l184 -365l185 365q10 20 26 20q13 0 24.5 -8t11.5 -20q0 -9 -4 -18l-208 -397q-2 -6 -2 -8v-254q0 -12 -9.5 -19t-23.5 -7q-13 0 -23 7t-10 19v254q0 5 -1 8l-207 397q-5 9 -5 18z" />
<glyph unicode="Z" horiz-adv-x="484" d="M24 23q0 11 6 23l333 624h-302q-11 0 -18 9t-7 22q0 12 6.5 21t18.5 9h363q25 0 25 -21q0 -12 -8 -26l-332 -623h327q12 0 18.5 -9t6.5 -21t-6.5 -21.5t-18.5 -9.5h-388q-24 0 -24 23z" />
<glyph unicode="[" horiz-adv-x="303" d="M68 4v739q0 11 9 18t21 7h161q11 0 18 -9t7 -20q0 -13 -7 -22t-18 -9h-125v-669h125q11 0 18 -9t7 -21t-7 -21t-18 -9h-161q-12 0 -21 7t-9 18z" />
<glyph unicode="\" horiz-adv-x="346" d="M23 727q0 12 8 19.5t20 7.5q16 0 22 -14l249 -707q1 -3 1 -8q0 -10 -8 -17.5t-19 -7.5q-18 0 -24 17l-248 701q-1 3 -1 9z" />
<glyph unicode="]" horiz-adv-x="303" d="M19 9q0 12 7 21t17 9h126v669h-126q-10 0 -17 9t-7 22q0 11 6.5 20t17.5 9h161q12 0 21.5 -7t9.5 -18v-739q0 -11 -9.5 -18t-21.5 -7h-161q-11 0 -17.5 9t-6.5 21z" />
<glyph unicode="^" horiz-adv-x="268" d="M0 618q0 15 13 22l104 56q8 5 17 5t17 -5l104 -56q13 -6 13 -23q0 -10 -6 -17t-14 -7q-1 0 -10 3l-104 55l-104 -56l-9 -3q-8 0 -14.5 8t-6.5 18z" />
<glyph unicode="_" horiz-adv-x="336" d="M-17 -30q0 13 7 21.5t18 8.5h320q10 0 17.5 -8.5t7.5 -21.5q0 -12 -7.5 -20t-17.5 -8h-320q-25 0 -25 28z" />
<glyph unicode="`" horiz-adv-x="155" d="M0 673q0 10 7 19t17 9q4 0 9 -3l111 -61q11 -5 11 -18q0 -11 -8 -19.5t-18 -8.5q-5 0 -10 3l-106 57q-13 6 -13 22z" />
<glyph unicode="a" horiz-adv-x="438" d="M30 125q0 77 59.5 107t173.5 30h51v24q0 55 -29 95.5t-89 40.5q-40 0 -72.5 -14.5t-34.5 -14.5q-12 0 -19 11t-7 24q0 19 43 35t92 16q94 0 137.5 -54.5t43.5 -138.5v-260q0 -11 -9 -18.5t-23 -7.5q-13 0 -21.5 7.5t-8.5 18.5v44q-67 -77 -151 -77q-60 0 -98 33.5 t-38 98.5zM95 131q0 -42 24 -62.5t63 -20.5q47 0 89.5 35t42.5 70v64h-42q-40 0 -67.5 -3t-54.5 -11t-41 -26t-14 -46z" />
<glyph unicode="b" horiz-adv-x="484" d="M63 26v713q0 10 9 17t23 7t23.5 -7t9.5 -17v-336q18 33 52.5 54.5t80.5 21.5q74 0 126.5 -55t52.5 -132v-109q0 -75 -53.5 -132.5t-123.5 -57.5q-45 0 -83 22.5t-54 54.5v-44q0 -10 -9 -18t-22 -8t-22.5 8t-9.5 18zM128 152q0 -27 37.5 -63t85.5 -36q50 0 87 40t37 90 v109q0 49 -37 88t-88 39q-48 0 -85 -35t-37 -92v-140z" />
<glyph unicode="c" horiz-adv-x="411" d="M46 183v107q0 84 49 136.5t144 52.5q60 0 100.5 -21.5t40.5 -43.5q0 -11 -9 -21.5t-20 -10.5q-6 0 -18.5 9t-35.5 18.5t-55 9.5q-64 0 -97.5 -34t-33.5 -95v-107q0 -62 33.5 -96t98.5 -34q34 0 57.5 9.5t36 19t19.5 9.5q13 0 21.5 -10t8.5 -22q0 -23 -42 -44.5 t-104 -21.5q-96 0 -145 52t-49 138z" />
<glyph unicode="d" horiz-adv-x="484" d="M45 183v109q0 77 52.5 132t126.5 55q46 0 80.5 -22t51.5 -54v336q0 10 10 17t24 7t22.5 -7t8.5 -17v-713q0 -10 -9 -18t-22 -8q-12 0 -21.5 8t-9.5 18v44q-17 -32 -54.5 -54.5t-82.5 -22.5q-71 0 -124 57.5t-53 132.5zM110 183q0 -50 37 -90t87 -40q48 0 85 36t37 63v140 q0 57 -36.5 92t-84.5 35q-51 0 -88 -39t-37 -88v-109z" />
<glyph unicode="e" horiz-adv-x="458" d="M45 183v112q0 75 56 129.5t135 54.5q76 0 131.5 -52t55.5 -130q0 -28 -6.5 -45t-21 -24t-26.5 -9t-33 -2h-226v-37q0 -59 42.5 -94.5t109.5 -35.5q34 0 59.5 10t39 20t21.5 10q11 0 19.5 -10.5t8.5 -20.5q0 -21 -43 -43.5t-107 -22.5q-95 0 -155 52.5t-60 137.5zM110 265 h200q30 0 40 6.5t10 27.5q0 50 -35.5 88t-89.5 38q-52 0 -88.5 -36t-36.5 -86v-38z" />
<glyph unicode="f" horiz-adv-x="305" d="M63 25v554q0 75 53 129.5t125 54.5h25q12 0 20 -9t8 -21t-8 -20.5t-20 -8.5h-17q-51 0 -85.5 -35.5t-35.5 -84.5v-111h143q10 0 16.5 -8t6.5 -18q0 -12 -6.5 -20t-16.5 -8h-143v-394q0 -11 -10 -18t-24 -7q-13 0 -22 7t-9 18z" />
<glyph unicode="g" horiz-adv-x="452" d="M25 -99q0 75 85 109q-55 19 -55 69q0 45 50 72q-55 46 -55 126v38q0 73 47.5 118.5t124.5 45.5q70 0 117 -42q15 29 34 46t37 17q14 0 22 -8t8 -18q0 -18 -17 -22q-35 -7 -56 -43q28 -37 28 -94v-38q0 -72 -49 -119t-125 -47q-41 0 -77 17q-31 -17 -31 -39q0 -21 23 -32 t57.5 -14t75 -9.5t75 -16.5t57.5 -37t23 -70q0 -68 -54 -105t-142 -37q-90 0 -146.5 36t-56.5 97zM88 -93q0 -41 37.5 -66t101.5 -25q63 0 98.5 25t35.5 67q0 20 -10 35t-23.5 23t-35.5 14t-38.5 8t-41.5 4l-35 4q-89 -28 -89 -89zM113 278q0 -52 29.5 -85t80.5 -33 q49 0 78.5 33t29.5 84v38q0 50 -29.5 82.5t-79.5 32.5t-79.5 -32.5t-29.5 -82.5v-37z" />
<glyph unicode="h" d="M63 26v713q0 10 9 17t23 7t23.5 -7t9.5 -17v-336q17 32 51.5 54t80.5 22q72 0 124.5 -55t52.5 -132v-266q0 -12 -9.5 -19t-23.5 -7q-12 0 -22 7t-10 19v266q0 49 -37 88t-87 39q-47 0 -83.5 -35t-36.5 -92v-266q0 -10 -10 -18t-23 -8t-22.5 8t-9.5 18z" />
<glyph unicode="i" horiz-adv-x="191" d="M50 655q0 17 13 29t32 12q18 0 30.5 -12t12.5 -29t-12.5 -29.5t-30.5 -12.5q-19 0 -32 12.5t-13 29.5zM63 26v423q0 10 9 17t23 7t23.5 -7t9.5 -17v-423q0 -10 -10 -18t-23 -8t-22.5 8t-9.5 18z" />
<glyph unicode="j" horiz-adv-x="191" d="M-37 -203q0 13 8 21.5t20 8.5q44 0 58 32.5t14 97.5v492q0 11 9 17.5t23 6.5t23.5 -7t9.5 -17v-492q0 -189 -132 -189q-17 0 -25 8.5t-8 20.5zM50 655q0 17 13 29t32 12q18 0 30.5 -12t12.5 -29t-12.5 -29.5t-30.5 -12.5q-19 0 -32 12.5t-13 29.5z" />
<glyph unicode="k" horiz-adv-x="456" d="M63 26v713q0 10 9 17t23 7t23.5 -7t9.5 -17v-487l244 217q10 6 15 6q12 0 22.5 -9.5t10.5 -21.5t-7 -18l-147 -129l173 -253q4 -8 4 -14q0 -11 -11 -22t-24 -11q-12 0 -20 12l-168 247l-92 -81v-149q0 -10 -9.5 -18t-23.5 -8q-13 0 -22.5 8t-9.5 18z" />
<glyph unicode="l" horiz-adv-x="207" d="M71 26v713q0 10 9 17t23 7t23.5 -7t9.5 -17v-713q0 -10 -9.5 -18t-23.5 -8q-13 0 -22.5 8t-9.5 18z" />
<glyph unicode="m" horiz-adv-x="780" d="M63 26v423q0 10 9 17t23 7q13 0 22 -7t9 -17v-46q18 33 52.5 54.5t80.5 21.5q48 0 86 -27.5t56 -72.5q25 49 66 74.5t86 25.5q68 0 118 -51t50 -136v-266q0 -10 -9.5 -18t-23.5 -8q-13 0 -22.5 8t-9.5 18v266q0 59 -34.5 93t-79.5 34q-46 0 -81.5 -34.5t-35.5 -88.5v-271 q0 -25 -33 -25q-32 0 -32 25v270q0 53 -33.5 88.5t-80.5 35.5t-82.5 -34.5t-35.5 -92.5v-266q0 -10 -10 -18t-23 -8t-22.5 8t-9.5 18z" />
<glyph unicode="n" d="M63 26v423q0 11 9 17.5t23 6.5q12 0 21 -7t9 -17v-46q17 32 52 54t82 22q72 0 125 -55t53 -132v-266q0 -12 -10 -19t-23 -7q-12 0 -22 7t-10 19v266q0 49 -37 88t-88 39q-47 0 -83 -35t-36 -92v-266q0 -10 -10 -18t-23 -8q-14 0 -23 8t-9 18z" />
<glyph unicode="o" horiz-adv-x="468" d="M44 183v109q0 76 56 131.5t133 55.5t134 -55t57 -132v-109q0 -75 -57.5 -132.5t-133.5 -57.5q-75 0 -132 57.5t-57 132.5zM109 183q0 -51 36.5 -90.5t87.5 -39.5q52 0 89 39.5t37 90.5v109q0 49 -37.5 88t-88.5 39t-87.5 -39t-36.5 -88v-109z" />
<glyph unicode="p" horiz-adv-x="484" d="M63 -207v656q0 10 9 17t23 7q13 0 22 -7t9 -17v-46q18 32 53 54t81 22q74 0 127 -55t53 -132v-109q0 -75 -53.5 -132.5t-123.5 -57.5q-44 0 -81 22.5t-54 54.5v-277q0 -9 -9.5 -17t-23.5 -8q-13 0 -22.5 8t-9.5 17zM128 152q0 -27 37.5 -63t85.5 -36q49 0 86.5 40 t37.5 90v109q0 49 -37.5 88t-88.5 39q-48 0 -84.5 -35t-36.5 -92v-140z" />
<glyph unicode="q" horiz-adv-x="484" d="M45 183v109q0 77 53 132t127 55q46 0 81 -22t53 -54v46q0 10 8.5 17t22.5 7t22.5 -7t8.5 -17v-656q0 -9 -9 -17t-22 -8q-14 0 -24 8t-10 17v277q-16 -32 -53.5 -54.5t-80.5 -22.5q-71 0 -124 57.5t-53 132.5zM110 183q0 -50 37 -90t87 -40q48 0 85 36t37 63v140 q0 57 -36.5 92t-84.5 35q-51 0 -88 -39t-37 -88v-109z" />
<glyph unicode="r" horiz-adv-x="331" d="M63 26v423q0 10 9 17t23 7q13 0 22 -7t9 -17v-49q18 33 53 56t81 23h35q10 0 18 -9t8 -21t-8 -21t-18 -9h-35q-52 0 -92 -40.5t-40 -105.5v-247q0 -10 -9.5 -18t-23.5 -8q-13 0 -22.5 8t-9.5 18z" />
<glyph unicode="s" horiz-adv-x="385" d="M33 65q0 10 7 20t16 10q7 0 22 -11.5t43 -23.5t67 -12q53 0 78 20t25 51q0 36 -25.5 57.5t-61.5 31.5t-72.5 22t-62 39.5t-25.5 73.5q0 55 39.5 95.5t118.5 40.5q49 0 91.5 -15.5t42.5 -33.5q0 -10 -8 -22t-19 -12q-3 0 -37 14t-69 14q-50 0 -75 -24t-25 -54 q0 -31 25.5 -49t62 -27.5t73 -22t62 -44t25.5 -81.5q0 -60 -42.5 -94.5t-118.5 -34.5q-66 0 -111.5 23.5t-45.5 48.5z" />
<glyph unicode="t" horiz-adv-x="297" d="M61 147v527q0 10 10 17t22 7q13 0 23 -7t10 -17v-201h129q10 0 16.5 -8t6.5 -19t-6.5 -19t-16.5 -8h-129v-272q0 -49 20.5 -68.5t72.5 -19.5h28q13 0 21.5 -8.5t8.5 -20.5t-8.5 -21t-21.5 -9h-28q-158 0 -158 147z" />
<glyph unicode="u" d="M58 181v267q0 9 9.5 17t23.5 8q12 0 22 -8t10 -17v-267q0 -50 37 -89t88 -39t88 39t37 89v268q0 10 10 17t23 7t22.5 -7t9.5 -17v-268q0 -75 -56.5 -131.5t-133.5 -56.5q-78 0 -134 56.5t-56 131.5z" />
<glyph unicode="v" horiz-adv-x="420" d="M15 445q0 12 12.5 21t26.5 9q18 0 24 -15l132 -360l132 356q8 19 23 19q12 0 26 -9t14 -20q0 -8 -4 -16l-161 -422q-6 -16 -30 -16t-30 16l-161 422q-4 6 -4 15z" />
<glyph unicode="w" horiz-adv-x="667" d="M15 446q0 12 12.5 20.5t26.5 8.5q18 0 23 -15l128 -356l103 325q5 17 26 17t26 -17l99 -329l131 360q3 15 22 15q14 0 26.5 -8t12.5 -21q0 -9 -4 -15l-156 -423q-5 -16 -26 -16q-19 0 -27 15l-104 325l-103 -320q-6 -20 -29 -20q-21 0 -27 20l-156 419q-4 8 -4 15z" />
<glyph unicode="x" horiz-adv-x="410" d="M25 25q0 6 4 14l133 200l-130 194q-5 10 -5 13q0 12 13.5 22.5t26.5 10.5q14 0 20 -10l118 -183l119 183q6 10 19 10t26.5 -10.5t13.5 -22.5q0 -5 -5 -13l-131 -194l134 -200q4 -6 4 -14q0 -11 -12.5 -21.5t-26.5 -10.5q-13 0 -19 10l-122 187l-121 -187q-7 -10 -21 -10 q-12 0 -25 10.5t-13 21.5z" />
<glyph unicode="y" horiz-adv-x="420" d="M14 448q0 12 13 21.5t27 9.5q19 0 23 -14l137 -368l129 368q6 14 22 14q13 0 26.5 -9.5t13.5 -22.5q0 -6 -2 -8l-155 -420l-18 -49q-5 -13 -19.5 -47t-24.5 -49l-26 -40q-17 -25 -32.5 -36t-37.5 -20.5t-45 -9.5q-30 0 -30 29q0 30 20 30q46 0 85.5 55.5t59.5 137.5 l-163 419q-3 5 -3 9z" />
<glyph unicode="z" horiz-adv-x="401" d="M24 26q0 11 10 25l245 365h-221q-10 0 -17 8.5t-7 19.5q0 12 7 20.5t17 8.5h283q10 0 17.5 -7t7.5 -19q0 -13 -8 -24l-246 -365h242q10 0 17 -8.5t7 -21.5q0 -11 -7 -19.5t-17 -8.5h-303q-12 0 -19.5 8t-7.5 18z" />
<glyph unicode="{" horiz-adv-x="310" d="M30 385q0 14 9.5 20.5t20.5 7t20.5 5.5t9.5 16q0 8 -9.5 80.5t-9.5 89.5q0 65 55.5 114.5t130.5 49.5q17 0 25.5 -9t8.5 -21q0 -11 -7 -20t-17 -9q-52 0 -91 -33.5t-39 -79.5q0 -16 9.5 -87t9.5 -80q0 -16 -12.5 -29t-23.5 -16q12 -2 24 -14.5t12 -29.5q0 -10 -9.5 -98 t-9.5 -106q0 -50 43 -73.5t87 -23.5q24 0 24 -29q0 -30 -35 -30q-77 0 -131 43t-54 110q0 18 9.5 106.5t9.5 96.5q0 11 -9.5 16t-20.5 5t-20.5 7t-9.5 21z" />
<glyph unicode="|" horiz-adv-x="202" d="M68 4v740q0 10 9.5 17t23.5 7q13 0 23 -7t10 -17v-740q0 -10 -10 -17.5t-23 -7.5q-14 0 -23.5 7.5t-9.5 17.5z" />
<glyph unicode="}" horiz-adv-x="310" d="M19 10q0 29 24 29q44 0 87 23.5t43 73.5q0 18 -9.5 106t-9.5 98q0 17 12 29.5t24 14.5q-11 3 -23.5 16t-12.5 29q0 9 9.5 80t9.5 87q0 46 -39 79.5t-91 33.5q-10 0 -17 9t-7 20q0 12 8.5 21t25.5 9q75 0 130.5 -49.5t55.5 -114.5q0 -17 -9.5 -89.5t-9.5 -80.5 q0 -11 9.5 -16t20.5 -5.5t20.5 -7t9.5 -20.5t-9.5 -21t-20.5 -7t-20.5 -5t-9.5 -16q0 -8 9.5 -96.5t9.5 -106.5q0 -67 -54 -110t-131 -43q-35 0 -35 30z" />
<glyph unicode="~" horiz-adv-x="401" d="M46 243q0 25 29.5 41t58.5 16q26 0 66 -17t66 -17t45 14.5t25 14.5q9 0 14.5 -7.5t5.5 -15.5q0 -28 -28 -42.5t-56 -14.5q-27 0 -66.5 17.5t-66.5 17.5q-25 0 -47 -16t-27 -16q-19 0 -19 25z" />
<glyph unicode="&#xa1;" horiz-adv-x="204" d="M56 698q0 18 13.5 32t32.5 14q18 0 31.5 -14t13.5 -32q0 -20 -13 -33.5t-32 -13.5t-32.5 13.5t-13.5 33.5zM64 33q0 82 6 258.5t6 258.5q0 11 8 17t17 6q27 0 27 -23q0 -82 6 -258.5t6 -258.5q0 -18 -11 -28.5t-28 -10.5q-16 0 -26.5 10.5t-10.5 28.5z" />
<glyph unicode="&#xa2;" horiz-adv-x="413" d="M35 358v19q0 75 39 125.5t116 61.5v108q0 9 7 15.5t17 6.5t17.5 -6.5t7.5 -15.5v-107q55 -1 94.5 -20t39.5 -43q0 -12 -8.5 -21.5t-20.5 -9.5q-6 0 -17.5 8.5t-34 17.5t-53.5 10v-279q31 1 53 10t33.5 18t18.5 9q12 0 21.5 -9.5t9.5 -21.5q0 -24 -41.5 -43.5t-94.5 -21.5 v-106q0 -9 -7.5 -16t-17.5 -7t-17 7t-7 16v108q-76 10 -115.5 60.5t-39.5 126.5zM95 358q0 -109 95 -128v275q-95 -20 -95 -128v-19z" />
<glyph unicode="&#xa3;" horiz-adv-x="487" d="M24 31q0 12 6.5 21t18.5 9h59l43 306h-76q-10 0 -16.5 7.5t-6.5 18.5q0 12 6.5 20t16.5 8h84l22 158q11 79 75.5 134t144.5 55h19q13 0 20.5 -9t7.5 -21q0 -11 -7.5 -20.5t-20.5 -9.5h-24q-58 0 -100.5 -38t-49.5 -91l-22 -158h149q21 0 21 -28q0 -26 -21 -26h-157 l-44 -306h253q11 0 17 -9t6 -21q0 -13 -6 -22t-17 -9h-376q-25 0 -25 31z" />
<glyph unicode="&#xa4;" horiz-adv-x="478" d="M62 321q0 7 5 12l32 32q-36 47 -36 107t36 107l-26 26q-6 5 -6 13t7 14.5t15 6.5q7 0 12 -5l25 -25q49 43 114 43q60 0 110 -40l27 27q5 5 13 5t14.5 -6.5t6.5 -14.5q0 -7 -6 -13l-27 -27q40 -48 40 -111q0 -60 -41 -111l28 -28q6 -6 6 -12q0 -8 -6.5 -14.5t-14.5 -6.5 t-12 5l-28 27q-50 -42 -110 -42q-63 0 -114 45l-31 -30q-5 -5 -12 -5q-8 0 -14.5 6.5t-6.5 14.5zM112 472q0 -52 38 -92.5t90 -40.5t91 40.5t39 92.5q0 51 -38.5 91t-91.5 40t-90.5 -40t-37.5 -91z" />
<glyph unicode="&#xa5;" horiz-adv-x="505" d="M24 704q0 11 12 20t25 9q15 0 24 -17l165 -322l172 322q9 17 23 17q13 0 24.5 -9t11.5 -20q0 -4 -2 -10l-182 -331h104q10 0 17.5 -8t7.5 -19t-7.5 -18.5t-17.5 -7.5h-119v-73h119q10 0 17.5 -8t7.5 -19q0 -12 -7.5 -19t-17.5 -7h-119v-159q0 -11 -9.5 -18t-22.5 -7 q-14 0 -23.5 7t-9.5 18v159h-114q-11 0 -17.5 7t-6.5 18q0 12 7 20t17 8h114v73h-114q-10 0 -17 7.5t-7 18.5t7 19t17 8h98l-174 331q-3 4 -3 10z" />
<glyph unicode="&#xa6;" horiz-adv-x="203" d="M69 4v272q0 10 9.5 17t22.5 7t23 -7t10 -17v-272q0 -10 -10 -17.5t-23 -7.5t-22.5 7.5t-9.5 17.5zM69 472v272q0 10 9.5 17t22.5 7t23 -7t10 -17v-272q0 -10 -10 -17.5t-23 -7.5t-22.5 7.5t-9.5 17.5z" />
<glyph unicode="&#xa7;" horiz-adv-x="467" d="M49 99q0 30 30 30t30 -24q0 -41 26.5 -77t90.5 -36q59 0 91 31.5t32 88.5q0 39 -21.5 64.5t-53.5 37.5l-68 26q-38 15 -69.5 31.5t-53 53.5t-21.5 91v124q0 55 16 94.5t43.5 59.5t55.5 28.5t59 8.5q77 0 119 -45t42 -116q0 -31 -29 -31q-30 0 -30 31q0 38 -22.5 70.5 t-77.5 32.5q-47 0 -80 -30.5t-33 -94.5q0 -33 16 -56t41.5 -36t56.5 -23.5t62 -24t56.5 -31.5t41.5 -51.5t16 -80.5v-122q0 -97 -52 -143.5t-131 -46.5q-83 0 -133 48.5t-50 117.5zM121 409q0 -49 28 -79t64 -40.5t79.5 -28.5t64.5 -41v29q0 48 -28 78t-63.5 40.5t-79 28.5 t-65.5 41v-28z" />
<glyph unicode="&#xa8;" horiz-adv-x="196" d="M0 630q0 16 10.5 26t26.5 10q15 0 25.5 -10t10.5 -26q0 -15 -10.5 -26t-25.5 -11q-16 0 -26.5 11t-10.5 26zM123 630q0 16 10.5 26t26.5 10t26 -10t10 -26q0 -15 -10.5 -26t-25.5 -11q-16 0 -26.5 11t-10.5 26z" />
<glyph unicode="&#xa9;" horiz-adv-x="718" d="M52 358q0 80 28.5 144.5t74.5 103t99.5 59t107.5 20.5t107 -20.5t97.5 -59t72 -102t27.5 -141.5q0 -80 -28.5 -144.5t-74.5 -103t-99.5 -59t-107.5 -20.5t-107 20.5t-97.5 59t-72 102t-27.5 141.5zM96 358q0 -123 71.5 -201t188.5 -78t191.5 79t74.5 204q0 123 -71.5 201 t-188.5 78t-191.5 -79t-74.5 -204zM255 288v158q0 61 29 90t76 29q48 0 77 -27t29 -68q0 -16 -5 -21.5t-18 -5.5q-24 0 -24 17q-3 62 -57 62q-59 0 -59 -76v-158q0 -76 59 -76q18 0 29.5 5.5t17 17.5t7 19.5t3.5 21.5q1 17 23 17q13 0 18.5 -5.5t5.5 -20.5 q0 -43 -29.5 -70.5t-77.5 -27.5q-46 0 -75 29t-29 90z" />
<glyph unicode="&#xaa;" horiz-adv-x="314" d="M34 515q0 49 38 69t110 20h31v13q0 32 -17.5 55.5t-52.5 23.5q-26 0 -47 -9.5t-22 -9.5q-9 0 -14.5 8.5t-5.5 18.5q0 14 29 25t61 11q62 0 91.5 -35t29.5 -88v-162q0 -19 -26 -19q-10 0 -17 5.5t-7 13.5v25q-41 -48 -97 -48q-37 0 -60.5 21t-23.5 62zM86 520 q0 -47 49 -47q28 0 53 21t25 44v33h-28q-46 0 -72.5 -10.5t-26.5 -40.5z" />
<glyph unicode="&#xab;" horiz-adv-x="407" d="M35 277q0 10 10 28l89 164q6 12 23 12q14 0 25.5 -10.5t11.5 -21.5q0 -5 -3 -11l-87 -161l87 -160q3 -6 3 -11q0 -12 -11.5 -22t-26.5 -10t-22 12l-89 164q-10 17 -10 27zM207 277q0 9 10 28l89 164q6 12 23 12q14 0 25.5 -10.5t11.5 -21.5q0 -5 -3 -11l-87 -161l87 -160 q3 -6 3 -11q0 -12 -11.5 -22t-26.5 -10t-22 12l-89 164q-10 17 -10 27z" />
<glyph unicode="&#xac;" horiz-adv-x="485" d="M51 240q0 13 7 21.5t18 8.5h318q9 0 17 -9t8 -21v-152q0 -11 -9.5 -18t-22.5 -7q-14 0 -23.5 7t-9.5 18v124h-278q-25 0 -25 28z" />
<glyph unicode="&#xad;" horiz-adv-x="473" d="M52 240q0 13 7 21.5t18 8.5h320q10 0 17.5 -8.5t7.5 -21.5q0 -12 -7.5 -20t-17.5 -8h-320q-25 0 -25 28z" />
<glyph unicode="&#xae;" horiz-adv-x="718" d="M52 358q0 80 28.5 144.5t74.5 103t99.5 59t107.5 20.5t107 -20.5t97.5 -59t72 -102t27.5 -141.5q0 -80 -28.5 -144.5t-74.5 -103t-99.5 -59t-107.5 -20.5t-107 20.5t-97.5 59t-72 102t-27.5 141.5zM96 358q0 -123 71.5 -201t188.5 -78t191.5 79t74.5 204q0 123 -71.5 201 t-188.5 78t-191.5 -79t-74.5 -204zM264 189v354q0 15 16 17h89q47 0 76.5 -25t29.5 -82q0 -87 -68 -104l66 -146q2 -6 2 -7q0 -10 -8.5 -17.5t-17.5 -7.5t-19 19l-70 153h-50v-154q0 -17 -22 -17q-24 0 -24 17zM310 382h59q60 0 60 67q0 69 -60 69h-59v-136z" />
<glyph unicode="&#xaf;" horiz-adv-x="265" d="M0 660q0 11 7 18.5t18 7.5h215q9 0 17 -7.5t8 -18.5q0 -10 -8 -17.5t-17 -7.5h-215q-11 0 -18 7t-7 18z" />
<glyph unicode="&#xb0;" horiz-adv-x="419" d="M32 588q0 72 52.5 126t124.5 54t125 -53t53 -127q0 -72 -53.5 -127t-124.5 -55t-124 55t-53 127zM81 588q0 -52 38 -92.5t90 -40.5t91 40.5t39 92.5q0 51 -38.5 91t-91.5 40t-90.5 -40t-37.5 -91z" />
<glyph unicode="&#xb1;" horiz-adv-x="471" d="M51 85q0 13 7 21.5t17 8.5h320q10 0 18 -9t8 -21t-8 -20t-18 -8h-320q-24 0 -24 28zM51 353q0 12 7 20.5t17 8.5h132v128q0 10 8.5 18t20.5 8t20.5 -8t8.5 -18v-128h130q10 0 18 -8.5t8 -20.5t-8 -20.5t-18 -8.5h-130v-129q0 -11 -8 -17.5t-21 -6.5q-12 0 -20.5 7 t-8.5 17v129h-132q-11 0 -17.5 8t-6.5 21z" />
<glyph unicode="&#xb2;" horiz-adv-x="307" d="M33 372v49q0 28 29.5 56t65 48t65 47.5t29.5 54.5q0 23 -17.5 40.5t-51.5 17.5q-28 0 -45 -13.5t-17 -40.5q0 -7 -7.5 -12.5t-18.5 -5.5q-24 0 -24 27q0 40 32.5 65.5t80.5 25.5q50 0 84 -29t34 -73q0 -30 -19.5 -57t-47 -46t-54.5 -35.5t-46.5 -33.5t-19.5 -34v-24h173 q7 0 12.5 -6.5t5.5 -15.5t-5.5 -16t-12.5 -7h-202q-8 0 -15.5 5t-7.5 13z" />
<glyph unicode="&#xb3;" horiz-adv-x="313" d="M29 441q0 12 5.5 16.5t18.5 4.5q26 0 26 -18q0 -19 18 -33.5t55 -14.5q75 0 75 67v9q0 59 -75 59q-18 0 -18 20q0 21 18 21q32 0 48 12.5t16 45.5q0 57 -62 57q-65 0 -65 -45q0 -21 -24 -21q-16 0 -21 4.5t-5 19.5q0 32 27 59t89 27q110 0 110 -91q0 -67 -46 -87 q58 -20 58 -81v-9q0 -57 -34.5 -84.5t-90.5 -27.5q-59 0 -91 27.5t-32 62.5z" />
<glyph unicode="&#xb4;" horiz-adv-x="155" d="M0 619q0 13 11 18l112 61q3 3 8 3q11 0 17.5 -8.5t6.5 -19.5q0 -16 -12 -22l-107 -57q-4 -3 -10 -3q-10 0 -18 8.5t-8 19.5z" />
<glyph unicode="&#xb5;" horiz-adv-x="491" d="M71 -207v655q0 9 9.5 17t22.5 8t23 -8t10 -17v-285q0 -35 40 -72.5t86 -37.5q47 0 83 39.5t36 88.5v267q0 11 10 18t23 7q14 0 23 -7t9 -18v-267q0 -78 -53.5 -133t-131.5 -55q-42 0 -76.5 18.5t-53.5 45.5v-264q0 -10 -8.5 -17.5t-19.5 -7.5q-14 0 -23 7t-9 18z" />
<glyph unicode="&#xb6;" horiz-adv-x="524" d="M32 513v12q0 107 53.5 156.5t142.5 49.5h195q25 0 25 -25v-681q0 -25 -25 -25q-26 0 -26 25v663h-77v-662q0 -12 -8 -19t-18 -7t-17.5 7t-7.5 19v280h-41q-89 0 -142.5 50t-53.5 157z" />
<glyph unicode="&#xb7;" horiz-adv-x="184" d="M45 300q0 19 13.5 32t33.5 13t33.5 -13t13.5 -32q0 -18 -14 -31.5t-33 -13.5q-20 0 -33.5 13.5t-13.5 31.5z" />
<glyph unicode="&#xb8;" horiz-adv-x="167" d="M0 -184q0 6 4.5 15t11.5 9q1 0 18.5 -7t37.5 -7q53 0 53 39q0 37 -63 42l-38 3l26 99h40l-19 -70q48 -1 72 -21.5t24 -50.5t-23 -53.5t-66 -23.5q-25 0 -51.5 7t-26.5 19z" />
<glyph unicode="&#xb9;" horiz-adv-x="169" d="M18 652q0 13 10 19l55 55q6 6 14 6q9 0 15.5 -5t6.5 -13v-342q0 -18 -24 -18q-26 0 -26 18v290l-21 -25q-5 -5 -12 -5t-12.5 6t-5.5 14z" />
<glyph unicode="&#xba;" horiz-adv-x="328" d="M39 554v65q0 48 37 84.5t88 36.5q50 0 87.5 -36t37.5 -85v-65q0 -49 -37.5 -86t-87.5 -37t-87.5 37t-37.5 86zM91 554q0 -30 21.5 -53t51.5 -23t51.5 23t21.5 53v65q0 29 -21.5 51.5t-51.5 22.5t-51.5 -22.5t-21.5 -51.5v-65z" />
<glyph unicode="&#xbb;" horiz-adv-x="408" d="M41 106q0 5 3 11l87 160l-87 161q-3 6 -3 11q0 11 11.5 21.5t25.5 10.5q17 0 23 -12l89 -164q11 -22 11 -28q0 -7 -11 -27l-89 -164q-5 -12 -22 -12q-14 0 -26 10.5t-12 21.5zM213 106q0 5 3 11l87 160l-87 161q-3 6 -3 11q0 11 11.5 21.5t25.5 10.5q17 0 23 -12l89 -164 q11 -22 11 -28q0 -7 -11 -27l-89 -164q-5 -12 -22 -12q-14 0 -26 10.5t-12 21.5z" />
<glyph unicode="&#xbc;" horiz-adv-x="604" d="M30 652q0 13 10 19l55 55q6 6 14 6q9 0 15.5 -5t6.5 -13v-342q0 -18 -24 -18q-26 0 -26 18v290l-21 -25q-5 -5 -12 -5t-12.5 6t-5.5 14zM70 -2q0 6 3 12l381 747q5 12 20 12q10 0 19 -8t9 -19q0 -7 -3 -13l-379 -741q-8 -15 -24 -15q-10 0 -18 7.5t-8 17.5zM321 105 q0 4 3 10l140 247q9 15 23 15q8 0 16.5 -6t8.5 -14q0 -4 -2 -8l-124 -216h96v77q0 16 25 16t25 -16v-77h30q8 0 13 -7.5t5 -16.5t-5.5 -16t-12.5 -7h-30v-69q0 -17 -25 -17t-25 17v69h-143q-18 0 -18 19z" />
<glyph unicode="&#xbd;" horiz-adv-x="619" d="M31 652q0 13 10 19l55 55q6 6 14 6q9 0 15.5 -5t6.5 -13v-342q0 -18 -24 -18q-26 0 -26 18v290l-21 -25q-5 -5 -12 -5t-12.5 6t-5.5 14zM55 -2q0 6 3 12l381 747q5 12 20 12q10 0 19 -8t9 -19q0 -7 -3 -13l-379 -741q-7 -15 -24 -15q-10 0 -18 7.5t-8 17.5zM344 17v50 q0 28 29.5 56t65 48t65 47.5t29.5 54.5q0 23 -18 40t-51 17q-62 0 -62 -53q0 -7 -7.5 -13t-18.5 -6q-24 0 -24 28q0 40 32.5 65.5t80.5 25.5q50 0 84 -29t34 -73q0 -31 -19.5 -57.5t-46.5 -45.5t-54.5 -35.5t-47 -34t-19.5 -33.5v-24h173q7 0 12.5 -6.5t5.5 -15.5t-5.5 -16 t-12.5 -7h-202q-8 0 -15.5 5t-7.5 12z" />
<glyph unicode="&#xbe;" horiz-adv-x="734" d="M32 441q0 12 5.5 16.5t18.5 4.5q26 0 26 -18q0 -19 18 -33.5t55 -14.5q75 0 75 67v9q0 59 -75 59q-18 0 -18 20q0 21 18 21q32 0 48 12.5t16 45.5q0 57 -62 57q-65 0 -65 -45q0 -21 -24 -21q-16 0 -21 4.5t-5 19.5q0 32 27 59t89 27q110 0 110 -91q0 -67 -46 -87 q58 -20 58 -81v-9q0 -57 -34.5 -84.5t-90.5 -27.5q-59 0 -91 27.5t-32 62.5zM195 -2q0 6 3 12l381 747q5 12 20 12q10 0 19 -8t9 -19q0 -7 -3 -13l-379 -741q-7 -15 -24 -15q-10 0 -18 7.5t-8 17.5zM452 105q0 4 3 10l140 247q9 15 23 15q8 0 16.5 -6t8.5 -14q0 -4 -2 -8 l-124 -216h96v77q0 16 25 16t25 -16v-77h30q8 0 13 -7.5t5 -16.5t-5.5 -16t-12.5 -7h-30v-69q0 -17 -25 -17t-25 17v69h-143q-18 0 -18 19z" />
<glyph unicode="&#xbf;" horiz-adv-x="397" d="M32 172q0 43 16.5 82.5t35 60.5t46.5 47.5t35 35.5q23 25 29 56t6 96q0 23 27 23t27 -29q0 -77 -11 -113.5t-32 -60.5q-9 -9 -36 -34t-42 -42t-29.5 -49t-14.5 -68q0 -60 35 -94t100 -34q39 0 64.5 12.5t38.5 24.5t22 12t17 -7.5t8 -19.5q0 -26 -45.5 -51.5t-107.5 -25.5 q-90 0 -139.5 50t-49.5 128zM181 698q0 18 13.5 32t32.5 14t32.5 -14t13.5 -32q0 -19 -13.5 -33t-32.5 -14t-32.5 14t-13.5 33z" />
<glyph unicode="&#xc0;" horiz-adv-x="540" d="M21 28q0 5 1 7l209 679q7 23 39 23t40 -23l208 -679q0 -1 0.5 -3t0.5 -3q0 -12 -13 -20.5t-27 -8.5q-19 0 -25 17l-46 154h-277l-46 -154q-4 -17 -26 -17q-14 0 -26 8t-12 20zM148 228h243l-121 403zM188 927q0 10 7 19t17 9q4 0 9 -3l111 -61q11 -5 11 -18 q0 -11 -8 -19.5t-18 -8.5q-5 0 -10 3l-106 57q-13 6 -13 22z" />
<glyph unicode="&#xc1;" horiz-adv-x="540" d="M21 28q0 5 1 7l209 679q7 23 39 23t40 -23l208 -679q0 -1 0.5 -3t0.5 -3q0 -12 -13 -20.5t-27 -8.5q-19 0 -25 17l-46 154h-277l-46 -154q-4 -17 -26 -17q-14 0 -26 8t-12 20zM148 228h243l-121 403zM202 873q0 13 11 18l112 61q3 3 8 3q11 0 17.5 -8.5t6.5 -19.5 q0 -16 -12 -22l-107 -57q-4 -3 -10 -3q-10 0 -18 8.5t-8 19.5z" />
<glyph unicode="&#xc2;" horiz-adv-x="540" d="M21 28q0 5 1 7l209 679q7 23 39 23t40 -23l208 -679q0 -1 0.5 -3t0.5 -3q0 -12 -13 -20.5t-27 -8.5q-19 0 -25 17l-46 154h-277l-46 -154q-4 -17 -26 -17q-14 0 -26 8t-12 20zM135 872q0 15 13 22l104 56q8 5 17 5t17 -5l104 -56q13 -6 13 -23q0 -10 -6 -17t-14 -7 q-1 0 -10 3l-104 55l-104 -56l-9 -3q-8 0 -14.5 8t-6.5 18zM148 228h243l-121 403z" />
<glyph unicode="&#xc3;" horiz-adv-x="540" d="M21 28q0 5 1 7l209 679q7 23 39 23t40 -23l208 -679q0 -1 0.5 -3t0.5 -3q0 -12 -13 -20.5t-27 -8.5q-19 0 -25 17l-46 154h-277l-46 -154q-4 -17 -26 -17q-14 0 -26 8t-12 20zM115 891q0 25 29.5 41t58.5 16q26 0 66 -17t66 -17t45 14.5t25 14.5q9 0 14.5 -7.5t5.5 -15.5 q0 -28 -28 -42.5t-56 -14.5q-27 0 -66.5 17.5t-66.5 17.5q-25 0 -47 -16t-27 -16q-19 0 -19 25zM148 228h243l-121 403z" />
<glyph unicode="&#xc4;" horiz-adv-x="540" d="M21 28q0 5 1 7l209 679q7 23 39 23t40 -23l208 -679q0 -1 0.5 -3t0.5 -3q0 -12 -13 -20.5t-27 -8.5q-19 0 -25 17l-46 154h-277l-46 -154q-4 -17 -26 -17q-14 0 -26 8t-12 20zM148 228h243l-121 403zM172 884q0 16 10.5 26t26.5 10q15 0 25.5 -10t10.5 -26 q0 -15 -10.5 -26t-25.5 -11q-16 0 -26.5 11t-10.5 26zM295 884q0 16 10.5 26t26.5 10t26 -10t10 -26q0 -15 -10.5 -26t-25.5 -11q-16 0 -26.5 11t-10.5 26z" />
<glyph unicode="&#xc5;" horiz-adv-x="540" d="M21 28q0 5 1 7l209 679q7 23 39 23t40 -23l208 -679q0 -1 0.5 -3t0.5 -3q0 -12 -13 -20.5t-27 -8.5q-19 0 -25 17l-46 154h-277l-46 -154q-4 -17 -26 -17q-14 0 -26 8t-12 20zM148 228h243l-121 403zM177 929q0 37 27 65t65 28q37 0 65 -28t28 -65q0 -38 -28 -67t-65 -29 t-64.5 29t-27.5 67zM210 929q0 -24 18 -43.5t42 -19.5q23 0 40.5 19.5t17.5 43.5q0 22 -17.5 40t-40.5 18q-25 0 -42.5 -18t-17.5 -40z" />
<glyph unicode="&#xc6;" horiz-adv-x="715" d="M73 31v487q0 110 56.5 161.5t149.5 51.5h388q24 0 24 -29q0 -13 -6.5 -22.5t-17.5 -9.5h-235v-275h147q12 0 18.5 -8.5t6.5 -21.5q0 -27 -25 -27h-147v-277h235q11 0 17.5 -9t6.5 -22q0 -30 -24 -30h-270q-12 0 -21.5 7t-9.5 19v312h-229v-307q0 -16 -6.5 -23.5 t-26.5 -7.5q-31 0 -31 31zM137 395h229v275h-87q-142 0 -142 -152v-123z" />
<glyph unicode="&#xc7;" horiz-adv-x="523" d="M68 208v310q0 109 58.5 161t151.5 52q95 0 150.5 -48.5t55.5 -118.5q0 -24 -7.5 -32t-25.5 -8q-31 0 -33 25q-1 15 -4 29t-12 31.5t-23.5 30.5t-40.5 21.5t-60 8.5q-144 0 -144 -152v-310q0 -153 148 -153q42 0 70 11.5t41 33.5t17.5 37.5t7.5 40.5q3 26 33 26 q18 0 25.5 -8.5t7.5 -32.5q0 -64 -46.5 -110.5t-126.5 -55.5l-15 -58q48 -1 72 -21.5t24 -50.5t-23 -53.5t-66 -23.5q-25 0 -51.5 7t-26.5 19q0 6 4.5 15t11.5 9q1 0 18.5 -7t37.5 -7q53 0 53 39q0 37 -63 42l-38 3l22 84q-91 2 -147 53.5t-56 160.5z" />
<glyph unicode="&#xc8;" horiz-adv-x="508" d="M76 26v680q0 12 9 18.5t21 6.5h356q25 0 25 -29q0 -13 -6.5 -22.5t-18.5 -9.5h-320v-275h157q12 0 18.5 -8.5t6.5 -21.5q0 -27 -25 -27h-157v-277h320q11 0 18 -9t7 -22q0 -30 -25 -30h-356q-12 0 -21 7t-9 19zM202 927q0 10 7 19t17 9q4 0 9 -3l111 -61q11 -5 11 -18 q0 -11 -8 -19.5t-18 -8.5q-5 0 -10 3l-106 57q-13 6 -13 22z" />
<glyph unicode="&#xc9;" horiz-adv-x="508" d="M76 26v680q0 12 9 18.5t21 6.5h356q25 0 25 -29q0 -13 -6.5 -22.5t-18.5 -9.5h-320v-275h157q12 0 18.5 -8.5t6.5 -21.5q0 -27 -25 -27h-157v-277h320q11 0 18 -9t7 -22q0 -30 -25 -30h-356q-12 0 -21 7t-9 19zM210 873q0 13 11 18l112 61q3 3 8 3q11 0 17.5 -8.5 t6.5 -19.5q0 -16 -12 -22l-107 -57q-4 -3 -10 -3q-10 0 -18 8.5t-8 19.5z" />
<glyph unicode="&#xca;" horiz-adv-x="508" d="M76 26v680q0 12 9 18.5t21 6.5h356q25 0 25 -29q0 -13 -6.5 -22.5t-18.5 -9.5h-320v-275h157q12 0 18.5 -8.5t6.5 -21.5q0 -27 -25 -27h-157v-277h320q11 0 18 -9t7 -22q0 -30 -25 -30h-356q-12 0 -21 7t-9 19zM149 872q0 15 13 22l104 56q8 5 17 5t17 -5l104 -56 q13 -6 13 -23q0 -10 -6 -17t-14 -7q-1 0 -10 3l-104 55l-104 -56l-9 -3q-8 0 -14.5 8t-6.5 18z" />
<glyph unicode="&#xcb;" horiz-adv-x="508" d="M76 26v680q0 12 9 18.5t21 6.5h356q25 0 25 -29q0 -13 -6.5 -22.5t-18.5 -9.5h-320v-275h157q12 0 18.5 -8.5t6.5 -21.5q0 -27 -25 -27h-157v-277h320q11 0 18 -9t7 -22q0 -30 -25 -30h-356q-12 0 -21 7t-9 19zM184 884q0 16 10.5 26t26.5 10q15 0 25.5 -10t10.5 -26 q0 -15 -10.5 -26t-25.5 -11q-16 0 -26.5 11t-10.5 26zM307 884q0 16 10.5 26t26.5 10t26 -10t10 -26q0 -15 -10.5 -26t-25.5 -11q-16 0 -26.5 11t-10.5 26z" />
<glyph unicode="&#xcc;" horiz-adv-x="218" d="M29 927q0 10 7 19t17 9q5 0 9 -3l111 -61q11 -5 11 -18q0 -11 -8 -19.5t-18 -8.5q-6 0 -10 3l-106 57q-13 6 -13 22zM76 26v681q0 24 33 24t33 -24v-681q0 -12 -10 -19t-23 -7q-14 0 -23.5 7t-9.5 19z" />
<glyph unicode="&#xcd;" horiz-adv-x="218" d="M33 873q0 13 11 18l112 61q3 3 8 3q11 0 17.5 -8.5t6.5 -19.5q0 -16 -12 -22l-107 -57q-5 -3 -10 -3q-10 0 -18 8.5t-8 19.5zM76 26v681q0 24 33 24t33 -24v-681q0 -12 -10 -19t-23 -7q-14 0 -23.5 7t-9.5 19z" />
<glyph unicode="&#xce;" horiz-adv-x="218" d="M-25 872q0 15 13 22l104 56q8 5 17 5t17 -5l104 -56q13 -6 13 -23q0 -10 -6 -17t-14 -7q-1 0 -10 3l-104 55l-104 -56l-9 -3q-8 0 -14.5 8t-6.5 18zM76 26v681q0 24 33 24t33 -24v-681q0 -12 -10 -19t-23 -7q-14 0 -23.5 7t-9.5 19z" />
<glyph unicode="&#xcf;" horiz-adv-x="218" d="M11 884q0 16 10.5 26t26.5 10q15 0 25.5 -10t10.5 -26q0 -15 -10.5 -26t-25.5 -11q-16 0 -26.5 11t-10.5 26zM76 26v681q0 24 33 24t33 -24v-681q0 -12 -10 -19t-23 -7q-14 0 -23.5 7t-9.5 19zM134 884q0 16 10.5 26t26.5 10t26 -10t10 -26q0 -15 -10.5 -26t-25.5 -11 q-16 0 -26.5 11t-10.5 26z" />
<glyph unicode="&#xd0;" horiz-adv-x="569" d="M-1 384q0 11 6.5 19t16.5 8h63v296q0 10 8.5 17t21.5 7h177q95 0 152 -51.5t57 -161.5v-304q0 -111 -57 -162.5t-152 -51.5h-177q-13 0 -21.5 7.5t-8.5 17.5v332h-63q-10 0 -16.5 7.5t-6.5 19.5zM151 61h141q68 0 105.5 38.5t37.5 114.5v304q0 76 -37.5 114t-105.5 38 h-141v-259h113q10 0 16.5 -8t6.5 -19t-6.5 -19t-16.5 -8h-113v-296z" />
<glyph unicode="&#xd1;" horiz-adv-x="573" d="M76 26v680q0 25 33 25q28 0 52 -46l270 -532v554q0 24 33 24t33 -24v-681q0 -12 -10 -19t-23 -7q-25 0 -44 38l-278 541v-553q0 -12 -10 -19t-23 -7q-14 0 -23.5 7t-9.5 19zM129 891q0 25 29.5 41t58.5 16q26 0 66 -17t66 -17t45 14.5t25 14.5q9 0 14.5 -7.5t5.5 -15.5 q0 -28 -28 -42.5t-56 -14.5q-27 0 -66.5 17.5t-66.5 17.5q-25 0 -47 -16t-27 -16q-19 0 -19 25z" />
<glyph unicode="&#xd2;" horiz-adv-x="552" d="M68 208v310q0 110 56.5 161.5t151.5 51.5t151.5 -51.5t56.5 -161.5v-310q0 -111 -56.5 -162.5t-151.5 -51.5t-151.5 51.5t-56.5 162.5zM134 208q0 -153 142 -153t142 153v310q0 152 -142 152t-142 -152v-310zM195 927q0 10 7 19t17 9q5 0 9 -3l111 -61q11 -5 11 -18 q0 -11 -8 -19.5t-18 -8.5q-6 0 -10 3l-106 57q-13 6 -13 22z" />
<glyph unicode="&#xd3;" horiz-adv-x="552" d="M68 208v310q0 110 56.5 161.5t151.5 51.5t151.5 -51.5t56.5 -161.5v-310q0 -111 -56.5 -162.5t-151.5 -51.5t-151.5 51.5t-56.5 162.5zM134 208q0 -153 142 -153t142 153v310q0 152 -142 152t-142 -152v-310zM210 873q0 13 11 18l112 61q3 3 8 3q11 0 17.5 -8.5 t6.5 -19.5q0 -16 -12 -22l-107 -57q-4 -3 -10 -3q-10 0 -18 8.5t-8 19.5z" />
<glyph unicode="&#xd4;" horiz-adv-x="552" d="M68 208v310q0 110 56.5 161.5t151.5 51.5t151.5 -51.5t56.5 -161.5v-310q0 -111 -56.5 -162.5t-151.5 -51.5t-151.5 51.5t-56.5 162.5zM134 208q0 -153 142 -153t142 153v310q0 152 -142 152t-142 -152v-310zM142 872q0 15 13 22l104 56q8 5 17 5t17 -5l104 -56 q13 -6 13 -23q0 -10 -6 -17t-14 -7q-1 0 -10 3l-104 55l-104 -56l-9 -3q-8 0 -14.5 8t-6.5 18z" />
<glyph unicode="&#xd5;" horiz-adv-x="552" d="M68 208v310q0 110 56.5 161.5t151.5 51.5t151.5 -51.5t56.5 -161.5v-310q0 -111 -56.5 -162.5t-151.5 -51.5t-151.5 51.5t-56.5 162.5zM121 891q0 25 29.5 41t58.5 16q26 0 66 -17t66 -17t45 14.5t25 14.5q9 0 14.5 -7.5t5.5 -15.5q0 -28 -28 -42.5t-56 -14.5 q-27 0 -66.5 17.5t-66.5 17.5q-25 0 -47 -16t-27 -16q-19 0 -19 25zM134 208q0 -153 142 -153t142 153v310q0 152 -142 152t-142 -152v-310z" />
<glyph unicode="&#xd6;" horiz-adv-x="552" d="M68 208v310q0 110 56.5 161.5t151.5 51.5t151.5 -51.5t56.5 -161.5v-310q0 -111 -56.5 -162.5t-151.5 -51.5t-151.5 51.5t-56.5 162.5zM134 208q0 -153 142 -153t142 153v310q0 152 -142 152t-142 -152v-310zM178 884q0 16 10.5 26t26.5 10q15 0 25.5 -10t10.5 -26 q0 -15 -10.5 -26t-25.5 -11q-16 0 -26.5 11t-10.5 26zM301 884q0 16 10.5 26t26.5 10t26 -10t10 -26q0 -15 -10.5 -26t-25.5 -11q-16 0 -26.5 11t-10.5 26z" />
<glyph unicode="&#xd7;" horiz-adv-x="398" d="M58 166q0 9 7 16l96 93l-96 93q-6 6 -6 17t9.5 20.5t20.5 9.5t18 -6l91 -93l93 93q6 6 17 6q12 0 21.5 -9.5t9.5 -20.5q0 -10 -7 -17l-95 -93l96 -93q6 -6 6 -16q0 -12 -9.5 -21.5t-21.5 -9.5q-9 0 -16 7l-94 93l-92 -93q-7 -7 -17 -7q-11 0 -21 10t-10 21z" />
<glyph unicode="&#xd8;" horiz-adv-x="552" d="M60 -2q0 6 3 12l35 69q-30 48 -30 129v310q0 110 56.5 161.5t151.5 51.5q83 0 135 -39l33 65q5 12 20 12q10 0 19.5 -8t9.5 -19q0 -8 -4 -13l-39 -77q34 -53 34 -134v-310q0 -111 -56.5 -162.5t-151.5 -51.5q-88 0 -141 43l-25 -49q-6 -15 -24 -15q-10 0 -18 7.5t-8 17.5 zM134 208q0 -30 4 -50l242 475q-36 37 -104 37q-142 0 -142 -152v-310zM166 98q36 -43 110 -43q142 0 142 153v310q0 28 -7 58z" />
<glyph unicode="&#xd9;" horiz-adv-x="566" d="M73 208v499q0 24 33 24t33 -24v-499q0 -76 37.5 -114.5t106.5 -38.5t106.5 38.5t37.5 114.5v499q0 24 33 24t33 -24v-499q0 -111 -57.5 -162.5t-152.5 -51.5t-152.5 51.5t-57.5 162.5zM200 927q0 10 7 19t17 9q4 0 9 -3l111 -61q11 -5 11 -18q0 -11 -8 -19.5t-18 -8.5 q-5 0 -10 3l-106 57q-13 6 -13 22z" />
<glyph unicode="&#xda;" horiz-adv-x="566" d="M73 208v499q0 24 33 24t33 -24v-499q0 -76 37.5 -114.5t106.5 -38.5t106.5 38.5t37.5 114.5v499q0 24 33 24t33 -24v-499q0 -111 -57.5 -162.5t-152.5 -51.5t-152.5 51.5t-57.5 162.5zM212 873q0 13 11 18l112 61q3 3 8 3q11 0 17.5 -8.5t6.5 -19.5q0 -16 -12 -22 l-107 -57q-4 -3 -10 -3q-10 0 -18 8.5t-8 19.5z" />
<glyph unicode="&#xdb;" horiz-adv-x="566" d="M73 208v499q0 24 33 24t33 -24v-499q0 -76 37.5 -114.5t106.5 -38.5t106.5 38.5t37.5 114.5v499q0 24 33 24t33 -24v-499q0 -111 -57.5 -162.5t-152.5 -51.5t-152.5 51.5t-57.5 162.5zM147 872q0 15 13 22l104 56q8 5 17 5t17 -5l104 -56q13 -6 13 -23q0 -10 -6 -17 t-14 -7q-1 0 -10 3l-104 55l-104 -56l-9 -3q-8 0 -14.5 8t-6.5 18z" />
<glyph unicode="&#xdc;" horiz-adv-x="566" d="M73 208v499q0 24 33 24t33 -24v-499q0 -76 37.5 -114.5t106.5 -38.5t106.5 38.5t37.5 114.5v499q0 24 33 24t33 -24v-499q0 -111 -57.5 -162.5t-152.5 -51.5t-152.5 51.5t-57.5 162.5zM185 884q0 16 10.5 26t26.5 10q15 0 25.5 -10t10.5 -26q0 -15 -10.5 -26t-25.5 -11 q-16 0 -26.5 11t-10.5 26zM308 884q0 16 10.5 26t26.5 10t26 -10t10 -26q0 -15 -10.5 -26t-25.5 -11q-16 0 -26.5 11t-10.5 26z" />
<glyph unicode="&#xdd;" horiz-adv-x="531" d="M19 703q0 12 11.5 20t24.5 8q16 0 26 -20l184 -365l185 365q10 20 26 20q13 0 24.5 -8t11.5 -20q0 -9 -4 -18l-208 -397q-2 -6 -2 -8v-254q0 -12 -9.5 -19t-23.5 -7q-13 0 -23 7t-10 19v254q0 5 -1 8l-207 397q-5 9 -5 18zM193 873q0 13 11 18l112 61q3 3 8 3 q11 0 17.5 -8.5t6.5 -19.5q0 -16 -12 -22l-107 -57q-5 -3 -10 -3q-10 0 -18 8.5t-8 19.5z" />
<glyph unicode="&#xde;" horiz-adv-x="495" d="M76 26v686q0 23 31 23q15 0 24.5 -6.5t9.5 -17.5v-168q41 76 138 76q71 0 122 -44t51 -117v-161q0 -72 -51 -118t-117 -46q-47 0 -88.5 23t-54.5 56v-186q0 -10 -10 -18t-23 -8t-22.5 8t-9.5 18zM141 293q0 -36 37 -68t90 -32q48 0 83.5 28t35.5 76v161q0 47 -35 74 t-84 27q-52 0 -89.5 -28.5t-37.5 -72.5v-165z" />
<glyph unicode="&#xdf;" horiz-adv-x="551" d="M6 446q0 11 6.5 19t16.5 8h73v110q0 81 40.5 133t125.5 52q76 0 123 -45.5t47 -135.5q0 -56 -19 -104.5t-52 -64.5q54 -10 99.5 -68t45.5 -132v-17q0 -106 -53 -163.5t-129 -57.5q-106 0 -106 44q0 11 5.5 21t14.5 10q2 0 27 -9.5t51 -9.5q60 0 94 41.5t34 119.5v17 q0 65 -38 112.5t-115 55.5q-12 1 -18 3t-11 8t-5 16q0 16 8.5 21t26.5 8q83 7 83 132q0 65 -27.5 101.5t-82.5 36.5t-79.5 -35.5t-24.5 -89.5v-558q0 -11 -10 -18t-24 -7t-22.5 7t-8.5 18v394h-73q-10 0 -16.5 7.5t-6.5 19.5z" />
<glyph unicode="&#xe0;" horiz-adv-x="438" d="M30 125q0 77 59.5 107t173.5 30h51v24q0 55 -29 95.5t-89 40.5q-40 0 -72.5 -14.5t-34.5 -14.5q-12 0 -19 11t-7 24q0 19 43 35t92 16q94 0 137.5 -54.5t43.5 -138.5v-260q0 -11 -9 -18.5t-23 -7.5q-13 0 -21.5 7.5t-8.5 18.5v44q-67 -77 -151 -77q-60 0 -98 33.5 t-38 98.5zM95 131q0 -42 24 -62.5t63 -20.5q47 0 89.5 35t42.5 70v64h-42q-40 0 -67.5 -3t-54.5 -11t-41 -26t-14 -46zM128 673q0 10 7 19t17 9q4 0 9 -3l111 -61q11 -5 11 -18q0 -11 -8 -19.5t-18 -8.5q-5 0 -10 3l-106 57q-13 6 -13 22z" />
<glyph unicode="&#xe1;" horiz-adv-x="438" d="M30 125q0 77 59.5 107t173.5 30h51v24q0 55 -29 95.5t-89 40.5q-40 0 -72.5 -14.5t-34.5 -14.5q-12 0 -19 11t-7 24q0 19 43 35t92 16q94 0 137.5 -54.5t43.5 -138.5v-260q0 -11 -9 -18.5t-23 -7.5q-13 0 -21.5 7.5t-8.5 18.5v44q-67 -77 -151 -77q-60 0 -98 33.5 t-38 98.5zM95 131q0 -42 24 -62.5t63 -20.5q47 0 89.5 35t42.5 70v64h-42q-40 0 -67.5 -3t-54.5 -11t-41 -26t-14 -46zM133 619q0 13 11 18l112 61q3 3 8 3q11 0 17.5 -8.5t6.5 -19.5q0 -16 -12 -22l-107 -57q-5 -3 -10 -3q-10 0 -18 8.5t-8 19.5z" />
<glyph unicode="&#xe2;" horiz-adv-x="438" d="M30 125q0 77 59.5 107t173.5 30h51v24q0 55 -29 95.5t-89 40.5q-40 0 -72.5 -14.5t-34.5 -14.5q-12 0 -19 11t-7 24q0 19 43 35t92 16q94 0 137.5 -54.5t43.5 -138.5v-260q0 -11 -9 -18.5t-23 -7.5q-13 0 -21.5 7.5t-8.5 18.5v44q-67 -77 -151 -77q-60 0 -98 33.5 t-38 98.5zM72 618q0 15 13 22l104 56q8 5 17 5t17 -5l104 -56q13 -6 13 -23q0 -10 -6 -17t-14 -7q-1 0 -10 3l-104 55l-104 -56l-9 -3q-8 0 -14.5 8t-6.5 18zM95 131q0 -42 24 -62.5t63 -20.5q47 0 89.5 35t42.5 70v64h-42q-40 0 -67.5 -3t-54.5 -11t-41 -26t-14 -46z" />
<glyph unicode="&#xe3;" horiz-adv-x="438" d="M30 125q0 77 59.5 107t173.5 30h51v24q0 55 -29 95.5t-89 40.5q-40 0 -72.5 -14.5t-34.5 -14.5q-12 0 -19 11t-7 24q0 19 43 35t92 16q94 0 137.5 -54.5t43.5 -138.5v-260q0 -11 -9 -18.5t-23 -7.5q-13 0 -21.5 7.5t-8.5 18.5v44q-67 -77 -151 -77q-60 0 -98 33.5 t-38 98.5zM50 637q0 25 29.5 41t58.5 16q26 0 66 -17t66 -17t45 14.5t25 14.5q9 0 14.5 -7.5t5.5 -15.5q0 -28 -28 -42.5t-56 -14.5q-27 0 -66.5 17.5t-66.5 17.5q-25 0 -47 -16t-27 -16q-19 0 -19 25zM95 131q0 -42 24 -62.5t63 -20.5q47 0 89.5 35t42.5 70v64h-42 q-40 0 -67.5 -3t-54.5 -11t-41 -26t-14 -46z" />
<glyph unicode="&#xe4;" horiz-adv-x="438" d="M30 125q0 77 59.5 107t173.5 30h51v24q0 55 -29 95.5t-89 40.5q-40 0 -72.5 -14.5t-34.5 -14.5q-12 0 -19 11t-7 24q0 19 43 35t92 16q94 0 137.5 -54.5t43.5 -138.5v-260q0 -11 -9 -18.5t-23 -7.5q-13 0 -21.5 7.5t-8.5 18.5v44q-67 -77 -151 -77q-60 0 -98 33.5 t-38 98.5zM95 131q0 -42 24 -62.5t63 -20.5q47 0 89.5 35t42.5 70v64h-42q-40 0 -67.5 -3t-54.5 -11t-41 -26t-14 -46zM107 630q0 16 10.5 26t26.5 10q15 0 25.5 -10t10.5 -26q0 -15 -10.5 -26t-25.5 -11q-16 0 -26.5 11t-10.5 26zM230 630q0 16 10.5 26t26.5 10t26 -10 t10 -26q0 -15 -10.5 -26t-25.5 -11q-16 0 -26.5 11t-10.5 26z" />
<glyph unicode="&#xe5;" horiz-adv-x="438" d="M30 125q0 77 59.5 107t173.5 30h51v24q0 55 -29 95.5t-89 40.5q-40 0 -72.5 -14.5t-34.5 -14.5q-12 0 -19 11t-7 24q0 19 43 35t92 16q94 0 137.5 -54.5t43.5 -138.5v-260q0 -11 -9 -18.5t-23 -7.5q-13 0 -21.5 7.5t-8.5 18.5v44q-67 -77 -151 -77q-60 0 -98 33.5 t-38 98.5zM95 131q0 -42 24 -62.5t63 -20.5q47 0 89.5 35t42.5 70v64h-42q-40 0 -67.5 -3t-54.5 -11t-41 -26t-14 -46zM114 675q0 37 27 65t65 28q37 0 65 -28t28 -65q0 -38 -28 -67t-65 -29t-64.5 29t-27.5 67zM147 675q0 -24 18 -43.5t42 -19.5q23 0 40.5 19.5t17.5 43.5 q0 22 -17.5 40t-40.5 18q-25 0 -42.5 -18t-17.5 -40z" />
<glyph unicode="&#xe6;" horiz-adv-x="728" d="M30 125q0 77 59 107t173 30h51v24q0 56 -29.5 96.5t-90.5 40.5q-38 0 -71 -14.5t-35 -14.5q-11 0 -18.5 11.5t-7.5 22.5q0 19 43.5 35.5t92.5 16.5q110 0 153 -94q24 42 65 67.5t89 25.5q73 0 130.5 -49.5t57.5 -143.5q0 -43 -18 -56t-69 -13h-224v-37q0 -59 41.5 -94.5 t107.5 -35.5q33 0 58.5 10t40 20t22.5 10q10 0 19 -10t9 -21q0 -23 -51 -44.5t-108 -21.5t-105 27t-72 75q-31 -51 -77 -76.5t-95 -25.5q-60 0 -100.5 34t-40.5 98zM95 129q0 -39 24 -60t62 -21q50 0 91 35.5t41 69.5v64h-43q-40 0 -67.5 -3t-54 -11.5t-40 -27t-13.5 -46.5z M381 265h198q31 0 40.5 6.5t9.5 25.5q0 52 -35.5 90t-89.5 38q-51 0 -87 -35.5t-36 -85.5v-39z" />
<glyph unicode="&#xe7;" horiz-adv-x="411" d="M46 183v107q0 84 49 136.5t144 52.5q60 0 100.5 -21.5t40.5 -43.5q0 -11 -9 -21.5t-20 -10.5q-6 0 -18.5 9t-35.5 18.5t-55 9.5q-64 0 -97.5 -34t-33.5 -95v-107q0 -62 33.5 -96t98.5 -34q34 0 57.5 9.5t36 19t19.5 9.5q13 0 21.5 -10t8.5 -22q0 -20 -36.5 -40.5 t-91.5 -24.5l-15 -55q48 -1 72 -21.5t24 -50.5t-23 -53.5t-66 -23.5q-25 0 -51.5 7t-26.5 19q0 6 4.5 15t11.5 9q1 0 18.5 -7t37.5 -7q53 0 53 39q0 37 -63 42l-38 3l22 84q-85 6 -128.5 57t-43.5 132z" />
<glyph unicode="&#xe8;" horiz-adv-x="458" d="M45 183v112q0 75 56 129.5t135 54.5q76 0 131.5 -52t55.5 -130q0 -28 -6.5 -45t-21 -24t-26.5 -9t-33 -2h-226v-37q0 -59 42.5 -94.5t109.5 -35.5q34 0 59.5 10t39 20t21.5 10q11 0 19.5 -10.5t8.5 -20.5q0 -21 -43 -43.5t-107 -22.5q-95 0 -155 52.5t-60 137.5zM110 265 h200q30 0 40 6.5t10 27.5q0 50 -35.5 88t-89.5 38q-52 0 -88.5 -36t-36.5 -86v-38zM154 673q0 10 7 19t17 9q4 0 9 -3l111 -61q11 -5 11 -18q0 -11 -8 -19.5t-18 -8.5q-5 0 -10 3l-106 57q-13 6 -13 22z" />
<glyph unicode="&#xe9;" horiz-adv-x="458" d="M45 183v112q0 75 56 129.5t135 54.5q76 0 131.5 -52t55.5 -130q0 -28 -6.5 -45t-21 -24t-26.5 -9t-33 -2h-226v-37q0 -59 42.5 -94.5t109.5 -35.5q34 0 59.5 10t39 20t21.5 10q11 0 19.5 -10.5t8.5 -20.5q0 -21 -43 -43.5t-107 -22.5q-95 0 -155 52.5t-60 137.5zM110 265 h200q30 0 40 6.5t10 27.5q0 50 -35.5 88t-89.5 38q-52 0 -88.5 -36t-36.5 -86v-38zM159 619q0 13 11 18l112 61q3 3 8 3q11 0 17.5 -8.5t6.5 -19.5q0 -16 -12 -22l-107 -57q-5 -3 -10 -3q-10 0 -18 8.5t-8 19.5z" />
<glyph unicode="&#xea;" horiz-adv-x="458" d="M45 183v112q0 75 56 129.5t135 54.5q76 0 131.5 -52t55.5 -130q0 -28 -6.5 -45t-21 -24t-26.5 -9t-33 -2h-226v-37q0 -59 42.5 -94.5t109.5 -35.5q34 0 59.5 10t39 20t21.5 10q11 0 19.5 -10.5t8.5 -20.5q0 -21 -43 -43.5t-107 -22.5q-95 0 -155 52.5t-60 137.5zM101 618 q0 15 13 22l104 56q8 5 17 5t17 -5l104 -56q13 -6 13 -23q0 -10 -6 -17t-14 -7q-1 0 -10 3l-104 55l-104 -56l-9 -3q-8 0 -14.5 8t-6.5 18zM110 265h200q30 0 40 6.5t10 27.5q0 50 -35.5 88t-89.5 38q-52 0 -88.5 -36t-36.5 -86v-38z" />
<glyph unicode="&#xeb;" horiz-adv-x="458" d="M45 183v112q0 75 56 129.5t135 54.5q76 0 131.5 -52t55.5 -130q0 -28 -6.5 -45t-21 -24t-26.5 -9t-33 -2h-226v-37q0 -59 42.5 -94.5t109.5 -35.5q34 0 59.5 10t39 20t21.5 10q11 0 19.5 -10.5t8.5 -20.5q0 -21 -43 -43.5t-107 -22.5q-95 0 -155 52.5t-60 137.5zM110 265 h200q30 0 40 6.5t10 27.5q0 50 -35.5 88t-89.5 38q-52 0 -88.5 -36t-36.5 -86v-38zM137 630q0 16 10.5 26t26.5 10q15 0 25.5 -10t10.5 -26q0 -15 -10.5 -26t-25.5 -11q-16 0 -26.5 11t-10.5 26zM260 630q0 16 10.5 26t26.5 10t26 -10t10 -26q0 -15 -10.5 -26t-25.5 -11 q-16 0 -26.5 11t-10.5 26z" />
<glyph unicode="&#xec;" horiz-adv-x="191" d="M12 673q0 10 7 19t17 9q4 0 9 -3l111 -61q11 -5 11 -18q0 -11 -8 -19.5t-18 -8.5q-5 0 -10 3l-106 57q-13 6 -13 22zM63 26v423q0 10 9 17t23 7t23.5 -7t9.5 -17v-423q0 -10 -10 -18t-23 -8t-22.5 8t-9.5 18z" />
<glyph unicode="&#xed;" horiz-adv-x="191" d="M22 619q0 13 11 18l112 61q3 3 8 3q11 0 17.5 -8.5t6.5 -19.5q0 -16 -12 -22l-107 -57q-4 -3 -10 -3q-10 0 -18 8.5t-8 19.5zM63 26v423q0 10 9 17t23 7t23.5 -7t9.5 -17v-423q0 -10 -10 -18t-23 -8t-22.5 8t-9.5 18z" />
<glyph unicode="&#xee;" horiz-adv-x="191" d="M-39 618q0 15 13 22l104 56q8 5 17 5t17 -5l104 -56q13 -6 13 -23q0 -10 -6 -17t-14 -7q-1 0 -10 3l-104 55l-104 -56l-9 -3q-8 0 -14.5 8t-6.5 18zM63 26v423q0 10 9 17t23 7t23.5 -7t9.5 -17v-423q0 -10 -10 -18t-23 -8t-22.5 8t-9.5 18z" />
<glyph unicode="&#xef;" horiz-adv-x="191" d="M-1 630q0 16 10.5 26t26.5 10q15 0 25.5 -10t10.5 -26q0 -15 -10.5 -26t-25.5 -11q-16 0 -26.5 11t-10.5 26zM63 26v423q0 10 9 17t23 7t23.5 -7t9.5 -17v-423q0 -10 -10 -18t-23 -8t-22.5 8t-9.5 18zM122 630q0 16 10.5 26t26.5 10t26 -10t10 -26q0 -15 -10.5 -26 t-25.5 -11q-16 0 -26.5 11t-10.5 26z" />
<glyph unicode="&#xf0;" horiz-adv-x="482" d="M44 183v109q0 75 52.5 131t124.5 56q45 0 85.5 -23t53.5 -60q-10 131 -71 216l-84 -48q-5 -3 -10 -3q-10 0 -18 9.5t-8 19.5q0 12 11 18l77 45q-48 49 -105 51q-17 8 -17 26q0 13 9 23t28 10q74 0 142 -77l73 42q3 3 9 3q10 0 18 -8.5t8 -19.5q0 -13 -11 -18l-67 -40 q81 -120 81 -285v-177q0 -75 -57.5 -132.5t-133.5 -57.5t-133 57.5t-57 132.5zM109 183q0 -51 37 -90.5t88 -39.5q52 0 89 39.5t37 90.5v112q0 49 -38 86.5t-88 37.5q-51 0 -88 -39t-37 -88v-109z" />
<glyph unicode="&#xf1;" d="M63 26v423q0 11 9 17.5t23 6.5q12 0 21 -7t9 -17v-46q17 32 52 54t82 22q72 0 125 -55t53 -132v-266q0 -12 -10 -19t-23 -7q-12 0 -22 7t-10 19v266q0 49 -37 88t-88 39q-47 0 -83 -35t-36 -92v-266q0 -10 -10 -18t-23 -8q-14 0 -23 8t-9 18zM90 637q0 25 29.5 41 t58.5 16q26 0 66 -17t66 -17t45 14.5t25 14.5q9 0 14.5 -7.5t5.5 -15.5q0 -28 -28 -42.5t-56 -14.5q-27 0 -66.5 17.5t-66.5 17.5q-25 0 -47 -16t-27 -16q-19 0 -19 25z" />
<glyph unicode="&#xf2;" horiz-adv-x="468" d="M44 183v109q0 76 56 131.5t133 55.5t134 -55t57 -132v-109q0 -75 -57.5 -132.5t-133.5 -57.5q-75 0 -132 57.5t-57 132.5zM109 183q0 -51 36.5 -90.5t87.5 -39.5q52 0 89 39.5t37 90.5v109q0 49 -37.5 88t-88.5 39t-87.5 -39t-36.5 -88v-109zM152 673q0 10 7 19t17 9 q4 0 9 -3l111 -61q11 -5 11 -18q0 -11 -8 -19.5t-18 -8.5q-5 0 -10 3l-106 57q-13 6 -13 22z" />
<glyph unicode="&#xf3;" horiz-adv-x="468" d="M44 183v109q0 76 56 131.5t133 55.5t134 -55t57 -132v-109q0 -75 -57.5 -132.5t-133.5 -57.5q-75 0 -132 57.5t-57 132.5zM109 183q0 -51 36.5 -90.5t87.5 -39.5q52 0 89 39.5t37 90.5v109q0 49 -37.5 88t-88.5 39t-87.5 -39t-36.5 -88v-109zM157 619q0 13 11 18l112 61 q3 3 8 3q11 0 17.5 -8.5t6.5 -19.5q0 -16 -12 -22l-107 -57q-5 -3 -10 -3q-10 0 -18 8.5t-8 19.5z" />
<glyph unicode="&#xf4;" horiz-adv-x="468" d="M44 183v109q0 76 56 131.5t133 55.5t134 -55t57 -132v-109q0 -75 -57.5 -132.5t-133.5 -57.5q-75 0 -132 57.5t-57 132.5zM99 618q0 15 13 22l104 56q8 5 17 5t17 -5l104 -56q13 -6 13 -23q0 -10 -6 -17t-14 -7q-1 0 -10 3l-104 55l-104 -56l-9 -3q-8 0 -14.5 8t-6.5 18z M109 183q0 -51 36.5 -90.5t87.5 -39.5q52 0 89 39.5t37 90.5v109q0 49 -37.5 88t-88.5 39t-87.5 -39t-36.5 -88v-109z" />
<glyph unicode="&#xf5;" horiz-adv-x="468" d="M44 183v109q0 76 56 131.5t133 55.5t134 -55t57 -132v-109q0 -75 -57.5 -132.5t-133.5 -57.5q-75 0 -132 57.5t-57 132.5zM79 637q0 25 29.5 41t58.5 16q26 0 66 -17t66 -17t45 14.5t25 14.5q9 0 14.5 -7.5t5.5 -15.5q0 -28 -28 -42.5t-56 -14.5q-27 0 -66.5 17.5 t-66.5 17.5q-25 0 -47 -16t-27 -16q-19 0 -19 25zM109 183q0 -51 36.5 -90.5t87.5 -39.5q52 0 89 39.5t37 90.5v109q0 49 -37.5 88t-88.5 39t-87.5 -39t-36.5 -88v-109z" />
<glyph unicode="&#xf6;" horiz-adv-x="468" d="M44 183v109q0 76 56 131.5t133 55.5t134 -55t57 -132v-109q0 -75 -57.5 -132.5t-133.5 -57.5q-75 0 -132 57.5t-57 132.5zM109 183q0 -51 36.5 -90.5t87.5 -39.5q52 0 89 39.5t37 90.5v109q0 49 -37.5 88t-88.5 39t-87.5 -39t-36.5 -88v-109zM136 630q0 16 10.5 26 t26.5 10q15 0 25.5 -10t10.5 -26q0 -15 -10.5 -26t-25.5 -11q-16 0 -26.5 11t-10.5 26zM259 630q0 16 10.5 26t26.5 10t26 -10t10 -26q0 -15 -10.5 -26t-25.5 -11q-16 0 -26.5 11t-10.5 26z" />
<glyph unicode="&#xf7;" horiz-adv-x="451" d="M41 240q0 12 7 20t18 8h319q10 0 18 -8t8 -20t-8 -20t-18 -8h-319q-25 0 -25 28zM173 77q0 19 14.5 33.5t34.5 14.5t34.5 -14.5t14.5 -33.5t-14.5 -34t-34.5 -15t-34.5 15t-14.5 34zM173 404q0 19 14.5 33.5t34.5 14.5t34.5 -14.5t14.5 -33.5q0 -20 -14.5 -34t-34.5 -14 t-34.5 14t-14.5 34z" />
<glyph unicode="&#xf8;" horiz-adv-x="468" d="M44 183v109q0 76 56 131.5t133 55.5q51 0 97 -27l28 48q5 9 15 9q9 0 15.5 -6.5t6.5 -15.5q0 -8 -4 -13l-27 -47q60 -57 60 -135v-109q0 -75 -57.5 -132.5t-133.5 -57.5q-56 0 -101 31l-27 -46q-6 -10 -17 -10q-8 0 -14 5.5t-6 13.5q0 6 4 11l29 51q-57 57 -57 134z M109 183q0 -43 25 -77l166 292q-32 21 -67 21q-51 0 -87.5 -39t-36.5 -88v-109zM162 77q32 -24 71 -24q52 0 89 39.5t37 90.5v109q0 40 -28 78z" />
<glyph unicode="&#xf9;" d="M58 181v267q0 9 9.5 17t23.5 8q12 0 22 -8t10 -17v-267q0 -50 37 -89t88 -39t88 39t37 89v268q0 10 10 17t23 7t22.5 -7t9.5 -17v-268q0 -75 -56.5 -131.5t-133.5 -56.5q-78 0 -134 56.5t-56 131.5zM166 673q0 10 7 19t17 9q4 0 9 -3l111 -61q11 -5 11 -18 q0 -11 -8 -19.5t-18 -8.5q-5 0 -10 3l-106 57q-13 6 -13 22z" />
<glyph unicode="&#xfa;" d="M58 181v267q0 9 9.5 17t23.5 8q12 0 22 -8t10 -17v-267q0 -50 37 -89t88 -39t88 39t37 89v268q0 10 10 17t23 7t22.5 -7t9.5 -17v-268q0 -75 -56.5 -131.5t-133.5 -56.5q-78 0 -134 56.5t-56 131.5zM174 619q0 13 11 18l112 61q3 3 8 3q11 0 17.5 -8.5t6.5 -19.5 q0 -16 -12 -22l-107 -57q-4 -3 -10 -3q-10 0 -18 8.5t-8 19.5z" />
<glyph unicode="&#xfb;" d="M58 181v267q0 9 9.5 17t23.5 8q12 0 22 -8t10 -17v-267q0 -50 37 -89t88 -39t88 39t37 89v268q0 10 10 17t23 7t22.5 -7t9.5 -17v-268q0 -75 -56.5 -131.5t-133.5 -56.5q-78 0 -134 56.5t-56 131.5zM114 618q0 15 13 22l104 56q8 5 17 5t17 -5l104 -56q13 -6 13 -23 q0 -10 -6 -17t-14 -7q-1 0 -10 3l-104 55l-104 -56l-9 -3q-8 0 -14.5 8t-6.5 18z" />
<glyph unicode="&#xfc;" d="M58 181v267q0 9 9.5 17t23.5 8q12 0 22 -8t10 -17v-267q0 -50 37 -89t88 -39t88 39t37 89v268q0 10 10 17t23 7t22.5 -7t9.5 -17v-268q0 -75 -56.5 -131.5t-133.5 -56.5q-78 0 -134 56.5t-56 131.5zM150 630q0 16 10.5 26t26.5 10q15 0 25.5 -10t10.5 -26 q0 -15 -10.5 -26t-25.5 -11q-16 0 -26.5 11t-10.5 26zM273 630q0 16 10.5 26t26.5 10t26 -10t10 -26q0 -15 -10.5 -26t-25.5 -11q-16 0 -26.5 11t-10.5 26z" />
<glyph unicode="&#xfd;" horiz-adv-x="420" d="M14 448q0 12 13 21.5t27 9.5q19 0 23 -14l137 -368l129 368q6 14 22 14q13 0 26.5 -9.5t13.5 -22.5q0 -6 -2 -8l-155 -420l-18 -49q-5 -13 -19.5 -47t-24.5 -49l-26 -40q-17 -25 -32.5 -36t-37.5 -20.5t-45 -9.5q-30 0 -30 29q0 30 20 30q46 0 85.5 55.5t59.5 137.5 l-163 419q-3 5 -3 9zM144 619q0 13 11 18l112 61q3 3 8 3q11 0 17.5 -8.5t6.5 -19.5q0 -16 -12 -22l-107 -57q-4 -3 -10 -3q-10 0 -18 8.5t-8 19.5z" />
<glyph unicode="&#xfe;" horiz-adv-x="485" d="M64 -207v946q0 10 9 17t23 7t23.5 -7t9.5 -17v-336q18 32 52 54t80 22q74 0 127 -55t53 -132v-109q0 -75 -53.5 -132.5t-123.5 -57.5q-44 0 -81 22.5t-54 54.5v-277q0 -9 -9.5 -17t-23.5 -8q-13 0 -22.5 8t-9.5 17zM129 152q0 -27 37.5 -63t85.5 -36q49 0 86.5 40 t37.5 90v109q0 49 -37.5 88t-88.5 39q-48 0 -84.5 -35t-36.5 -92v-140z" />
<glyph unicode="&#xff;" horiz-adv-x="420" d="M14 448q0 12 13 21.5t27 9.5q19 0 23 -14l137 -368l129 368q6 14 22 14q13 0 26.5 -9.5t13.5 -22.5q0 -6 -2 -8l-155 -420l-18 -49q-5 -13 -19.5 -47t-24.5 -49l-26 -40q-17 -25 -32.5 -36t-37.5 -20.5t-45 -9.5q-30 0 -30 29q0 30 20 30q46 0 85.5 55.5t59.5 137.5 l-163 419q-3 5 -3 9zM115 630q0 16 10.5 26t26.5 10q15 0 25.5 -10t10.5 -26q0 -15 -10.5 -26t-25.5 -11q-16 0 -26.5 11t-10.5 26zM238 630q0 16 10.5 26t26.5 10t26 -10t10 -26q0 -15 -10.5 -26t-25.5 -11q-16 0 -26.5 11t-10.5 26z" />
<glyph unicode="&#x100;" horiz-adv-x="540" d="M21 28q0 5 1 7l209 679q7 23 39 23t40 -23l208 -679q0 -1 0.5 -3t0.5 -3q0 -12 -13 -20.5t-27 -8.5q-19 0 -25 17l-46 154h-277l-46 -154q-4 -17 -26 -17q-14 0 -26 8t-12 20zM137 914q0 11 7 18.5t18 7.5h215q9 0 17 -7.5t8 -18.5q0 -10 -8 -17.5t-17 -7.5h-215 q-11 0 -18 7t-7 18zM148 228h243l-121 403z" />
<glyph unicode="&#x101;" horiz-adv-x="438" d="M30 125q0 77 59.5 107t173.5 30h51v24q0 55 -29 95.5t-89 40.5q-40 0 -72.5 -14.5t-34.5 -14.5q-12 0 -19 11t-7 24q0 19 43 35t92 16q94 0 137.5 -54.5t43.5 -138.5v-260q0 -11 -9 -18.5t-23 -7.5q-13 0 -21.5 7.5t-8.5 18.5v44q-67 -77 -151 -77q-60 0 -98 33.5 t-38 98.5zM81 660q0 11 7 18.5t18 7.5h215q9 0 17 -7.5t8 -18.5q0 -10 -8 -17.5t-17 -7.5h-215q-11 0 -18 7t-7 18zM95 131q0 -42 24 -62.5t63 -20.5q47 0 89.5 35t42.5 70v64h-42q-40 0 -67.5 -3t-54.5 -11t-41 -26t-14 -46z" />
<glyph unicode="&#x102;" horiz-adv-x="540" d="M21 28q0 5 1 7l209 679q7 23 39 23t40 -23l208 -679q0 -1 0.5 -3t0.5 -3q0 -12 -13 -20.5t-27 -8.5q-19 0 -25 17l-46 154h-277l-46 -154q-4 -17 -26 -17q-14 0 -26 8t-12 20zM148 228h243l-121 403zM153 968h44q0 -34 21.5 -57.5t51.5 -23.5q29 0 50.5 23.5t21.5 57.5 h44q0 -47 -35.5 -82t-80.5 -35q-47 0 -82 35t-35 82z" />
<glyph unicode="&#x103;" horiz-adv-x="438" d="M30 125q0 77 59.5 107t173.5 30h51v24q0 55 -29 95.5t-89 40.5q-40 0 -72.5 -14.5t-34.5 -14.5q-12 0 -19 11t-7 24q0 19 43 35t92 16q94 0 137.5 -54.5t43.5 -138.5v-260q0 -11 -9 -18.5t-23 -7.5q-13 0 -21.5 7.5t-8.5 18.5v44q-67 -77 -151 -77q-60 0 -98 33.5 t-38 98.5zM95 131q0 -42 24 -62.5t63 -20.5q47 0 89.5 35t42.5 70v64h-42q-40 0 -67.5 -3t-54.5 -11t-41 -26t-14 -46zM96 714h44q0 -34 21.5 -57.5t51.5 -23.5q29 0 50.5 23.5t21.5 57.5h44q0 -47 -35.5 -82t-80.5 -35q-47 0 -82 35t-35 82z" />
<glyph unicode="&#x104;" horiz-adv-x="540" d="M21 28q0 5 1 7l209 679q7 23 39 23t40 -23l208 -679q0 -1 0.5 -3t0.5 -3q0 -16 -23 -26q-73 -62 -73 -124q0 -45 62 -45q20 0 20 -18q0 -17 -25 -17q-41 0 -69 18.5t-28 56.5q0 74 72 139q0 1 -0.5 2t-0.5 2l-46 154h-277l-46 -154q-4 -17 -26 -17q-14 0 -26 8t-12 20z M148 228h243l-121 403z" />
<glyph unicode="&#x105;" horiz-adv-x="438" d="M30 125q0 77 59.5 107t173.5 30h51v24q0 55 -29 95.5t-89 40.5q-40 0 -72.5 -14.5t-34.5 -14.5q-12 0 -19 11t-7 24q0 19 43 35t92 16q94 0 137.5 -54.5t43.5 -138.5v-260q0 -15 -15 -23q-73 -62 -73 -124q0 -45 62 -45q20 0 20 -18q0 -17 -25 -17q-41 0 -69 18.5 t-28 56.5q0 73 70 138q-4 5 -4 14v44q-67 -77 -151 -77q-60 0 -98 33.5t-38 98.5zM95 131q0 -42 24 -62.5t63 -20.5q47 0 89.5 35t42.5 70v64h-42q-40 0 -67.5 -3t-54.5 -11t-41 -26t-14 -46z" />
<glyph unicode="&#x106;" horiz-adv-x="523" d="M68 208v310q0 109 58.5 161t151.5 52q95 0 150.5 -48.5t55.5 -118.5q0 -24 -7.5 -32t-25.5 -8q-31 0 -33 25q-1 15 -4 29t-12 31.5t-23.5 30.5t-40.5 21.5t-60 8.5q-144 0 -144 -152v-310q0 -153 148 -153q42 0 70 11.5t41 33.5t17.5 37.5t7.5 40.5q3 26 33 26 q18 0 25.5 -8.5t7.5 -32.5q0 -71 -56.5 -120t-152.5 -49q-92 0 -149.5 52t-57.5 162zM205 873q0 13 11 18l112 61q3 3 8 3q11 0 17.5 -8.5t6.5 -19.5q0 -16 -12 -22l-107 -57q-5 -3 -10 -3q-10 0 -18 8.5t-8 19.5z" />
<glyph unicode="&#x107;" horiz-adv-x="411" d="M46 183v107q0 84 49 136.5t144 52.5q60 0 100.5 -21.5t40.5 -43.5q0 -11 -9 -21.5t-20 -10.5q-6 0 -18.5 9t-35.5 18.5t-55 9.5q-64 0 -97.5 -34t-33.5 -95v-107q0 -62 33.5 -96t98.5 -34q34 0 57.5 9.5t36 19t19.5 9.5q13 0 21.5 -10t8.5 -22q0 -23 -42 -44.5 t-104 -21.5q-96 0 -145 52t-49 138zM144 619q0 13 11 18l112 61q3 3 8 3q11 0 17.5 -8.5t6.5 -19.5q0 -16 -12 -22l-107 -57q-4 -3 -10 -3q-10 0 -18 8.5t-8 19.5z" />
<glyph unicode="&#x108;" horiz-adv-x="523" d="M68 208v310q0 109 58.5 161t151.5 52q95 0 150.5 -48.5t55.5 -118.5q0 -24 -7.5 -32t-25.5 -8q-31 0 -33 25q-1 15 -4 29t-12 31.5t-23.5 30.5t-40.5 21.5t-60 8.5q-144 0 -144 -152v-310q0 -153 148 -153q42 0 70 11.5t41 33.5t17.5 37.5t7.5 40.5q3 26 33 26 q18 0 25.5 -8.5t7.5 -32.5q0 -71 -56.5 -120t-152.5 -49q-92 0 -149.5 52t-57.5 162zM142 872q0 15 13 22l104 56q8 5 17 5t17 -5l104 -56q13 -6 13 -23q0 -10 -6 -17t-14 -7q-1 0 -10 3l-104 55l-104 -56l-9 -3q-8 0 -14.5 8t-6.5 18z" />
<glyph unicode="&#x109;" horiz-adv-x="411" d="M46 183v107q0 84 49 136.5t144 52.5q60 0 100.5 -21.5t40.5 -43.5q0 -11 -9 -21.5t-20 -10.5q-6 0 -18.5 9t-35.5 18.5t-55 9.5q-64 0 -97.5 -34t-33.5 -95v-107q0 -62 33.5 -96t98.5 -34q34 0 57.5 9.5t36 19t19.5 9.5q13 0 21.5 -10t8.5 -22q0 -23 -42 -44.5 t-104 -21.5q-96 0 -145 52t-49 138zM85 618q0 15 13 22l104 56q8 5 17 5t17 -5l104 -56q13 -6 13 -23q0 -10 -6 -17t-14 -7q-1 0 -10 3l-104 55l-104 -56l-9 -3q-8 0 -14.5 8t-6.5 18z" />
<glyph unicode="&#x10a;" horiz-adv-x="523" d="M68 208v310q0 109 58.5 161t151.5 52q95 0 150.5 -48.5t55.5 -118.5q0 -24 -7.5 -32t-25.5 -8q-31 0 -33 25q-1 15 -4 29t-12 31.5t-23.5 30.5t-40.5 21.5t-60 8.5q-144 0 -144 -152v-310q0 -153 148 -153q42 0 70 11.5t41 33.5t17.5 37.5t7.5 40.5q3 26 33 26 q18 0 25.5 -8.5t7.5 -32.5q0 -71 -56.5 -120t-152.5 -49q-92 0 -149.5 52t-57.5 162zM240 884q0 16 10.5 26t26.5 10q15 0 25.5 -10t10.5 -26q0 -15 -10.5 -26t-25.5 -11q-16 0 -26.5 11t-10.5 26z" />
<glyph unicode="&#x10b;" horiz-adv-x="411" d="M46 183v107q0 84 49 136.5t144 52.5q60 0 100.5 -21.5t40.5 -43.5q0 -11 -9 -21.5t-20 -10.5q-6 0 -18.5 9t-35.5 18.5t-55 9.5q-64 0 -97.5 -34t-33.5 -95v-107q0 -62 33.5 -96t98.5 -34q34 0 57.5 9.5t36 19t19.5 9.5q13 0 21.5 -10t8.5 -22q0 -23 -42 -44.5 t-104 -21.5q-96 0 -145 52t-49 138zM181 630q0 16 10.5 26t26.5 10q15 0 25.5 -10t10.5 -26q0 -15 -10.5 -26t-25.5 -11q-16 0 -26.5 11t-10.5 26z" />
<glyph unicode="&#x10c;" horiz-adv-x="523" d="M68 208v310q0 109 58.5 161t151.5 52q95 0 150.5 -48.5t55.5 -118.5q0 -24 -7.5 -32t-25.5 -8q-31 0 -33 25q-1 15 -4 29t-12 31.5t-23.5 30.5t-40.5 21.5t-60 8.5q-144 0 -144 -152v-310q0 -153 148 -153q42 0 70 11.5t41 33.5t17.5 37.5t7.5 40.5q3 26 33 26 q18 0 25.5 -8.5t7.5 -32.5q0 -71 -56.5 -120t-152.5 -49q-92 0 -149.5 52t-57.5 162zM141 963q0 9 5.5 15.5t13.5 6.5q9 0 15 -6l100 -92l99 92q6 6 15 6q8 0 13.5 -6.5t5.5 -15.5q0 -13 -12 -23l-101 -90q-12 -10 -20 -10q-10 0 -20 10l-101 90q-13 10 -13 23z" />
<glyph unicode="&#x10d;" horiz-adv-x="411" d="M46 183v107q0 84 49 136.5t144 52.5q60 0 100.5 -21.5t40.5 -43.5q0 -11 -9 -21.5t-20 -10.5q-6 0 -18.5 9t-35.5 18.5t-55 9.5q-64 0 -97.5 -34t-33.5 -95v-107q0 -62 33.5 -96t98.5 -34q34 0 57.5 9.5t36 19t19.5 9.5q13 0 21.5 -10t8.5 -22q0 -23 -42 -44.5 t-104 -21.5q-96 0 -145 52t-49 138zM83 709q0 9 5.5 15.5t13.5 6.5q9 0 15 -6l100 -92l99 92q6 6 15 6q8 0 13.5 -6.5t5.5 -15.5q0 -13 -12 -23l-101 -90q-12 -10 -20 -10q-10 0 -20 10l-101 90q-13 10 -13 23z" />
<glyph unicode="&#x10e;" horiz-adv-x="560" d="M76 25v682q0 10 8.5 17t21.5 7h177q95 0 152 -51.5t57 -161.5v-304q0 -111 -57 -162.5t-152 -51.5h-177q-13 0 -21.5 7.5t-8.5 17.5zM142 61h141q68 0 105.5 38.5t37.5 114.5v304q0 76 -37.5 114t-105.5 38h-141v-609zM143 963q0 9 5.5 15.5t13.5 6.5q9 0 15 -6l100 -92 l99 92q6 6 15 6q8 0 13.5 -6.5t5.5 -15.5q0 -13 -12 -23l-101 -90q-12 -10 -20 -10q-10 0 -20 10l-101 90q-13 10 -13 23z" />
<glyph unicode="&#x10f;" horiz-adv-x="484" d="M45 183v109q0 77 52.5 132t126.5 55q46 0 80.5 -22t51.5 -54v336q0 10 10 17t24 7t22.5 -7t8.5 -17v-713q0 -10 -9 -18t-22 -8q-12 0 -21.5 8t-9.5 18v44q-17 -32 -54.5 -54.5t-82.5 -22.5q-71 0 -124 57.5t-53 132.5zM110 183q0 -50 37 -90t87 -40q48 0 85 36t37 63v140 q0 57 -36.5 92t-84.5 35q-51 0 -88 -39t-37 -88v-109zM480 695q0 19 13.5 32.5t32.5 13.5t32.5 -13.5t13.5 -32.5q0 -23 -41 -113q-5 -12 -18 -12q-9 0 -16.5 6t-7.5 15q0 6 2 9l19 52q-30 10 -30 43z" />
<glyph unicode="&#x110;" horiz-adv-x="569" d="M-1 384q0 11 6.5 19t16.5 8h63v296q0 10 8.5 17t21.5 7h177q95 0 152 -51.5t57 -161.5v-304q0 -111 -57 -162.5t-152 -51.5h-177q-13 0 -21.5 7.5t-8.5 17.5v332h-63q-10 0 -16.5 7.5t-6.5 19.5zM151 61h141q68 0 105.5 38.5t37.5 114.5v304q0 76 -37.5 114t-105.5 38 h-141v-259h113q10 0 16.5 -8t6.5 -19t-6.5 -19t-16.5 -8h-113v-296z" />
<glyph unicode="&#x111;" horiz-adv-x="484" d="M45 183v109q0 77 52.5 132t126.5 55q46 0 80.5 -22t51.5 -54v171h-118q-10 0 -16.5 7.5t-6.5 18.5t6.5 19t16.5 8h118v112q0 10 10 17t24 7t22.5 -7t8.5 -17v-112h49q10 0 16.5 -8t6.5 -19t-6.5 -18.5t-16.5 -7.5h-49v-548q0 -10 -9 -18t-22 -8q-12 0 -21.5 8t-9.5 18v44 q-17 -32 -54.5 -54.5t-82.5 -22.5q-71 0 -124 57.5t-53 132.5zM110 183q0 -50 37 -90t87 -40q48 0 85 36t37 63v140q0 57 -36.5 92t-84.5 35q-51 0 -88 -39t-37 -88v-109z" />
<glyph unicode="&#x112;" horiz-adv-x="508" d="M76 26v680q0 12 9 18.5t21 6.5h356q25 0 25 -29q0 -13 -6.5 -22.5t-18.5 -9.5h-320v-275h157q12 0 18.5 -8.5t6.5 -21.5q0 -27 -25 -27h-157v-277h320q11 0 18 -9t7 -22q0 -30 -25 -30h-356q-12 0 -21 7t-9 19zM150 914q0 11 7 18.5t18 7.5h215q9 0 17 -7.5t8 -18.5 q0 -10 -8 -17.5t-17 -7.5h-215q-11 0 -18 7t-7 18z" />
<glyph unicode="&#x113;" horiz-adv-x="458" d="M45 183v112q0 75 56 129.5t135 54.5q76 0 131.5 -52t55.5 -130q0 -28 -6.5 -45t-21 -24t-26.5 -9t-33 -2h-226v-37q0 -59 42.5 -94.5t109.5 -35.5q34 0 59.5 10t39 20t21.5 10q11 0 19.5 -10.5t8.5 -20.5q0 -21 -43 -43.5t-107 -22.5q-95 0 -155 52.5t-60 137.5zM103 660 q0 11 7 18.5t18 7.5h215q9 0 17 -7.5t8 -18.5q0 -10 -8 -17.5t-17 -7.5h-215q-11 0 -18 7t-7 18zM110 265h200q30 0 40 6.5t10 27.5q0 50 -35.5 88t-89.5 38q-52 0 -88.5 -36t-36.5 -86v-38z" />
<glyph unicode="&#x114;" horiz-adv-x="508" d="M76 26v680q0 12 9 18.5t21 6.5h356q25 0 25 -29q0 -13 -6.5 -22.5t-18.5 -9.5h-320v-275h157q12 0 18.5 -8.5t6.5 -21.5q0 -27 -25 -27h-157v-277h320q11 0 18 -9t7 -22q0 -30 -25 -30h-356q-12 0 -21 7t-9 19zM164 968h44q0 -34 21.5 -57.5t51.5 -23.5q29 0 50.5 23.5 t21.5 57.5h44q0 -47 -35.5 -82t-80.5 -35q-47 0 -82 35t-35 82z" />
<glyph unicode="&#x115;" horiz-adv-x="458" d="M45 183v112q0 75 56 129.5t135 54.5q76 0 131.5 -52t55.5 -130q0 -28 -6.5 -45t-21 -24t-26.5 -9t-33 -2h-226v-37q0 -59 42.5 -94.5t109.5 -35.5q34 0 59.5 10t39 20t21.5 10q11 0 19.5 -10.5t8.5 -20.5q0 -21 -43 -43.5t-107 -22.5q-95 0 -155 52.5t-60 137.5zM110 265 h200q30 0 40 6.5t10 27.5q0 50 -35.5 88t-89.5 38q-52 0 -88.5 -36t-36.5 -86v-38zM118 714h44q0 -34 21.5 -57.5t51.5 -23.5q29 0 50.5 23.5t21.5 57.5h44q0 -47 -35.5 -82t-80.5 -35q-47 0 -82 35t-35 82z" />
<glyph unicode="&#x116;" horiz-adv-x="508" d="M76 26v680q0 12 9 18.5t21 6.5h356q25 0 25 -29q0 -13 -6.5 -22.5t-18.5 -9.5h-320v-275h157q12 0 18.5 -8.5t6.5 -21.5q0 -27 -25 -27h-157v-277h320q11 0 18 -9t7 -22q0 -30 -25 -30h-356q-12 0 -21 7t-9 19zM248 884q0 16 10.5 26t26.5 10q15 0 25.5 -10t10.5 -26 q0 -15 -10.5 -26t-25.5 -11q-16 0 -26.5 11t-10.5 26z" />
<glyph unicode="&#x117;" horiz-adv-x="458" d="M45 183v112q0 75 56 129.5t135 54.5q76 0 131.5 -52t55.5 -130q0 -28 -6.5 -45t-21 -24t-26.5 -9t-33 -2h-226v-37q0 -59 42.5 -94.5t109.5 -35.5q34 0 59.5 10t39 20t21.5 10q11 0 19.5 -10.5t8.5 -20.5q0 -21 -43 -43.5t-107 -22.5q-95 0 -155 52.5t-60 137.5zM110 265 h200q30 0 40 6.5t10 27.5q0 50 -35.5 88t-89.5 38q-52 0 -88.5 -36t-36.5 -86v-38zM199 630q0 16 10.5 26t26.5 10q15 0 25.5 -10t10.5 -26q0 -15 -10.5 -26t-25.5 -11q-16 0 -26.5 11t-10.5 26z" />
<glyph unicode="&#x118;" horiz-adv-x="508" d="M76 26v680q0 12 9 18.5t21 6.5h356q25 0 25 -29q0 -13 -6.5 -22.5t-18.5 -9.5h-320v-275h157q12 0 18.5 -8.5t6.5 -21.5q0 -27 -25 -27h-157v-277h320q11 0 18 -9t7 -22q0 -21 -15 -28q-71 -62 -71 -123q0 -45 62 -45q20 0 20 -18q0 -17 -25 -17q-41 0 -69 18.5t-28 56.5 q0 66 58 126h-313q-12 0 -21 7t-9 19z" />
<glyph unicode="&#x119;" horiz-adv-x="458" d="M45 183v112q0 75 56 129.5t135 54.5q76 0 131.5 -52t55.5 -130q0 -28 -6.5 -45t-21 -24t-26.5 -9t-33 -2h-226v-37q0 -59 42.5 -94.5t109.5 -35.5q34 0 59.5 10t39 20t21.5 10q11 0 19.5 -10.5t8.5 -20.5q0 -22 -44 -44q-65 -60 -65 -117q0 -45 62 -45q20 0 20 -18 q0 -17 -25 -17q-41 0 -69 18.5t-28 56.5q0 54 38 103q-18 -3 -39 -3q-95 0 -155 52.5t-60 137.5zM110 265h200q30 0 40 6.5t10 27.5q0 50 -35.5 88t-89.5 38q-52 0 -88.5 -36t-36.5 -86v-38z" />
<glyph unicode="&#x11a;" horiz-adv-x="508" d="M76 26v680q0 12 9 18.5t21 6.5h356q25 0 25 -29q0 -13 -6.5 -22.5t-18.5 -9.5h-320v-275h157q12 0 18.5 -8.5t6.5 -21.5q0 -27 -25 -27h-157v-277h320q11 0 18 -9t7 -22q0 -30 -25 -30h-356q-12 0 -21 7t-9 19zM146 963q0 9 5.5 15.5t13.5 6.5q9 0 15 -6l100 -92l99 92 q6 6 15 6q8 0 13.5 -6.5t5.5 -15.5q0 -13 -12 -23l-101 -90q-12 -10 -20 -10q-10 0 -20 10l-101 90q-13 10 -13 23z" />
<glyph unicode="&#x11b;" horiz-adv-x="458" d="M45 183v112q0 75 56 129.5t135 54.5q76 0 131.5 -52t55.5 -130q0 -28 -6.5 -45t-21 -24t-26.5 -9t-33 -2h-226v-37q0 -59 42.5 -94.5t109.5 -35.5q34 0 59.5 10t39 20t21.5 10q11 0 19.5 -10.5t8.5 -20.5q0 -21 -43 -43.5t-107 -22.5q-95 0 -155 52.5t-60 137.5zM101 709 q0 9 5.5 15.5t13.5 6.5q9 0 15 -6l100 -92l99 92q6 6 15 6q8 0 13.5 -6.5t5.5 -15.5q0 -13 -12 -23l-101 -90q-12 -10 -20 -10q-10 0 -20 10l-101 90q-13 10 -13 23zM110 265h200q30 0 40 6.5t10 27.5q0 50 -35.5 88t-89.5 38q-52 0 -88.5 -36t-36.5 -86v-38z" />
<glyph unicode="&#x11c;" horiz-adv-x="541" d="M68 208v310q0 110 56.5 161.5t150.5 51.5q95 0 152 -48.5t57 -124.5q0 -34 -33 -34q-32 0 -33 25q-14 121 -142 121q-142 0 -142 -152v-310q0 -77 37 -115t105 -38t105 38t37 115v119h-134q-11 0 -17.5 8.5t-6.5 20.5q0 11 6.5 19.5t17.5 8.5h176q24 0 24 -26v-150 q0 -111 -56.5 -162.5t-151.5 -51.5t-151.5 51.5t-56.5 162.5zM138 872q0 15 13 22l104 56q8 5 17 5t17 -5l104 -56q13 -6 13 -23q0 -10 -6 -17t-14 -7q-1 0 -10 3l-104 55l-104 -56l-9 -3q-8 0 -14.5 8t-6.5 18z" />
<glyph unicode="&#x11d;" horiz-adv-x="452" d="M25 -99q0 75 85 109q-55 19 -55 69q0 45 50 72q-55 46 -55 126v38q0 73 47.5 118.5t124.5 45.5q70 0 117 -42q15 29 34 46t37 17q14 0 22 -8t8 -18q0 -18 -17 -22q-35 -7 -56 -43q28 -37 28 -94v-38q0 -72 -49 -119t-125 -47q-41 0 -77 17q-31 -17 -31 -39q0 -21 23 -32 t57.5 -14t75 -9.5t75 -16.5t57.5 -37t23 -70q0 -68 -54 -105t-142 -37q-90 0 -146.5 36t-56.5 97zM88 -93q0 -41 37.5 -66t101.5 -25q63 0 98.5 25t35.5 67q0 20 -10 35t-23.5 23t-35.5 14t-38.5 8t-41.5 4l-35 4q-89 -28 -89 -89zM99 618q0 15 13 22l104 56q8 5 17 5t17 -5 l104 -56q13 -6 13 -23q0 -10 -6 -17t-14 -7q-1 0 -10 3l-104 55l-104 -56l-9 -3q-8 0 -14.5 8t-6.5 18zM113 278q0 -52 29.5 -85t80.5 -33q49 0 78.5 33t29.5 84v38q0 50 -29.5 82.5t-79.5 32.5t-79.5 -32.5t-29.5 -82.5v-37z" />
<glyph unicode="&#x11e;" horiz-adv-x="541" d="M68 208v310q0 110 56.5 161.5t150.5 51.5q95 0 152 -48.5t57 -124.5q0 -34 -33 -34q-32 0 -33 25q-14 121 -142 121q-142 0 -142 -152v-310q0 -77 37 -115t105 -38t105 38t37 115v119h-134q-11 0 -17.5 8.5t-6.5 20.5q0 11 6.5 19.5t17.5 8.5h176q24 0 24 -26v-150 q0 -111 -56.5 -162.5t-151.5 -51.5t-151.5 51.5t-56.5 162.5zM159 968h44q0 -34 21.5 -57.5t51.5 -23.5q29 0 50.5 23.5t21.5 57.5h44q0 -47 -35.5 -82t-80.5 -35q-47 0 -82 35t-35 82z" />
<glyph unicode="&#x11f;" horiz-adv-x="452" d="M25 -99q0 75 85 109q-55 19 -55 69q0 45 50 72q-55 46 -55 126v38q0 73 47.5 118.5t124.5 45.5q70 0 117 -42q15 29 34 46t37 17q14 0 22 -8t8 -18q0 -18 -17 -22q-35 -7 -56 -43q28 -37 28 -94v-38q0 -72 -49 -119t-125 -47q-41 0 -77 17q-31 -17 -31 -39q0 -21 23 -32 t57.5 -14t75 -9.5t75 -16.5t57.5 -37t23 -70q0 -68 -54 -105t-142 -37q-90 0 -146.5 36t-56.5 97zM88 -93q0 -41 37.5 -66t101.5 -25q63 0 98.5 25t35.5 67q0 20 -10 35t-23.5 23t-35.5 14t-38.5 8t-41.5 4l-35 4q-89 -28 -89 -89zM113 278q0 -52 29.5 -85t80.5 -33 q49 0 78.5 33t29.5 84v38q0 50 -29.5 82.5t-79.5 32.5t-79.5 -32.5t-29.5 -82.5v-37zM116 714h44q0 -34 21.5 -57.5t51.5 -23.5q29 0 50.5 23.5t21.5 57.5h44q0 -47 -35.5 -82t-80.5 -35q-47 0 -82 35t-35 82z" />
<glyph unicode="&#x120;" horiz-adv-x="541" d="M68 208v310q0 110 56.5 161.5t150.5 51.5q95 0 152 -48.5t57 -124.5q0 -34 -33 -34q-32 0 -33 25q-14 121 -142 121q-142 0 -142 -152v-310q0 -77 37 -115t105 -38t105 38t37 115v119h-134q-11 0 -17.5 8.5t-6.5 20.5q0 11 6.5 19.5t17.5 8.5h176q24 0 24 -26v-150 q0 -111 -56.5 -162.5t-151.5 -51.5t-151.5 51.5t-56.5 162.5zM239 884q0 16 10.5 26t26.5 10q15 0 25.5 -10t10.5 -26q0 -15 -10.5 -26t-25.5 -11q-16 0 -26.5 11t-10.5 26z" />
<glyph unicode="&#x121;" horiz-adv-x="452" d="M25 -99q0 75 85 109q-55 19 -55 69q0 45 50 72q-55 46 -55 126v38q0 73 47.5 118.5t124.5 45.5q70 0 117 -42q15 29 34 46t37 17q14 0 22 -8t8 -18q0 -18 -17 -22q-35 -7 -56 -43q28 -37 28 -94v-38q0 -72 -49 -119t-125 -47q-41 0 -77 17q-31 -17 -31 -39q0 -21 23 -32 t57.5 -14t75 -9.5t75 -16.5t57.5 -37t23 -70q0 -68 -54 -105t-142 -37q-90 0 -146.5 36t-56.5 97zM88 -93q0 -41 37.5 -66t101.5 -25q63 0 98.5 25t35.5 67q0 20 -10 35t-23.5 23t-35.5 14t-38.5 8t-41.5 4l-35 4q-89 -28 -89 -89zM113 278q0 -52 29.5 -85t80.5 -33 q49 0 78.5 33t29.5 84v38q0 50 -29.5 82.5t-79.5 32.5t-79.5 -32.5t-29.5 -82.5v-37zM196 630q0 16 10.5 26t26.5 10q15 0 25.5 -10t10.5 -26q0 -15 -10.5 -26t-25.5 -11q-16 0 -26.5 11t-10.5 26z" />
<glyph unicode="&#x122;" horiz-adv-x="541" d="M68 208v310q0 110 56.5 161.5t150.5 51.5q95 0 152 -48.5t57 -124.5q0 -34 -33 -34q-32 0 -33 25q-14 121 -142 121q-142 0 -142 -152v-310q0 -77 37 -115t105 -38t105 38t37 115v119h-134q-11 0 -17.5 8.5t-6.5 20.5q0 11 6.5 19.5t17.5 8.5h176q24 0 24 -26v-150 q0 -111 -56.5 -162.5t-151.5 -51.5t-151.5 51.5t-56.5 162.5zM197 -130q0 12 11 18l111 62q6 2 9 2q10 0 17 -9t7 -19q0 -15 -13 -22l-106 -57q-6 -3 -11 -3q-10 0 -17.5 8.5t-7.5 19.5z" />
<glyph unicode="&#x123;" horiz-adv-x="452" d="M25 -99q0 75 85 109q-55 19 -55 69q0 45 50 72q-55 46 -55 126v38q0 73 47.5 118.5t124.5 45.5q70 0 117 -42q15 29 34 46t37 17q14 0 22 -8t8 -18q0 -18 -17 -22q-35 -7 -56 -43q28 -37 28 -94v-38q0 -72 -49 -119t-125 -47q-41 0 -77 17q-31 -17 -31 -39q0 -21 23 -32 t57.5 -14t75 -9.5t75 -16.5t57.5 -37t23 -70q0 -68 -54 -105t-142 -37q-90 0 -146.5 36t-56.5 97zM88 -93q0 -41 37.5 -66t101.5 -25q63 0 98.5 25t35.5 67q0 20 -10 35t-23.5 23t-35.5 14t-38.5 8t-41.5 4l-35 4q-89 -28 -89 -89zM113 278q0 -52 29.5 -85t80.5 -33 q49 0 78.5 33t29.5 84v38q0 50 -29.5 82.5t-79.5 32.5t-79.5 -32.5t-29.5 -82.5v-37zM153 619q0 13 11 18l112 61q3 3 8 3q11 0 17.5 -8.5t6.5 -19.5q0 -16 -12 -22l-107 -57q-5 -3 -10 -3q-10 0 -18 8.5t-8 19.5zM182 875q0 27 40 113q6 12 18 12q9 0 16.5 -6t7.5 -15 q0 -5 -1 -8l-20 -52q30 -12 30 -43q0 -20 -13.5 -33.5t-32.5 -13.5t-32 13.5t-13 32.5z" />
<glyph unicode="&#x124;" horiz-adv-x="573" d="M76 26v681q0 24 33 24t33 -24v-299h289v299q0 24 33 24t33 -24v-681q0 -12 -10 -19t-23 -7q-14 0 -23.5 7t-9.5 19v325h-289v-325q0 -12 -10 -19t-23 -7q-14 0 -23.5 7t-9.5 19zM153 872q0 15 13 22l104 56q8 5 17 5t17 -5l104 -56q13 -6 13 -23q0 -10 -6 -17t-14 -7 q-1 0 -10 3l-104 55l-104 -56l-9 -3q-8 0 -14.5 8t-6.5 18z" />
<glyph unicode="&#x125;" d="M-38 873q0 15 13 22l104 56q8 5 17 5t17 -5l104 -56q13 -6 13 -23q0 -10 -6 -17t-14 -7q-1 0 -10 3l-104 55l-104 -56l-9 -3q-8 0 -14.5 8t-6.5 18zM63 26v713q0 10 9 17t23 7t23.5 -7t9.5 -17v-336q17 32 51.5 54t80.5 22q72 0 124.5 -55t52.5 -132v-266q0 -12 -9.5 -19 t-23.5 -7q-12 0 -22 7t-10 19v266q0 49 -37 88t-87 39q-47 0 -83.5 -35t-36.5 -92v-266q0 -10 -10 -18t-23 -8t-22.5 8t-9.5 18z" />
<glyph unicode="&#x126;" horiz-adv-x="573" d="M19 565q0 26 22 26h35v116q0 24 33 24t33 -24v-116h289v116q0 24 33 24t33 -24v-116h33q10 0 16.5 -7.5t6.5 -18.5t-6.5 -18t-16.5 -7h-33v-514q0 -12 -10 -19t-23 -7q-14 0 -23.5 7t-9.5 19v325h-289v-325q0 -12 -10 -19t-23 -7q-14 0 -23.5 7t-9.5 19v514h-35 q-10 0 -16 7.5t-6 17.5zM142 408h289v132h-289v-132z" />
<glyph unicode="&#x127;" d="M9 605q0 11 7 18.5t18 7.5h29v108q0 10 9 17t23 7t23.5 -7t9.5 -17v-108h121q9 0 17 -7.5t8 -18.5q0 -10 -8 -17.5t-17 -7.5h-121v-177q17 32 51.5 54t80.5 22q72 0 124.5 -55t52.5 -132v-266q0 -12 -9.5 -19t-23.5 -7q-12 0 -22 7t-10 19v266q0 49 -37 88t-87 39 q-47 0 -83.5 -35t-36.5 -92v-266q0 -10 -10 -18t-23 -8t-22.5 8t-9.5 18v554h-29q-11 0 -18 7t-7 18z" />
<glyph unicode="&#x128;" horiz-adv-x="218" d="M-46 891q0 25 29.5 41t58.5 16q26 0 66 -17t66 -17t45 14.5t25 14.5q9 0 14.5 -7.5t5.5 -15.5q0 -28 -28 -42.5t-56 -14.5q-27 0 -66.5 17.5t-66.5 17.5q-25 0 -47 -16t-27 -16q-19 0 -19 25zM76 26v681q0 24 33 24t33 -24v-681q0 -12 -10 -19t-23 -7q-14 0 -23.5 7 t-9.5 19z" />
<glyph unicode="&#x129;" horiz-adv-x="191" d="M-60 637q0 25 29.5 41t58.5 16q26 0 66 -17t66 -17t45 14.5t25 14.5q9 0 14.5 -7.5t5.5 -15.5q0 -28 -28 -42.5t-56 -14.5q-27 0 -66.5 17.5t-66.5 17.5q-25 0 -47 -16t-27 -16q-19 0 -19 25zM63 26v423q0 10 9 17t23 7t23.5 -7t9.5 -17v-423q0 -10 -10 -18t-23 -8 t-22.5 8t-9.5 18z" />
<glyph unicode="&#x12a;" horiz-adv-x="218" d="M-24 914q0 11 7 18.5t18 7.5h215q9 0 17 -7.5t8 -18.5q0 -10 -8 -17.5t-17 -7.5h-215q-11 0 -18 7t-7 18zM76 26v681q0 24 33 24t33 -24v-681q0 -12 -10 -19t-23 -7q-14 0 -23.5 7t-9.5 19z" />
<glyph unicode="&#x12b;" horiz-adv-x="191" d="M-38 660q0 11 7 18.5t18 7.5h215q9 0 17 -7.5t8 -18.5q0 -10 -8 -17.5t-17 -7.5h-215q-11 0 -18 7t-7 18zM63 26v423q0 10 9 17t23 7t23.5 -7t9.5 -17v-423q0 -10 -10 -18t-23 -8t-22.5 8t-9.5 18z" />
<glyph unicode="&#x12c;" horiz-adv-x="218" d="M-8 968h44q0 -34 21.5 -57.5t51.5 -23.5q29 0 50.5 23.5t21.5 57.5h44q0 -47 -35.5 -82t-80.5 -35q-47 0 -82 35t-35 82zM76 26v681q0 24 33 24t33 -24v-681q0 -12 -10 -19t-23 -7q-14 0 -23.5 7t-9.5 19z" />
<glyph unicode="&#x12d;" horiz-adv-x="191" d="M-21 714h44q0 -34 21.5 -57.5t51.5 -23.5q29 0 50.5 23.5t21.5 57.5h44q0 -47 -35.5 -82t-80.5 -35q-47 0 -82 35t-35 82zM63 26v423q0 10 9 17t23 7t23.5 -7t9.5 -17v-423q0 -10 -10 -18t-23 -8t-22.5 8t-9.5 18z" />
<glyph unicode="&#x12e;" horiz-adv-x="218" d="M17 -122q0 71 64 132q-5 7 -5 16v681q0 24 33 24t33 -24v-681q0 -16 -17 -23q-68 -61 -68 -120q0 -45 62 -45q20 0 20 -18q0 -17 -25 -17q-41 0 -69 18.5t-28 56.5z" />
<glyph unicode="&#x12f;" horiz-adv-x="191" d="M-1 -124q0 74 69 136q-5 7 -5 14v423q0 10 9 17t23 7t23.5 -7t9.5 -17v-423q0 -16 -20 -24q-69 -60 -69 -121q0 -45 62 -45q20 0 20 -18q0 -17 -25 -17q-41 0 -69 18.5t-28 56.5zM50 655q0 17 13 29t32 12q18 0 30.5 -12t12.5 -29t-12.5 -29.5t-30.5 -12.5 q-19 0 -32 12.5t-13 29.5z" />
<glyph unicode="&#x130;" horiz-adv-x="218" d="M72 884q0 16 10.5 26t26.5 10q15 0 25.5 -10t10.5 -26q0 -15 -10.5 -26t-25.5 -11q-16 0 -26.5 11t-10.5 26zM76 26v681q0 24 33 24t33 -24v-681q0 -12 -10 -19t-23 -7q-14 0 -23.5 7t-9.5 19z" />
<glyph unicode="&#x131;" horiz-adv-x="191" d="M63 26v423q0 10 9 17t23 7t23.5 -7t9.5 -17v-423q0 -10 -10 -18t-23 -8t-22.5 8t-9.5 18z" />
<glyph unicode="&#x132;" horiz-adv-x="725" d="M76 26v681q0 24 33 24t33 -24v-681q0 -12 -10 -19t-23 -7q-14 0 -23.5 7t-9.5 19zM236 170q0 34 32 34q34 0 34 -26q0 -57 38.5 -90t103.5 -33q68 0 105 38t37 115v462h-141q-12 0 -18.5 9.5t-6.5 22.5q0 12 6.5 20.5t18.5 8.5h176q31 0 31 -25v-498q0 -111 -56.5 -162.5 t-149.5 -51.5q-95 0 -152.5 49.5t-57.5 126.5z" />
<glyph unicode="&#x133;" horiz-adv-x="375" d="M50 655q0 17 13 29t32 12q18 0 30.5 -12t12.5 -29t-12.5 -29.5t-30.5 -12.5q-19 0 -32 12.5t-13 29.5zM63 26v423q0 10 9 17t23 7t23.5 -7t9.5 -17v-423q0 -10 -10 -18t-23 -8t-22.5 8t-9.5 18zM147 -203q0 13 8 21.5t20 8.5q44 0 58 32.5t14 97.5v492q0 11 9 17.5 t23 6.5t23.5 -7t9.5 -17v-492q0 -189 -132 -189q-17 0 -25 8.5t-8 20.5zM234 655q0 17 13 29t32 12q18 0 30.5 -12t12.5 -29t-12.5 -29.5t-30.5 -12.5q-19 0 -32 12.5t-13 29.5z" />
<glyph unicode="&#x134;" horiz-adv-x="512" d="M23 170q0 34 32 34q34 0 34 -26q0 -57 38.5 -90t103.5 -33q68 0 105 38t37 115v462h-141q-12 0 -18.5 9.5t-6.5 22.5q0 12 6.5 20.5t18.5 8.5h176q31 0 31 -25v-498q0 -111 -56.5 -162.5t-149.5 -51.5q-95 0 -152.5 49.5t-57.5 126.5zM122 872q0 15 13 22l104 56 q8 5 17 5t17 -5l104 -56q13 -6 13 -23q0 -10 -6 -17t-14 -7q-1 0 -10 3l-104 55l-104 -56l-9 -3q-8 0 -14.5 8t-6.5 18z" />
<glyph unicode="&#x135;" horiz-adv-x="191" d="M-38 618q0 15 13 22l104 56q8 5 17 5t17 -5l104 -56q13 -6 13 -23q0 -10 -6 -17t-14 -7q-1 0 -10 3l-104 55l-104 -56l-9 -3q-8 0 -14.5 8t-6.5 18zM-37 -203q0 13 8 21.5t20 8.5q44 0 58 32.5t14 97.5v492q0 11 9 17.5t23 6.5t23.5 -7t9.5 -17v-492q0 -189 -132 -189 q-17 0 -25 8.5t-8 20.5z" />
<glyph unicode="&#x136;" horiz-adv-x="522" d="M76 26v681q0 24 33 24t33 -24v-354l289 368q7 10 21 10q12 0 24 -11t12 -23q0 -9 -5 -15l-215 -267l246 -370q4 -8 4 -13q0 -13 -12 -23.5t-26 -10.5t-25 15l-231 347l-82 -104v-230q0 -12 -10 -19t-23 -7q-14 0 -23.5 7t-9.5 19zM185 -130q0 12 11 18l111 62q6 2 9 2 q10 0 17 -9t7 -19q0 -15 -13 -22l-106 -57q-6 -3 -11 -3q-10 0 -17.5 8.5t-7.5 19.5z" />
<glyph unicode="&#x137;" horiz-adv-x="456" d="M63 26v713q0 10 9 17t23 7t23.5 -7t9.5 -17v-487l244 217q10 6 15 6q12 0 22.5 -9.5t10.5 -21.5t-7 -18l-147 -129l173 -253q4 -8 4 -14q0 -11 -11 -22t-24 -11q-12 0 -20 12l-168 247l-92 -81v-149q0 -10 -9.5 -18t-23.5 -8q-13 0 -22.5 8t-9.5 18zM151 -130q0 12 11 18 l111 62q6 2 9 2q10 0 17 -9t7 -19q0 -15 -13 -22l-106 -57q-6 -3 -11 -3q-10 0 -17.5 8.5t-7.5 19.5z" />
<glyph unicode="&#x138;" horiz-adv-x="456" d="M63 26v423q0 10 9 17t23 7t23.5 -7t9.5 -17v-197l244 217q10 6 15 6q12 0 22.5 -9.5t10.5 -21.5t-7 -18l-147 -129l173 -253q4 -8 4 -14q0 -11 -11 -22t-24 -11q-12 0 -20 12l-168 247l-92 -81v-149q0 -10 -9.5 -18t-23.5 -8q-13 0 -22.5 8t-9.5 18z" />
<glyph unicode="&#x139;" horiz-adv-x="463" d="M76 26v681q0 24 33 24t33 -24v-646h285q22 0 22 -30q0 -31 -22 -31h-321q-12 0 -21 7t-9 19zM182 873q0 13 11 18l112 61q3 3 8 3q11 0 17.5 -8.5t6.5 -19.5q0 -16 -12 -22l-107 -57q-4 -3 -10 -3q-10 0 -18 8.5t-8 19.5z" />
<glyph unicode="&#x13a;" horiz-adv-x="207" d="M34 834q0 12 11 18l112 61q3 3 8 3q11 0 17.5 -8.5t6.5 -19.5q0 -16 -12 -22l-107 -57q-4 -3 -10 -3q-10 0 -18 8.5t-8 19.5zM71 26v713q0 10 9 17t23 7t23.5 -7t9.5 -17v-713q0 -10 -9.5 -18t-23.5 -8q-13 0 -22.5 8t-9.5 18z" />
<glyph unicode="&#x13b;" horiz-adv-x="463" d="M76 26v681q0 24 33 24t33 -24v-646h285q22 0 22 -30q0 -31 -22 -31h-321q-12 0 -21 7t-9 19zM178 -130q0 12 11 18l111 62q6 2 9 2q10 0 17 -9t7 -19q0 -15 -13 -22l-106 -57q-6 -3 -11 -3q-10 0 -17.5 8.5t-7.5 19.5z" />
<glyph unicode="&#x13c;" horiz-adv-x="207" d="M29 -130q0 12 11 18l111 62q6 2 9 2q10 0 17 -9t7 -19q0 -15 -13 -22l-106 -57q-6 -3 -11 -3q-10 0 -17.5 8.5t-7.5 19.5zM71 26v713q0 10 9 17t23 7t23.5 -7t9.5 -17v-713q0 -10 -9.5 -18t-23.5 -8q-13 0 -22.5 8t-9.5 18z" />
<glyph unicode="&#x13d;" horiz-adv-x="463" d="M76 26v681q0 24 33 24t33 -24v-646h285q22 0 22 -30q0 -31 -22 -31h-321q-12 0 -21 7t-9 19zM294 695q0 19 13.5 32.5t32.5 13.5t32.5 -13.5t13.5 -32.5q0 -23 -41 -113q-5 -12 -18 -12q-9 0 -16.5 6t-7.5 15q0 6 2 9l19 52q-30 10 -30 43z" />
<glyph unicode="&#x13e;" horiz-adv-x="207" d="M71 26v713q0 10 9 17t23 7t23.5 -7t9.5 -17v-713q0 -10 -9.5 -18t-23.5 -8q-13 0 -22.5 8t-9.5 18zM200 695q0 19 13.5 32.5t32.5 13.5t32.5 -13.5t13.5 -32.5q0 -23 -41 -113q-5 -12 -18 -12q-9 0 -16.5 6t-7.5 15q0 6 2 9l19 52q-30 10 -30 43z" />
<glyph unicode="&#x13f;" horiz-adv-x="463" d="M76 26v681q0 24 33 24t33 -24v-646h285q22 0 22 -30q0 -31 -22 -31h-321q-12 0 -21 7t-9 19zM290 421q0 19 13.5 32t33.5 13t33.5 -13t13.5 -32q0 -18 -14 -31.5t-33 -13.5q-20 0 -33.5 13.5t-13.5 31.5z" />
<glyph unicode="&#x140;" horiz-adv-x="314" d="M71 26v713q0 10 9 17t23 7t23.5 -7t9.5 -17v-713q0 -10 -9.5 -18t-23.5 -8q-13 0 -22.5 8t-9.5 18zM211 300q0 19 13.5 32t33.5 13t33.5 -13t13.5 -32q0 -18 -14 -31.5t-33 -13.5q-20 0 -33.5 13.5t-13.5 31.5z" />
<glyph unicode="&#x141;" horiz-adv-x="469" d="M2 294q0 14 11 19l69 38v356q0 24 33 24t33 -24v-320l97 53q3 2 10 2q10 0 18 -9t8 -20q0 -14 -12 -21l-121 -67v-264h285q22 0 22 -30q0 -31 -22 -31h-321q-12 0 -21 7t-9 19v263l-45 -24q-5 -3 -10 -3q-10 0 -17.5 10t-7.5 22z" />
<glyph unicode="&#x142;" horiz-adv-x="304" d="M17 294q0 14 11 19l86 47v379q0 10 9 17t23 7t23.5 -7t9.5 -17v-343l74 41q4 2 10 2q10 0 18 -9t8 -20q0 -15 -11 -21l-99 -55v-308q0 -10 -9.5 -18t-23.5 -8q-13 0 -22.5 8t-9.5 18v273l-62 -34q-4 -3 -10 -3q-10 0 -17.5 10t-7.5 22z" />
<glyph unicode="&#x143;" horiz-adv-x="573" d="M76 26v680q0 25 33 25q28 0 52 -46l270 -532v554q0 24 33 24t33 -24v-681q0 -12 -10 -19t-23 -7q-25 0 -44 38l-278 541v-553q0 -12 -10 -19t-23 -7q-14 0 -23.5 7t-9.5 19zM205 873q0 13 11 18l112 61q3 3 8 3q11 0 17.5 -8.5t6.5 -19.5q0 -16 -12 -22l-107 -57 q-5 -3 -10 -3q-10 0 -18 8.5t-8 19.5z" />
<glyph unicode="&#x144;" d="M63 26v423q0 11 9 17.5t23 6.5q12 0 21 -7t9 -17v-46q17 32 52 54t82 22q72 0 125 -55t53 -132v-266q0 -12 -10 -19t-23 -7q-12 0 -22 7t-10 19v266q0 49 -37 88t-88 39q-47 0 -83 -35t-36 -92v-266q0 -10 -10 -18t-23 -8q-14 0 -23 8t-9 18zM170 619q0 13 11 18l112 61 q3 3 8 3q11 0 17.5 -8.5t6.5 -19.5q0 -16 -12 -22l-107 -57q-4 -3 -10 -3q-10 0 -18 8.5t-8 19.5z" />
<glyph unicode="&#x145;" horiz-adv-x="573" d="M76 26v680q0 25 33 25q28 0 52 -46l270 -532v554q0 24 33 24t33 -24v-681q0 -12 -10 -19t-23 -7q-25 0 -44 38l-278 541v-553q0 -12 -10 -19t-23 -7q-14 0 -23.5 7t-9.5 19zM207 -130q0 12 11 18l111 62q6 2 9 2q10 0 17 -9t7 -19q0 -15 -13 -22l-106 -57q-6 -3 -11 -3 q-10 0 -17.5 8.5t-7.5 19.5z" />
<glyph unicode="&#x146;" d="M63 26v423q0 11 9 17.5t23 6.5q12 0 21 -7t9 -17v-46q17 32 52 54t82 22q72 0 125 -55t53 -132v-266q0 -12 -10 -19t-23 -7q-12 0 -22 7t-10 19v266q0 49 -37 88t-88 39q-47 0 -83 -35t-36 -92v-266q0 -10 -10 -18t-23 -8q-14 0 -23 8t-9 18zM162 -130q0 12 11 18l111 62 q6 2 9 2q10 0 17 -9t7 -19q0 -15 -13 -22l-106 -57q-6 -3 -11 -3q-10 0 -17.5 8.5t-7.5 19.5z" />
<glyph unicode="&#x147;" horiz-adv-x="573" d="M76 26v680q0 25 33 25q28 0 52 -46l270 -532v554q0 24 33 24t33 -24v-681q0 -12 -10 -19t-23 -7q-25 0 -44 38l-278 541v-553q0 -12 -10 -19t-23 -7q-14 0 -23.5 7t-9.5 19zM152 963q0 9 5.5 15.5t13.5 6.5q9 0 15 -6l100 -92l99 92q6 6 15 6q8 0 13.5 -6.5t5.5 -15.5 q0 -13 -12 -23l-101 -90q-12 -10 -20 -10q-10 0 -20 10l-101 90q-13 10 -13 23z" />
<glyph unicode="&#x148;" d="M63 26v423q0 11 9 17.5t23 6.5q12 0 21 -7t9 -17v-46q17 32 52 54t82 22q72 0 125 -55t53 -132v-266q0 -12 -10 -19t-23 -7q-12 0 -22 7t-10 19v266q0 49 -37 88t-88 39q-47 0 -83 -35t-36 -92v-266q0 -10 -10 -18t-23 -8q-14 0 -23 8t-9 18zM110 709q0 9 5.5 15.5 t13.5 6.5q9 0 15 -6l100 -92l99 92q6 6 15 6q8 0 13.5 -6.5t5.5 -15.5q0 -13 -12 -23l-101 -90q-12 -10 -20 -10q-10 0 -20 10l-101 90q-13 10 -13 23z" />
<glyph unicode="&#x14a;" horiz-adv-x="573" d="M76 26v680q0 25 33 25q28 0 52 -46l270 -532v554q0 24 33 24t33 -24v-750q0 -189 -131 -189q-17 0 -25.5 8.5t-8.5 20.5q0 13 8 21.5t20 8.5q43 0 57.5 32.5t14.5 97.5v45q0 13 -12 36l-278 541v-553q0 -12 -10 -19t-23 -7q-14 0 -23.5 7t-9.5 19z" />
<glyph unicode="&#x14b;" d="M63 26v423q0 11 9 17.5t23 6.5q12 0 21 -7t9 -17v-46q17 32 52 54t82 22q72 0 125 -55t53 -132v-335q0 -189 -132 -189q-17 0 -25 8.5t-8 20.5q0 13 8 21.5t20 8.5q43 0 57.5 32.5t14.5 97.5v335q0 49 -37 88t-88 39q-47 0 -83 -35t-36 -92v-266q0 -10 -10 -18t-23 -8 q-14 0 -23 8t-9 18z" />
<glyph unicode="&#x14c;" horiz-adv-x="552" d="M68 208v310q0 110 56.5 161.5t151.5 51.5t151.5 -51.5t56.5 -161.5v-310q0 -111 -56.5 -162.5t-151.5 -51.5t-151.5 51.5t-56.5 162.5zM134 208q0 -153 142 -153t142 153v310q0 152 -142 152t-142 -152v-310zM144 914q0 11 7 18.5t18 7.5h215q9 0 17 -7.5t8 -18.5 q0 -10 -8 -17.5t-17 -7.5h-215q-11 0 -18 7t-7 18z" />
<glyph unicode="&#x14d;" horiz-adv-x="468" d="M44 183v109q0 76 56 131.5t133 55.5t134 -55t57 -132v-109q0 -75 -57.5 -132.5t-133.5 -57.5q-75 0 -132 57.5t-57 132.5zM101 660q0 11 7 18.5t18 7.5h215q9 0 17 -7.5t8 -18.5q0 -10 -8 -17.5t-17 -7.5h-215q-11 0 -18 7t-7 18zM109 183q0 -51 36.5 -90.5t87.5 -39.5 q52 0 89 39.5t37 90.5v109q0 49 -37.5 88t-88.5 39t-87.5 -39t-36.5 -88v-109z" />
<glyph unicode="&#x14e;" horiz-adv-x="552" d="M68 208v310q0 110 56.5 161.5t151.5 51.5t151.5 -51.5t56.5 -161.5v-310q0 -111 -56.5 -162.5t-151.5 -51.5t-151.5 51.5t-56.5 162.5zM134 208q0 -153 142 -153t142 153v310q0 152 -142 152t-142 -152v-310zM159 968h44q0 -34 21.5 -57.5t51.5 -23.5q29 0 50.5 23.5 t21.5 57.5h44q0 -47 -35.5 -82t-80.5 -35q-47 0 -82 35t-35 82z" />
<glyph unicode="&#x14f;" horiz-adv-x="468" d="M44 183v109q0 76 56 131.5t133 55.5t134 -55t57 -132v-109q0 -75 -57.5 -132.5t-133.5 -57.5q-75 0 -132 57.5t-57 132.5zM109 183q0 -51 36.5 -90.5t87.5 -39.5q52 0 89 39.5t37 90.5v109q0 49 -37.5 88t-88.5 39t-87.5 -39t-36.5 -88v-109zM117 714h44 q0 -34 21.5 -57.5t51.5 -23.5q29 0 50.5 23.5t21.5 57.5h44q0 -47 -35.5 -82t-80.5 -35q-47 0 -82 35t-35 82z" />
<glyph unicode="&#x150;" horiz-adv-x="552" d="M68 208v310q0 110 56.5 161.5t151.5 51.5t151.5 -51.5t56.5 -161.5v-310q0 -111 -56.5 -162.5t-151.5 -51.5t-151.5 51.5t-56.5 162.5zM134 208q0 -153 142 -153t142 153v310q0 152 -142 152t-142 -152v-310zM169 868q0 10 8 14l96 69q4 4 11 4q9 0 16 -7.5t7 -16.5 q0 -12 -9 -18l-91 -64q-5 -5 -12 -5q-10 0 -18 7.5t-8 16.5zM319 868q0 10 8 14l96 69q4 4 11 4q9 0 16 -7.5t7 -16.5q0 -12 -9 -18l-91 -64q-5 -5 -12 -5q-10 0 -18 7.5t-8 16.5z" />
<glyph unicode="&#x151;" horiz-adv-x="468" d="M44 183v109q0 76 56 131.5t133 55.5t134 -55t57 -132v-109q0 -75 -57.5 -132.5t-133.5 -57.5q-75 0 -132 57.5t-57 132.5zM109 183q0 -51 36.5 -90.5t87.5 -39.5q52 0 89 39.5t37 90.5v109q0 49 -37.5 88t-88.5 39t-87.5 -39t-36.5 -88v-109zM117 615q0 10 8 14l96 69 q4 4 11 4q9 0 16 -7.5t7 -16.5q0 -12 -9 -18l-91 -64q-5 -5 -12 -5q-10 0 -18 7.5t-8 16.5zM267 615q0 10 8 14l96 69q4 4 11 4q9 0 16 -7.5t7 -16.5q0 -12 -9 -18l-91 -64q-5 -5 -12 -5q-10 0 -18 7.5t-8 16.5z" />
<glyph unicode="&#x152;" horiz-adv-x="840" d="M68 208v310q0 110 54 161.5t146 51.5q110 0 156 -72v47q0 12 9.5 18.5t21.5 6.5h339q24 0 24 -29q0 -32 -24 -32h-310v-275h147q24 0 24 -30q0 -27 -24 -27h-147v-277h310q24 0 24 -31q0 -30 -24 -30h-339q-12 0 -21.5 7t-9.5 19v41q-46 -73 -156 -73q-92 0 -146 51.5 t-54 162.5zM134 208q0 -153 142 -153t142 153v310q0 152 -142 152t-142 -152v-310z" />
<glyph unicode="&#x153;" horiz-adv-x="771" d="M44 183v109q0 76 56 131.5t133 55.5q50 0 93 -26t67 -69q24 43 66 69t91 26q76 0 131 -52t55 -129q0 -28 -6.5 -45.5t-20.5 -24.5t-26 -9t-33 -2h-226v-37q0 -59 42.5 -94.5t111.5 -35.5q34 0 57.5 10t37 20t22.5 10q12 0 20.5 -10t8.5 -22q0 -20 -45 -42.5t-106 -22.5 t-108.5 25.5t-72.5 70.5q-25 -43 -67.5 -69.5t-91.5 -26.5q-75 0 -132 57.5t-57 132.5zM109 183q0 -51 36.5 -90.5t87.5 -39.5q52 0 89 39.5t37 90.5v109q0 49 -37.5 88t-88.5 39t-87.5 -39t-36.5 -88v-109zM424 265h200q30 0 40 6.5t10 27.5q0 50 -35.5 88t-89.5 38 q-52 0 -88.5 -35t-36.5 -84v-41z" />
<glyph unicode="&#x154;" horiz-adv-x="529" d="M76 26v681q0 22 25 24h177q97 0 156.5 -46t59.5 -151q0 -166 -156 -193l154 -296q4 -5 4 -13q0 -13 -12 -23.5t-26 -10.5q-18 0 -35 35l-154 300h-127v-307q0 -12 -10 -19t-23 -7q-14 0 -23.5 7t-9.5 19zM142 390h136q150 0 150 141q0 139 -150 139h-136v-280zM213 873 q0 13 11 18l112 61q3 3 8 3q11 0 17.5 -8.5t6.5 -19.5q0 -16 -12 -22l-107 -57q-5 -3 -10 -3q-10 0 -18 8.5t-8 19.5z" />
<glyph unicode="&#x155;" horiz-adv-x="331" d="M63 26v423q0 10 9 17t23 7q13 0 22 -7t9 -17v-49q18 33 53 56t81 23h35q10 0 18 -9t8 -21t-8 -21t-18 -9h-35q-52 0 -92 -40.5t-40 -105.5v-247q0 -10 -9.5 -18t-23.5 -8q-13 0 -22.5 8t-9.5 18zM88 619q0 13 11 18l112 61q3 3 8 3q11 0 17.5 -8.5t6.5 -19.5 q0 -16 -12 -22l-107 -57q-4 -3 -10 -3q-10 0 -18 8.5t-8 19.5z" />
<glyph unicode="&#x156;" horiz-adv-x="529" d="M76 26v681q0 22 25 24h177q97 0 156.5 -46t59.5 -151q0 -166 -156 -193l154 -296q4 -5 4 -13q0 -13 -12 -23.5t-26 -10.5q-18 0 -35 35l-154 300h-127v-307q0 -12 -10 -19t-23 -7q-14 0 -23.5 7t-9.5 19zM142 390h136q150 0 150 141q0 139 -150 139h-136v-280zM177 -130 q0 12 11 18l111 62q6 2 9 2q10 0 17 -9t7 -19q0 -15 -13 -22l-106 -57q-6 -3 -11 -3q-10 0 -17.5 8.5t-7.5 19.5z" />
<glyph unicode="&#x157;" horiz-adv-x="331" d="M-1 -130q0 12 11 18l111 62q6 2 9 2q10 0 17 -9t7 -19q0 -15 -13 -22l-106 -57q-6 -3 -11 -3q-10 0 -17.5 8.5t-7.5 19.5zM63 26v423q0 10 9 17t23 7q13 0 22 -7t9 -17v-49q18 33 53 56t81 23h35q10 0 18 -9t8 -21t-8 -21t-18 -9h-35q-52 0 -92 -40.5t-40 -105.5v-247 q0 -10 -9.5 -18t-23.5 -8q-13 0 -22.5 8t-9.5 18z" />
<glyph unicode="&#x158;" horiz-adv-x="529" d="M76 26v681q0 22 25 24h177q97 0 156.5 -46t59.5 -151q0 -166 -156 -193l154 -296q4 -5 4 -13q0 -13 -12 -23.5t-26 -10.5q-18 0 -35 35l-154 300h-127v-307q0 -12 -10 -19t-23 -7q-14 0 -23.5 7t-9.5 19zM142 390h136q150 0 150 141q0 139 -150 139h-136v-280zM143 963 q0 9 5.5 15.5t13.5 6.5q9 0 15 -6l100 -92l99 92q6 6 15 6q8 0 13.5 -6.5t5.5 -15.5q0 -13 -12 -23l-101 -90q-12 -10 -20 -10q-10 0 -20 10l-101 90q-13 10 -13 23z" />
<glyph unicode="&#x159;" horiz-adv-x="331" d="M27 709q0 9 5.5 15.5t13.5 6.5q9 0 15 -6l100 -92l99 92q6 6 15 6q8 0 13.5 -6.5t5.5 -15.5q0 -13 -12 -23l-101 -90q-12 -10 -20 -10q-10 0 -20 10l-101 90q-13 10 -13 23zM63 26v423q0 10 9 17t23 7q13 0 22 -7t9 -17v-49q18 33 53 56t81 23h35q10 0 18 -9t8 -21 t-8 -21t-18 -9h-35q-52 0 -92 -40.5t-40 -105.5v-247q0 -10 -9.5 -18t-23.5 -8q-13 0 -22.5 8t-9.5 18z" />
<glyph unicode="&#x15a;" horiz-adv-x="494" d="M36 101q0 12 9.5 24.5t20.5 12.5q8 0 20 -13l28 -29q15 -15 47.5 -28t75.5 -13q71 0 110 35.5t39 102.5q0 45 -18.5 76.5t-47.5 49t-64 31.5l-72 28q-35 14 -64 33.5t-47.5 55t-18.5 84.5q0 52 19.5 89.5t52.5 56.5t67.5 27.5t72.5 8.5q61 0 114.5 -17.5t53.5 -43.5 q0 -12 -8.5 -24.5t-20.5 -12.5q-6 0 -23 9.5t-47.5 19t-69.5 9.5q-63 0 -104 -27t-41 -89q0 -43 24.5 -72t61.5 -42t80 -31t80 -38.5t61.5 -65t24.5 -109.5q0 -103 -57 -154.5t-154 -51.5q-87 0 -146 37.5t-59 70.5zM173 873q0 13 11 18l112 61q3 3 8 3q11 0 17.5 -8.5 t6.5 -19.5q0 -16 -12 -22l-107 -57q-5 -3 -10 -3q-10 0 -18 8.5t-8 19.5z" />
<glyph unicode="&#x15b;" horiz-adv-x="385" d="M33 65q0 10 7 20t16 10q7 0 22 -11.5t43 -23.5t67 -12q53 0 78 20t25 51q0 36 -25.5 57.5t-61.5 31.5t-72.5 22t-62 39.5t-25.5 73.5q0 55 39.5 95.5t118.5 40.5q49 0 91.5 -15.5t42.5 -33.5q0 -10 -8 -22t-19 -12q-3 0 -37 14t-69 14q-50 0 -75 -24t-25 -54 q0 -31 25.5 -49t62 -27.5t73 -22t62 -44t25.5 -81.5q0 -60 -42.5 -94.5t-118.5 -34.5q-66 0 -111.5 23.5t-45.5 48.5zM114 619q0 13 11 18l112 61q3 3 8 3q11 0 17.5 -8.5t6.5 -19.5q0 -16 -12 -22l-107 -57q-4 -3 -10 -3q-10 0 -18 8.5t-8 19.5z" />
<glyph unicode="&#x15c;" horiz-adv-x="494" d="M36 101q0 12 9.5 24.5t20.5 12.5q8 0 20 -13l28 -29q15 -15 47.5 -28t75.5 -13q71 0 110 35.5t39 102.5q0 45 -18.5 76.5t-47.5 49t-64 31.5l-72 28q-35 14 -64 33.5t-47.5 55t-18.5 84.5q0 52 19.5 89.5t52.5 56.5t67.5 27.5t72.5 8.5q61 0 114.5 -17.5t53.5 -43.5 q0 -12 -8.5 -24.5t-20.5 -12.5q-6 0 -23 9.5t-47.5 19t-69.5 9.5q-63 0 -104 -27t-41 -89q0 -43 24.5 -72t61.5 -42t80 -31t80 -38.5t61.5 -65t24.5 -109.5q0 -103 -57 -154.5t-154 -51.5q-87 0 -146 37.5t-59 70.5zM110 872q0 15 13 22l104 56q8 5 17 5t17 -5l104 -56 q13 -6 13 -23q0 -10 -6 -17t-14 -7q-1 0 -10 3l-104 55l-104 -56l-9 -3q-8 0 -14.5 8t-6.5 18z" />
<glyph unicode="&#x15d;" horiz-adv-x="385" d="M33 65q0 10 7 20t16 10q7 0 22 -11.5t43 -23.5t67 -12q53 0 78 20t25 51q0 36 -25.5 57.5t-61.5 31.5t-72.5 22t-62 39.5t-25.5 73.5q0 55 39.5 95.5t118.5 40.5q49 0 91.5 -15.5t42.5 -33.5q0 -10 -8 -22t-19 -12q-3 0 -37 14t-69 14q-50 0 -75 -24t-25 -54 q0 -31 25.5 -49t62 -27.5t73 -22t62 -44t25.5 -81.5q0 -60 -42.5 -94.5t-118.5 -34.5q-66 0 -111.5 23.5t-45.5 48.5zM54 618q0 15 13 22l104 56q8 5 17 5t17 -5l104 -56q13 -6 13 -23q0 -10 -6 -17t-14 -7q-1 0 -10 3l-104 55l-104 -56l-9 -3q-8 0 -14.5 8t-6.5 18z" />
<glyph unicode="&#x15e;" horiz-adv-x="494" d="M36 101q0 12 9.5 24.5t20.5 12.5q8 0 20 -13l28 -29q15 -15 47.5 -28t75.5 -13q71 0 110 35.5t39 102.5q0 45 -18.5 76.5t-47.5 49t-64 31.5l-72 28q-35 14 -64 33.5t-47.5 55t-18.5 84.5q0 52 19.5 89.5t52.5 56.5t67.5 27.5t72.5 8.5q61 0 114.5 -17.5t53.5 -43.5 q0 -12 -8.5 -24.5t-20.5 -12.5q-6 0 -23 9.5t-47.5 19t-69.5 9.5q-63 0 -104 -27t-41 -89q0 -43 24.5 -72t61.5 -42t80 -31t80 -38.5t61.5 -65t24.5 -109.5q0 -90 -44.5 -141t-121.5 -62l-15 -57q48 -1 72 -21.5t24 -50.5t-23 -53.5t-66 -23.5q-25 0 -51.5 7t-26.5 19 q0 6 4.5 15t11.5 9q1 0 18.5 -7t37.5 -7q53 0 53 39q0 37 -63 42l-38 3l22 83h-5q-87 0 -146 37.5t-59 70.5z" />
<glyph unicode="&#x15f;" horiz-adv-x="385" d="M33 65q0 10 7 20t16 10q7 0 22 -11.5t43 -23.5t67 -12q53 0 78 20t25 51q0 36 -25.5 57.5t-61.5 31.5t-72.5 22t-62 39.5t-25.5 73.5q0 55 39.5 95.5t118.5 40.5q49 0 91.5 -15.5t42.5 -33.5q0 -10 -8 -22t-19 -12q-3 0 -37 14t-69 14q-50 0 -75 -24t-25 -54 q0 -31 25.5 -49t62 -27.5t73 -22t62 -44t25.5 -81.5q0 -53 -34 -86.5t-95 -40.5l-15 -56q48 -1 72 -21.5t24 -50.5t-23 -53.5t-66 -23.5q-25 0 -51.5 7t-26.5 19q0 6 4.5 15t11.5 9q1 0 18.5 -7t37.5 -7q53 0 53 39q0 37 -63 42l-38 3l22 83q-63 2 -106 25t-43 47z" />
<glyph unicode="&#x160;" horiz-adv-x="494" d="M36 101q0 12 9.5 24.5t20.5 12.5q8 0 20 -13l28 -29q15 -15 47.5 -28t75.5 -13q71 0 110 35.5t39 102.5q0 45 -18.5 76.5t-47.5 49t-64 31.5l-72 28q-35 14 -64 33.5t-47.5 55t-18.5 84.5q0 52 19.5 89.5t52.5 56.5t67.5 27.5t72.5 8.5q61 0 114.5 -17.5t53.5 -43.5 q0 -12 -8.5 -24.5t-20.5 -12.5q-6 0 -23 9.5t-47.5 19t-69.5 9.5q-63 0 -104 -27t-41 -89q0 -43 24.5 -72t61.5 -42t80 -31t80 -38.5t61.5 -65t24.5 -109.5q0 -103 -57 -154.5t-154 -51.5q-87 0 -146 37.5t-59 70.5zM110 963q0 9 5.5 15.5t13.5 6.5q9 0 15 -6l100 -92l99 92 q6 6 15 6q8 0 13.5 -6.5t5.5 -15.5q0 -13 -12 -23l-101 -90q-12 -10 -20 -10q-10 0 -20 10l-101 90q-13 10 -13 23z" />
<glyph unicode="&#x161;" horiz-adv-x="385" d="M33 65q0 10 7 20t16 10q7 0 22 -11.5t43 -23.5t67 -12q53 0 78 20t25 51q0 36 -25.5 57.5t-61.5 31.5t-72.5 22t-62 39.5t-25.5 73.5q0 55 39.5 95.5t118.5 40.5q49 0 91.5 -15.5t42.5 -33.5q0 -10 -8 -22t-19 -12q-3 0 -37 14t-69 14q-50 0 -75 -24t-25 -54 q0 -31 25.5 -49t62 -27.5t73 -22t62 -44t25.5 -81.5q0 -60 -42.5 -94.5t-118.5 -34.5q-66 0 -111.5 23.5t-45.5 48.5zM55 709q0 9 5.5 15.5t13.5 6.5q9 0 15 -6l100 -92l99 92q6 6 15 6q8 0 13.5 -6.5t5.5 -15.5q0 -13 -12 -23l-101 -90q-12 -10 -20 -10q-10 0 -20 10 l-101 90q-13 10 -13 23z" />
<glyph unicode="&#x162;" horiz-adv-x="481" d="M15 700q0 12 6.5 21.5t18.5 9.5h401q12 0 18.5 -9t6.5 -21q0 -13 -6.5 -22.5t-18.5 -9.5h-167v-643q0 -12 -10 -19t-23 -7q-14 0 -23.5 7t-9.5 19v643h-168q-11 0 -18 9t-7 22zM163 -130q0 12 11 18l111 62q6 2 9 2q10 0 17 -9t7 -19q0 -15 -13 -22l-106 -57 q-6 -3 -11 -3q-10 0 -17.5 8.5t-7.5 19.5z" />
<glyph unicode="&#x163;" horiz-adv-x="297" d="M61 147v527q0 10 10 17t22 7q13 0 23 -7t10 -17v-201h129q10 0 16.5 -8t6.5 -19t-6.5 -19t-16.5 -8h-129v-272q0 -49 20.5 -68.5t72.5 -19.5h28q13 0 21.5 -8.5t8.5 -20.5t-8.5 -21t-21.5 -9h-28q-158 0 -158 147zM64 -130q0 12 11 18l111 62q6 2 9 2q10 0 17 -9t7 -19 q0 -15 -13 -22l-106 -57q-6 -3 -11 -3q-10 0 -17.5 8.5t-7.5 19.5z" />
<glyph unicode="&#x164;" horiz-adv-x="481" d="M15 700q0 12 6.5 21.5t18.5 9.5h401q12 0 18.5 -9t6.5 -21q0 -13 -6.5 -22.5t-18.5 -9.5h-167v-643q0 -12 -10 -19t-23 -7q-14 0 -23.5 7t-9.5 19v643h-168q-11 0 -18 9t-7 22zM106 963q0 9 5.5 15.5t13.5 6.5q9 0 15 -6l100 -92l99 92q6 6 15 6q8 0 13.5 -6.5t5.5 -15.5 q0 -13 -12 -23l-101 -90q-12 -10 -20 -10q-10 0 -20 10l-101 90q-13 10 -13 23z" />
<glyph unicode="&#x165;" horiz-adv-x="297" d="M61 147v527q0 10 10 17t22 7q13 0 23 -7t10 -17v-201h129q10 0 16.5 -8t6.5 -19t-6.5 -19t-16.5 -8h-129v-272q0 -49 20.5 -68.5t72.5 -19.5h28q13 0 21.5 -8.5t8.5 -20.5t-8.5 -21t-21.5 -9h-28q-158 0 -158 147zM190 702q0 19 13.5 32.5t32.5 13.5t32.5 -13.5 t13.5 -32.5q0 -23 -41 -113q-5 -12 -18 -12q-9 0 -16.5 6t-7.5 15q0 6 2 9l19 52q-30 10 -30 43z" />
<glyph unicode="&#x166;" horiz-adv-x="481" d="M15 700q0 12 6.5 21.5t18.5 9.5h401q12 0 18.5 -9t6.5 -21q0 -13 -6.5 -22.5t-18.5 -9.5h-167v-277h127q11 0 17 -8t6 -18q0 -28 -23 -28h-127v-312q0 -12 -10 -19t-23 -7q-14 0 -23.5 7t-9.5 19v312h-128q-11 0 -17 8t-6 19t6 19t17 8h128v277h-168q-11 0 -18 9t-7 22z " />
<glyph unicode="&#x167;" horiz-adv-x="300" d="M61 147v527q0 10 10 17t22 7q13 0 23 -7t10 -17v-201h129q10 0 16.5 -8t6.5 -19t-6.5 -19t-16.5 -8h-129v-101h129q10 0 16.5 -8.5t6.5 -19.5t-6.5 -18.5t-16.5 -7.5h-129v-117q0 -49 20.5 -68.5t72.5 -19.5h28q13 0 21.5 -8.5t8.5 -20.5t-8.5 -21t-21.5 -9h-28 q-158 0 -158 147z" />
<glyph unicode="&#x168;" horiz-adv-x="566" d="M73 208v499q0 24 33 24t33 -24v-499q0 -76 37.5 -114.5t106.5 -38.5t106.5 38.5t37.5 114.5v499q0 24 33 24t33 -24v-499q0 -111 -57.5 -162.5t-152.5 -51.5t-152.5 51.5t-57.5 162.5zM126 891q0 25 29.5 41t58.5 16q26 0 66 -17t66 -17t45 14.5t25 14.5q9 0 14.5 -7.5 t5.5 -15.5q0 -28 -28 -42.5t-56 -14.5q-27 0 -66.5 17.5t-66.5 17.5q-25 0 -47 -16t-27 -16q-19 0 -19 25z" />
<glyph unicode="&#x169;" d="M58 181v267q0 9 9.5 17t23.5 8q12 0 22 -8t10 -17v-267q0 -50 37 -89t88 -39t88 39t37 89v268q0 10 10 17t23 7t22.5 -7t9.5 -17v-268q0 -75 -56.5 -131.5t-133.5 -56.5q-78 0 -134 56.5t-56 131.5zM93 637q0 25 29.5 41t58.5 16q26 0 66 -17t66 -17t45 14.5t25 14.5 q9 0 14.5 -7.5t5.5 -15.5q0 -28 -28 -42.5t-56 -14.5q-27 0 -66.5 17.5t-66.5 17.5q-25 0 -47 -16t-27 -16q-19 0 -19 25z" />
<glyph unicode="&#x16a;" horiz-adv-x="566" d="M73 208v499q0 24 33 24t33 -24v-499q0 -76 37.5 -114.5t106.5 -38.5t106.5 38.5t37.5 114.5v499q0 24 33 24t33 -24v-499q0 -111 -57.5 -162.5t-152.5 -51.5t-152.5 51.5t-57.5 162.5zM150 914q0 11 7 18.5t18 7.5h215q9 0 17 -7.5t8 -18.5q0 -10 -8 -17.5t-17 -7.5h-215 q-11 0 -18 7t-7 18z" />
<glyph unicode="&#x16b;" d="M58 181v267q0 9 9.5 17t23.5 8q12 0 22 -8t10 -17v-267q0 -50 37 -89t88 -39t88 39t37 89v268q0 10 10 17t23 7t22.5 -7t9.5 -17v-268q0 -75 -56.5 -131.5t-133.5 -56.5q-78 0 -134 56.5t-56 131.5zM116 660q0 11 7 18.5t18 7.5h215q9 0 17 -7.5t8 -18.5q0 -10 -8 -17.5 t-17 -7.5h-215q-11 0 -18 7t-7 18z" />
<glyph unicode="&#x16c;" horiz-adv-x="566" d="M73 208v499q0 24 33 24t33 -24v-499q0 -76 37.5 -114.5t106.5 -38.5t106.5 38.5t37.5 114.5v499q0 24 33 24t33 -24v-499q0 -111 -57.5 -162.5t-152.5 -51.5t-152.5 51.5t-57.5 162.5zM165 968h44q0 -34 21.5 -57.5t51.5 -23.5q29 0 50.5 23.5t21.5 57.5h44 q0 -47 -35.5 -82t-80.5 -35q-47 0 -82 35t-35 82z" />
<glyph unicode="&#x16d;" d="M58 181v267q0 9 9.5 17t23.5 8q12 0 22 -8t10 -17v-267q0 -50 37 -89t88 -39t88 39t37 89v268q0 10 10 17t23 7t22.5 -7t9.5 -17v-268q0 -75 -56.5 -131.5t-133.5 -56.5q-78 0 -134 56.5t-56 131.5zM131 714h44q0 -34 21.5 -57.5t51.5 -23.5q29 0 50.5 23.5t21.5 57.5h44 q0 -47 -35.5 -82t-80.5 -35q-47 0 -82 35t-35 82z" />
<glyph unicode="&#x16e;" horiz-adv-x="566" d="M73 208v499q0 24 33 24t33 -24v-499q0 -76 37.5 -114.5t106.5 -38.5t106.5 38.5t37.5 114.5v499q0 24 33 24t33 -24v-499q0 -111 -57.5 -162.5t-152.5 -51.5t-152.5 51.5t-57.5 162.5zM190 929q0 37 27 65t65 28q37 0 65 -28t28 -65q0 -38 -28 -67t-65 -29t-64.5 29 t-27.5 67zM223 929q0 -24 18 -43.5t42 -19.5q23 0 40.5 19.5t17.5 43.5q0 22 -17.5 40t-40.5 18q-25 0 -42.5 -18t-17.5 -40z" />
<glyph unicode="&#x16f;" d="M58 181v267q0 9 9.5 17t23.5 8q12 0 22 -8t10 -17v-267q0 -50 37 -89t88 -39t88 39t37 89v268q0 10 10 17t23 7t22.5 -7t9.5 -17v-268q0 -75 -56.5 -131.5t-133.5 -56.5q-78 0 -134 56.5t-56 131.5zM155 675q0 37 27 65t65 28q37 0 65 -28t28 -65q0 -38 -28 -67t-65 -29 t-64.5 29t-27.5 67zM188 675q0 -24 18 -43.5t42 -19.5q23 0 40.5 19.5t17.5 43.5q0 22 -17.5 40t-40.5 18q-25 0 -42.5 -18t-17.5 -40z" />
<glyph unicode="&#x170;" horiz-adv-x="566" d="M73 208v499q0 24 33 24t33 -24v-499q0 -76 37.5 -114.5t106.5 -38.5t106.5 38.5t37.5 114.5v499q0 24 33 24t33 -24v-499q0 -111 -57.5 -162.5t-152.5 -51.5t-152.5 51.5t-57.5 162.5zM182 868q0 10 8 14l96 69q4 4 11 4q9 0 16 -7.5t7 -16.5q0 -12 -9 -18l-91 -64 q-5 -5 -12 -5q-10 0 -18 7.5t-8 16.5zM332 868q0 10 8 14l96 69q4 4 11 4q9 0 16 -7.5t7 -16.5q0 -12 -9 -18l-91 -64q-5 -5 -12 -5q-10 0 -18 7.5t-8 16.5z" />
<glyph unicode="&#x171;" d="M58 181v267q0 9 9.5 17t23.5 8q12 0 22 -8t10 -17v-267q0 -50 37 -89t88 -39t88 39t37 89v268q0 10 10 17t23 7t22.5 -7t9.5 -17v-268q0 -75 -56.5 -131.5t-133.5 -56.5q-78 0 -134 56.5t-56 131.5zM139 614q0 10 8 14l96 69q4 4 11 4q9 0 16 -7.5t7 -16.5q0 -12 -9 -18 l-91 -64q-5 -5 -12 -5q-10 0 -18 7.5t-8 16.5zM289 614q0 10 8 14l96 69q4 4 11 4q9 0 16 -7.5t7 -16.5q0 -12 -9 -18l-91 -64q-5 -5 -12 -5q-10 0 -18 7.5t-8 16.5z" />
<glyph unicode="&#x172;" horiz-adv-x="566" d="M73 208v499q0 24 33 24t33 -24v-499q0 -76 37.5 -114.5t106.5 -38.5t106.5 38.5t37.5 114.5v499q0 24 33 24t33 -24v-499q0 -167 -134 -204q-74 -65 -74 -125q0 -45 62 -45q20 0 20 -18q0 -17 -25 -17q-41 0 -69 18.5t-28 56.5q0 63 53 121q-2 0 -7 -0.5t-8 -0.5 q-95 0 -152.5 51.5t-57.5 162.5z" />
<glyph unicode="&#x173;" d="M58 181v267q0 9 9.5 17t23.5 8q12 0 22 -8t10 -17v-267q0 -50 37 -89t88 -39t88 39t37 89v268q0 10 10 17t23 7t22.5 -7t9.5 -17v-268q0 -59 -36.5 -108.5t-93.5 -69.5q-73 -64 -73 -124q0 -45 62 -45q20 0 20 -18q0 -17 -25 -17q-41 0 -69 18.5t-28 56.5q0 62 52 119 q-78 1 -133.5 57t-55.5 131z" />
<glyph unicode="&#x174;" horiz-adv-x="787" d="M22 704q0 11 12 19t26 8q21 0 26 -17l173 -614l100 373q5 23 35 23q27 0 34 -23l100 -373l173 614q5 17 26 17q14 0 26 -8t12 -19q0 -5 -1 -8l-196 -678q-8 -24 -40 -24q-33 0 -39 24l-95 353l-95 -353q-6 -24 -39 -24t-40 24l-197 678q-1 3 -1 8zM259 872q0 15 13 22 l104 56q8 5 17 5t17 -5l104 -56q13 -6 13 -23q0 -10 -6 -17t-14 -7q-1 0 -10 3l-104 55l-104 -56l-9 -3q-8 0 -14.5 8t-6.5 18z" />
<glyph unicode="&#x175;" horiz-adv-x="667" d="M15 446q0 12 12.5 20.5t26.5 8.5q18 0 23 -15l128 -356l103 325q5 17 26 17t26 -17l99 -329l131 360q3 15 22 15q14 0 26.5 -8t12.5 -21q0 -9 -4 -15l-156 -423q-5 -16 -26 -16q-19 0 -27 15l-104 325l-103 -320q-6 -20 -29 -20q-21 0 -27 20l-156 419q-4 8 -4 15z M199 618q0 15 13 22l104 56q8 5 17 5t17 -5l104 -56q13 -6 13 -23q0 -10 -6 -17t-14 -7q-1 0 -10 3l-104 55l-104 -56l-9 -3q-8 0 -14.5 8t-6.5 18z" />
<glyph unicode="&#x176;" horiz-adv-x="531" d="M19 703q0 12 11.5 20t24.5 8q16 0 26 -20l184 -365l185 365q10 20 26 20q13 0 24.5 -8t11.5 -20q0 -9 -4 -18l-208 -397q-2 -6 -2 -8v-254q0 -12 -9.5 -19t-23.5 -7q-13 0 -23 7t-10 19v254q0 5 -1 8l-207 397q-5 9 -5 18zM131 872q0 15 13 22l104 56q8 5 17 5t17 -5 l104 -56q13 -6 13 -23q0 -10 -6 -17t-14 -7q-1 0 -10 3l-104 55l-104 -56l-9 -3q-8 0 -14.5 8t-6.5 18z" />
<glyph unicode="&#x177;" horiz-adv-x="420" d="M14 448q0 12 13 21.5t27 9.5q19 0 23 -14l137 -368l129 368q6 14 22 14q13 0 26.5 -9.5t13.5 -22.5q0 -6 -2 -8l-155 -420l-18 -49q-5 -13 -19.5 -47t-24.5 -49l-26 -40q-17 -25 -32.5 -36t-37.5 -20.5t-45 -9.5q-30 0 -30 29q0 30 20 30q46 0 85.5 55.5t59.5 137.5 l-163 419q-3 5 -3 9zM79 618q0 15 13 22l104 56q8 5 17 5t17 -5l104 -56q13 -6 13 -23q0 -10 -6 -17t-14 -7q-1 0 -10 3l-104 55l-104 -56l-9 -3q-8 0 -14.5 8t-6.5 18z" />
<glyph unicode="&#x178;" horiz-adv-x="531" d="M19 703q0 12 11.5 20t24.5 8q16 0 26 -20l184 -365l185 365q10 20 26 20q13 0 24.5 -8t11.5 -20q0 -9 -4 -18l-208 -397q-2 -6 -2 -8v-254q0 -12 -9.5 -19t-23.5 -7q-13 0 -23 7t-10 19v254q0 5 -1 8l-207 397q-5 9 -5 18zM168 884q0 16 10.5 26t26.5 10q15 0 25.5 -10 t10.5 -26q0 -15 -10.5 -26t-25.5 -11q-16 0 -26.5 11t-10.5 26zM291 884q0 16 10.5 26t26.5 10t26 -10t10 -26q0 -15 -10.5 -26t-25.5 -11q-16 0 -26.5 11t-10.5 26z" />
<glyph unicode="&#x179;" horiz-adv-x="484" d="M24 23q0 11 6 23l333 624h-302q-11 0 -18 9t-7 22q0 12 6.5 21t18.5 9h363q25 0 25 -21q0 -12 -8 -26l-332 -623h327q12 0 18.5 -9t6.5 -21t-6.5 -21.5t-18.5 -9.5h-388q-24 0 -24 23zM166 873q0 13 11 18l112 61q3 3 8 3q11 0 17.5 -8.5t6.5 -19.5q0 -16 -12 -22 l-107 -57q-4 -3 -10 -3q-10 0 -18 8.5t-8 19.5z" />
<glyph unicode="&#x17a;" horiz-adv-x="401" d="M24 26q0 11 10 25l245 365h-221q-10 0 -17 8.5t-7 19.5q0 12 7 20.5t17 8.5h283q10 0 17.5 -7t7.5 -19q0 -13 -8 -24l-246 -365h242q10 0 17 -8.5t7 -21.5q0 -11 -7 -19.5t-17 -8.5h-303q-12 0 -19.5 8t-7.5 18zM131 619q0 13 11 18l112 61q3 3 8 3q11 0 17.5 -8.5 t6.5 -19.5q0 -16 -12 -22l-107 -57q-5 -3 -10 -3q-10 0 -18 8.5t-8 19.5z" />
<glyph unicode="&#x17b;" horiz-adv-x="484" d="M24 23q0 11 6 23l333 624h-302q-11 0 -18 9t-7 22q0 12 6.5 21t18.5 9h363q25 0 25 -21q0 -12 -8 -26l-332 -623h327q12 0 18.5 -9t6.5 -21t-6.5 -21.5t-18.5 -9.5h-388q-24 0 -24 23zM202 884q0 16 10.5 26t26.5 10q15 0 25.5 -10t10.5 -26q0 -15 -10.5 -26t-25.5 -11 q-16 0 -26.5 11t-10.5 26z" />
<glyph unicode="&#x17c;" horiz-adv-x="401" d="M24 26q0 11 10 25l245 365h-221q-10 0 -17 8.5t-7 19.5q0 12 7 20.5t17 8.5h283q10 0 17.5 -7t7.5 -19q0 -13 -8 -24l-246 -365h242q10 0 17 -8.5t7 -21.5q0 -11 -7 -19.5t-17 -8.5h-303q-12 0 -19.5 8t-7.5 18zM162 630q0 16 10.5 26t26.5 10q15 0 25.5 -10t10.5 -26 q0 -15 -10.5 -26t-25.5 -11q-16 0 -26.5 11t-10.5 26z" />
<glyph unicode="&#x17d;" horiz-adv-x="484" d="M24 23q0 11 6 23l333 624h-302q-11 0 -18 9t-7 22q0 12 6.5 21t18.5 9h363q25 0 25 -21q0 -12 -8 -26l-332 -623h327q12 0 18.5 -9t6.5 -21t-6.5 -21.5t-18.5 -9.5h-388q-24 0 -24 23zM102 963q0 9 5.5 15.5t13.5 6.5q9 0 15 -6l100 -92l99 92q6 6 15 6q8 0 13.5 -6.5 t5.5 -15.5q0 -13 -12 -23l-101 -90q-12 -10 -20 -10q-10 0 -20 10l-101 90q-13 10 -13 23z" />
<glyph unicode="&#x17e;" horiz-adv-x="401" d="M24 26q0 11 10 25l245 365h-221q-10 0 -17 8.5t-7 19.5q0 12 7 20.5t17 8.5h283q10 0 17.5 -7t7.5 -19q0 -13 -8 -24l-246 -365h242q10 0 17 -8.5t7 -21.5q0 -11 -7 -19.5t-17 -8.5h-303q-12 0 -19.5 8t-7.5 18zM64 709q0 9 5.5 15.5t13.5 6.5q9 0 15 -6l100 -92l99 92 q6 6 15 6q8 0 13.5 -6.5t5.5 -15.5q0 -13 -12 -23l-101 -90q-12 -10 -20 -10q-10 0 -20 10l-101 90q-13 10 -13 23z" />
<glyph unicode="&#x192;" horiz-adv-x="345" d="M-76 -108q0 14 8.5 23.5t19.5 9.5h21q57 0 76 135l73 523q10 76 72 130.5t136 54.5h20q10 0 16 -8t6 -20q0 -14 -8 -23t-19 -9h-19q-52 0 -91.5 -36.5t-47.5 -88.5l-24 -167h144q9 0 15 -7.5t6 -17.5q0 -11 -7.5 -20t-17.5 -9h-148l-42 -302q-27 -197 -144 -197h-22 q-11 0 -17 8.5t-6 20.5z" />
<glyph unicode="&#x1fc;" horiz-adv-x="715" d="M73 31v487q0 110 56.5 161.5t149.5 51.5h388q24 0 24 -29q0 -13 -6.5 -22.5t-17.5 -9.5h-235v-275h147q12 0 18.5 -8.5t6.5 -21.5q0 -27 -25 -27h-147v-277h235q11 0 17.5 -9t6.5 -22q0 -30 -24 -30h-270q-12 0 -21.5 7t-9.5 19v312h-229v-307q0 -16 -6.5 -23.5 t-26.5 -7.5q-31 0 -31 31zM137 395h229v275h-87q-142 0 -142 -152v-123zM305 872q0 12 11 18l112 61q3 3 8 3q11 0 17.5 -8.5t6.5 -19.5q0 -16 -12 -22l-107 -57q-5 -3 -10 -3q-10 0 -18 8.5t-8 19.5z" />
<glyph unicode="&#x1fd;" horiz-adv-x="728" d="M30 125q0 77 59 107t173 30h51v24q0 56 -29.5 96.5t-90.5 40.5q-38 0 -71 -14.5t-35 -14.5q-11 0 -18.5 11.5t-7.5 22.5q0 19 43.5 35.5t92.5 16.5q110 0 153 -94q24 42 65 67.5t89 25.5q73 0 130.5 -49.5t57.5 -143.5q0 -43 -18 -56t-69 -13h-224v-37q0 -59 41.5 -94.5 t107.5 -35.5q33 0 58.5 10t40 20t22.5 10q10 0 19 -10t9 -21q0 -23 -51 -44.5t-108 -21.5t-105 27t-72 75q-31 -51 -77 -76.5t-95 -25.5q-60 0 -100.5 34t-40.5 98zM95 129q0 -39 24 -60t62 -21q50 0 91 35.5t41 69.5v64h-43q-40 0 -67.5 -3t-54 -11.5t-40 -27t-13.5 -46.5z M289 619q0 13 11 18l112 61q3 3 8 3q11 0 17.5 -8.5t6.5 -19.5q0 -16 -12 -22l-107 -57q-5 -3 -10 -3q-10 0 -18 8.5t-8 19.5zM381 265h198q31 0 40.5 6.5t9.5 25.5q0 52 -35.5 90t-89.5 38q-51 0 -87 -35.5t-36 -85.5v-39z" />
<glyph unicode="&#x1fe;" horiz-adv-x="552" d="M60 -2q0 6 3 12l35 69q-30 48 -30 129v310q0 110 56.5 161.5t151.5 51.5q83 0 135 -39l33 65q5 12 20 12q10 0 19.5 -8t9.5 -19q0 -8 -4 -13l-39 -77q34 -53 34 -134v-310q0 -111 -56.5 -162.5t-151.5 -51.5q-88 0 -141 43l-25 -49q-6 -15 -24 -15q-10 0 -18 7.5t-8 17.5 zM134 208q0 -30 4 -50l242 475q-36 37 -104 37q-142 0 -142 -152v-310zM166 98q36 -43 110 -43q142 0 142 153v310q0 28 -7 58zM205 873q0 13 11 18l112 61q3 3 8 3q11 0 17.5 -8.5t6.5 -19.5q0 -16 -12 -22l-107 -57q-5 -3 -10 -3q-10 0 -18 8.5t-8 19.5z" />
<glyph unicode="&#x1ff;" horiz-adv-x="468" d="M44 183v109q0 76 56 131.5t133 55.5q51 0 97 -27l28 48q5 9 15 9q9 0 15.5 -6.5t6.5 -15.5q0 -8 -4 -13l-27 -47q60 -57 60 -135v-109q0 -75 -57.5 -132.5t-133.5 -57.5q-56 0 -101 31l-27 -46q-6 -10 -17 -10q-8 0 -14 5.5t-6 13.5q0 6 4 11l29 51q-57 57 -57 134z M109 183q0 -43 25 -77l166 292q-32 21 -67 21q-51 0 -87.5 -39t-36.5 -88v-109zM162 77q32 -24 71 -24q52 0 89 39.5t37 90.5v109q0 40 -28 78zM168 619q0 13 11 18l112 61q3 3 8 3q11 0 17.5 -8.5t6.5 -19.5q0 -16 -12 -22l-107 -57q-4 -3 -10 -3q-10 0 -18 8.5t-8 19.5z " />
<glyph unicode="&#x218;" horiz-adv-x="494" d="M36 101q0 12 9.5 24.5t20.5 12.5q8 0 20 -13l28 -29q15 -15 47.5 -28t75.5 -13q71 0 110 35.5t39 102.5q0 45 -18.5 76.5t-47.5 49t-64 31.5l-72 28q-35 14 -64 33.5t-47.5 55t-18.5 84.5q0 52 19.5 89.5t52.5 56.5t67.5 27.5t72.5 8.5q61 0 114.5 -17.5t53.5 -43.5 q0 -12 -8.5 -24.5t-20.5 -12.5q-6 0 -23 9.5t-47.5 19t-69.5 9.5q-63 0 -104 -27t-41 -89q0 -43 24.5 -72t61.5 -42t80 -31t80 -38.5t61.5 -65t24.5 -109.5q0 -103 -57 -154.5t-154 -51.5q-87 0 -146 37.5t-59 70.5zM181 -130q0 12 11 18l111 62q6 2 9 2q10 0 17 -9t7 -19 q0 -15 -13 -22l-106 -57q-6 -3 -11 -3q-10 0 -17.5 8.5t-7.5 19.5z" />
<glyph unicode="&#x219;" horiz-adv-x="385" d="M33 65q0 10 7 20t16 10q7 0 22 -11.5t43 -23.5t67 -12q53 0 78 20t25 51q0 36 -25.5 57.5t-61.5 31.5t-72.5 22t-62 39.5t-25.5 73.5q0 55 39.5 95.5t118.5 40.5q49 0 91.5 -15.5t42.5 -33.5q0 -10 -8 -22t-19 -12q-3 0 -37 14t-69 14q-50 0 -75 -24t-25 -54 q0 -31 25.5 -49t62 -27.5t73 -22t62 -44t25.5 -81.5q0 -60 -42.5 -94.5t-118.5 -34.5q-66 0 -111.5 23.5t-45.5 48.5zM117 -130q0 12 11 18l111 62q6 2 9 2q10 0 17 -9t7 -19q0 -15 -13 -22l-106 -57q-6 -3 -11 -3q-10 0 -17.5 8.5t-7.5 19.5z" />
<glyph unicode="&#x237;" horiz-adv-x="191" d="M-37 -203q0 13 8 21.5t20 8.5q44 0 58 32.5t14 97.5v492q0 11 9 17.5t23 6.5t23.5 -7t9.5 -17v-492q0 -189 -132 -189q-17 0 -25 8.5t-8 20.5z" />
<glyph unicode="&#x259;" horiz-adv-x="458" d="M35 176q0 22 5 37.5t12.5 23.5t20.5 12t22.5 5t26.5 1h226v37q0 59 -42.5 95t-110.5 36q-34 0 -59 -10t-38.5 -20t-21.5 -10q-11 0 -19.5 10t-8.5 20q0 21 43 43.5t107 22.5q94 0 154.5 -52.5t60.5 -136.5v-112q0 -75 -56.5 -130t-134.5 -55q-77 0 -132 52t-55 131z M98 173q0 -50 35.5 -88t88.5 -38q52 0 89 36t37 86v38h-200q-30 0 -40 -6.5t-10 -27.5z" />
<glyph unicode="&#x2c6;" horiz-adv-x="268" d="M0 618q0 15 13 22l104 56q8 5 17 5t17 -5l104 -56q13 -6 13 -23q0 -10 -6 -17t-14 -7q-1 0 -10 3l-104 55l-104 -56l-9 -3q-8 0 -14.5 8t-6.5 18z" />
<glyph unicode="&#x2c7;" horiz-adv-x="283" d="M8 709q0 9 5.5 15.5t13.5 6.5q9 0 15 -6l100 -92l99 92q6 6 15 6q8 0 13.5 -6.5t5.5 -15.5q0 -13 -12 -23l-101 -90q-12 -10 -20 -10q-10 0 -20 10l-101 90q-13 10 -13 23z" />
<glyph unicode="&#x2d8;" horiz-adv-x="233" d="M0 714h44q0 -34 21.5 -57.5t51.5 -23.5q29 0 50.5 23.5t21.5 57.5h44q0 -47 -35.5 -82t-80.5 -35q-47 0 -82 35t-35 82z" />
<glyph unicode="&#x2d9;" horiz-adv-x="202" d="M70 630q0 16 10.5 26t26.5 10q15 0 25.5 -10t10.5 -26q0 -15 -10.5 -26t-25.5 -11q-16 0 -26.5 11t-10.5 26z" />
<glyph unicode="&#x2da;" horiz-adv-x="185" d="M0 675q0 37 27 65t65 28q37 0 65 -28t28 -65q0 -38 -28 -67t-65 -29t-64.5 29t-27.5 67zM33 675q0 -24 18 -43.5t42 -19.5q23 0 40.5 19.5t17.5 43.5q0 22 -17.5 40t-40.5 18q-25 0 -42.5 -18t-17.5 -40z" />
<glyph unicode="&#x2db;" horiz-adv-x="122" d="M0 -126q0 78 81 147l33 -17q-74 -65 -74 -125q0 -45 62 -45q20 0 20 -18q0 -17 -25 -17q-41 0 -69 18.5t-28 56.5z" />
<glyph unicode="&#x2dc;" horiz-adv-x="310" d="M0 637q0 25 29.5 41t58.5 16q26 0 66 -17t66 -17t45 14.5t25 14.5q9 0 14.5 -7.5t5.5 -15.5q0 -28 -28 -42.5t-56 -14.5q-27 0 -66.5 17.5t-66.5 17.5q-25 0 -47 -16t-27 -16q-19 0 -19 25z" />
<glyph unicode="&#x2dd;" horiz-adv-x="288" d="M0 614q0 10 8 14l96 69q4 4 11 4q9 0 16 -7.5t7 -16.5q0 -12 -9 -18l-91 -64q-5 -5 -12 -5q-10 0 -18 7.5t-8 16.5zM150 614q0 10 8 14l96 69q4 4 11 4q9 0 16 -7.5t7 -16.5q0 -12 -9 -18l-91 -64q-5 -5 -12 -5q-10 0 -18 7.5t-8 16.5z" />
<glyph unicode="&#x3c0;" horiz-adv-x="492" d="M63 25v423q0 12 9 18.5t21 6.5h305q12 0 21.5 -6.5t9.5 -18.5v-423q0 -25 -33 -25t-33 25v387h-234v-387q0 -25 -33 -25t-33 25z" />
<glyph unicode="&#x1e80;" horiz-adv-x="787" d="M22 704q0 11 12 19t26 8q21 0 26 -17l173 -614l100 373q5 23 35 23q27 0 34 -23l100 -373l173 614q5 17 26 17q14 0 26 -8t12 -19q0 -5 -1 -8l-196 -678q-8 -24 -40 -24q-33 0 -39 24l-95 353l-95 -353q-6 -24 -39 -24t-40 24l-197 678q-1 3 -1 8zM311 927q0 10 7 19 t17 9q5 0 9 -3l111 -61q11 -5 11 -18q0 -11 -8 -19.5t-18 -8.5q-6 0 -10 3l-106 57q-13 6 -13 22z" />
<glyph unicode="&#x1e81;" horiz-adv-x="667" d="M15 446q0 12 12.5 20.5t26.5 8.5q18 0 23 -15l128 -356l103 325q5 17 26 17t26 -17l99 -329l131 360q3 15 22 15q14 0 26.5 -8t12.5 -21q0 -9 -4 -15l-156 -423q-5 -16 -26 -16q-19 0 -27 15l-104 325l-103 -320q-6 -20 -29 -20q-21 0 -27 20l-156 419q-4 8 -4 15z M248 673q0 10 7 19t17 9q4 0 9 -3l111 -61q11 -5 11 -18q0 -11 -8 -19.5t-18 -8.5q-5 0 -10 3l-106 57q-13 6 -13 22z" />
<glyph unicode="&#x1e82;" horiz-adv-x="787" d="M22 704q0 11 12 19t26 8q21 0 26 -17l173 -614l100 373q5 23 35 23q27 0 34 -23l100 -373l173 614q5 17 26 17q14 0 26 -8t12 -19q0 -5 -1 -8l-196 -678q-8 -24 -40 -24q-33 0 -39 24l-95 353l-95 -353q-6 -24 -39 -24t-40 24l-197 678q-1 3 -1 8zM321 873q0 13 11 18 l112 61q3 3 8 3q11 0 17.5 -8.5t6.5 -19.5q0 -16 -12 -22l-107 -57q-5 -3 -10 -3q-10 0 -18 8.5t-8 19.5z" />
<glyph unicode="&#x1e83;" horiz-adv-x="667" d="M15 446q0 12 12.5 20.5t26.5 8.5q18 0 23 -15l128 -356l103 325q5 17 26 17t26 -17l99 -329l131 360q3 15 22 15q14 0 26.5 -8t12.5 -21q0 -9 -4 -15l-156 -423q-5 -16 -26 -16q-19 0 -27 15l-104 325l-103 -320q-6 -20 -29 -20q-21 0 -27 20l-156 419q-4 8 -4 15z M263 619q0 13 11 18l112 61q3 3 8 3q11 0 17.5 -8.5t6.5 -19.5q0 -16 -12 -22l-107 -57q-5 -3 -10 -3q-10 0 -18 8.5t-8 19.5z" />
<glyph unicode="&#x1e84;" horiz-adv-x="787" d="M22 704q0 11 12 19t26 8q21 0 26 -17l173 -614l100 373q5 23 35 23q27 0 34 -23l100 -373l173 614q5 17 26 17q14 0 26 -8t12 -19q0 -5 -1 -8l-196 -678q-8 -24 -40 -24q-33 0 -39 24l-95 353l-95 -353q-6 -24 -39 -24t-40 24l-197 678q-1 3 -1 8zM295 884q0 16 10.5 26 t26.5 10q15 0 25.5 -10t10.5 -26q0 -15 -10.5 -26t-25.5 -11q-16 0 -26.5 11t-10.5 26zM418 884q0 16 10.5 26t26.5 10t26 -10t10 -26q0 -15 -10.5 -26t-25.5 -11q-16 0 -26.5 11t-10.5 26z" />
<glyph unicode="&#x1e85;" horiz-adv-x="667" d="M15 446q0 12 12.5 20.5t26.5 8.5q18 0 23 -15l128 -356l103 325q5 17 26 17t26 -17l99 -329l131 360q3 15 22 15q14 0 26.5 -8t12.5 -21q0 -9 -4 -15l-156 -423q-5 -16 -26 -16q-19 0 -27 15l-104 325l-103 -320q-6 -20 -29 -20q-21 0 -27 20l-156 419q-4 8 -4 15z M235 630q0 16 10.5 26t26.5 10q15 0 25.5 -10t10.5 -26q0 -15 -10.5 -26t-25.5 -11q-16 0 -26.5 11t-10.5 26zM358 630q0 16 10.5 26t26.5 10t26 -10t10 -26q0 -15 -10.5 -26t-25.5 -11q-16 0 -26.5 11t-10.5 26z" />
<glyph unicode="&#x1ef2;" horiz-adv-x="531" d="M19 703q0 12 11.5 20t24.5 8q16 0 26 -20l184 -365l185 365q10 20 26 20q13 0 24.5 -8t11.5 -20q0 -9 -4 -18l-208 -397q-2 -6 -2 -8v-254q0 -12 -9.5 -19t-23.5 -7q-13 0 -23 7t-10 19v254q0 5 -1 8l-207 397q-5 9 -5 18zM183 927q0 10 7 19t17 9q5 0 9 -3l111 -61 q11 -5 11 -18q0 -11 -8 -19.5t-18 -8.5q-6 0 -10 3l-106 57q-13 6 -13 22z" />
<glyph unicode="&#x1ef3;" horiz-adv-x="420" d="M14 448q0 12 13 21.5t27 9.5q19 0 23 -14l137 -368l129 368q6 14 22 14q13 0 26.5 -9.5t13.5 -22.5q0 -6 -2 -8l-155 -420l-18 -49q-5 -13 -19.5 -47t-24.5 -49l-26 -40q-17 -25 -32.5 -36t-37.5 -20.5t-45 -9.5q-30 0 -30 29q0 30 20 30q46 0 85.5 55.5t59.5 137.5 l-163 419q-3 5 -3 9zM124 673q0 10 7 19t17 9q4 0 9 -3l111 -61q11 -5 11 -18q0 -11 -8 -19.5t-18 -8.5q-5 0 -10 3l-106 57q-13 6 -13 22z" />
<glyph unicode="&#x2013;" horiz-adv-x="473" d="M52 240q0 13 7 21.5t18 8.5h320q10 0 17.5 -8.5t7.5 -21.5q0 -12 -7.5 -20t-17.5 -8h-320q-25 0 -25 28z" />
<glyph unicode="&#x2014;" horiz-adv-x="754" d="M52 240q0 13 7 21.5t18 8.5h600q10 0 18 -9t8 -21t-8 -20t-18 -8h-600q-25 0 -25 28z" />
<glyph unicode="&#x2018;" horiz-adv-x="160" d="M33 616q0 27 40 113q6 12 18 12q9 0 16.5 -6t7.5 -15q0 -5 -1 -8l-20 -52q30 -12 30 -43q0 -20 -13.5 -33.5t-32.5 -13.5t-32 13.5t-13 32.5z" />
<glyph unicode="&#x2019;" horiz-adv-x="158" d="M36 695q0 19 13.5 32.5t32.5 13.5t32.5 -13.5t13.5 -32.5q0 -22 -40 -113q-6 -12 -18 -12q-10 0 -17.5 6t-7.5 15q0 6 2 9l20 52q-14 5 -22.5 17t-8.5 26z" />
<glyph unicode="&#x201a;" horiz-adv-x="171" d="M40 40q0 20 13 33.5t33 13.5q18 0 31.5 -13.5t13.5 -32.5q0 -27 -40 -113q-6 -12 -18 -12q-9 0 -17 6t-8 15q0 2 2 8l20 52q-30 12 -30 43z" />
<glyph unicode="&#x201c;" horiz-adv-x="311" d="M33 616q0 25 41 113q4 12 18 12q9 0 16.5 -6t7.5 -15q0 -5 -2 -8l-19 -52q30 -12 30 -43q0 -20 -13.5 -33.5t-32.5 -13.5t-32.5 13.5t-13.5 32.5zM184 616q0 27 40 113q6 12 18 12q9 0 17 -6t8 -15q0 -2 -2 -8l-20 -52q30 -12 30 -43q0 -20 -13 -33.5t-33 -13.5 q-18 0 -31.5 13.5t-13.5 32.5z" />
<glyph unicode="&#x201d;" horiz-adv-x="309" d="M37 695q0 19 13.5 32.5t32.5 13.5t32.5 -13.5t13.5 -32.5q0 -23 -41 -113q-4 -12 -18 -12q-9 0 -16.5 6t-7.5 15q0 6 2 9l19 52q-30 10 -30 43zM188 695q0 19 13 32.5t33 13.5q18 0 31.5 -13.5t13.5 -32.5q0 -26 -40 -113q-6 -12 -18 -12q-9 0 -17 6t-8 15q0 3 2 9l20 52 q-30 10 -30 43z" />
<glyph unicode="&#x201e;" horiz-adv-x="322" d="M40 40q0 20 13 33.5t33 13.5q18 0 31.5 -13.5t13.5 -32.5q0 -27 -40 -113q-6 -12 -18 -12q-9 0 -17 6t-8 15q0 2 2 8l20 52q-30 12 -30 43zM190 40q0 20 13.5 33.5t32.5 13.5t32.5 -13.5t13.5 -32.5q0 -25 -41 -113q-5 -12 -18 -12q-9 0 -16.5 6t-7.5 15q0 5 2 8l19 52 q-30 12 -30 43z" />
<glyph unicode="&#x2020;" horiz-adv-x="414" d="M22 454q0 27 25 29l127 -6v230q0 10 9.5 17t23.5 7q12 0 22.5 -7t10.5 -17v-230l127 6q9 0 17 -8.5t8 -20.5t-8 -19.5t-17 -7.5l-127 6v-427q0 -10 -10.5 -18.5t-22.5 -8.5q-14 0 -23.5 8t-9.5 19v427l-127 -6q-25 2 -25 27z" />
<glyph unicode="&#x2021;" horiz-adv-x="439" d="M35 241q0 26 24 28l127 -6v170l-127 -6q-24 2 -24 27q0 27 24 29l127 -6v230q0 10 10 17t23 7t23 -7t10 -17v-230l127 6q10 -1 18 -9t8 -20q0 -11 -8 -18.5t-18 -8.5l-127 6v-170l127 6q10 -1 18 -9t8 -19t-8 -19t-18 -9l-127 6v-213q0 -10 -10 -18.5t-23 -8.5t-23 8 t-10 19v213l-127 -6q-24 2 -24 28z" />
<glyph unicode="&#x2022;" horiz-adv-x="311" d="M49 300q0 41 32 72.5t75 31.5t75 -31.5t32 -72.5q0 -42 -32 -73t-75 -31t-75 31t-32 73z" />
<glyph unicode="&#x2026;" horiz-adv-x="533" d="M40 40q0 20 13 33.5t33 13.5q18 0 31.5 -14t13.5 -33q0 -18 -13.5 -32t-31.5 -14q-20 0 -33 13.5t-13 32.5zM222 40q0 20 13 33.5t33 13.5q18 0 31.5 -14t13.5 -33q0 -18 -13.5 -32t-31.5 -14q-20 0 -33 13.5t-13 32.5zM403 40q0 20 13 33.5t33 13.5q18 0 31.5 -14 t13.5 -33q0 -18 -13.5 -32t-31.5 -14q-20 0 -33 13.5t-13 32.5z" />
<glyph unicode="&#x2030;" horiz-adv-x="1066" d="M40 465v152q0 59 34 86.5t90 27.5t90 -27.5t34 -86.5v-152q0 -59 -34 -86.5t-90 -27.5t-90 27.5t-34 86.5zM91 465q0 -69 73 -69q74 0 74 69v152q0 69 -74 69q-73 0 -73 -69v-152zM166 -2q0 6 3 12l381 747q5 12 20 12q10 0 19 -8t9 -19q0 -7 -3 -13l-379 -741 q-8 -15 -24 -15q-10 0 -18 7.5t-8 17.5zM469 111v152q0 58 34 86t90 28t90 -28t34 -86v-152q0 -59 -34 -86.5t-90 -27.5t-90 27.5t-34 86.5zM520 111q0 -69 73 -69q74 0 74 69v152q0 69 -74 69q-73 0 -73 -69v-152zM781 111v152q0 58 34 86t90 28t90 -28t34 -86v-152 q0 -59 -34 -86.5t-90 -27.5t-90 27.5t-34 86.5zM832 111q0 -69 73 -69q74 0 74 69v152q0 69 -74 69q-73 0 -73 -69v-152z" />
<glyph unicode="&#x2039;" horiz-adv-x="235" d="M35 277q0 9 10 28l89 164q6 12 23 12q14 0 25.5 -10.5t11.5 -21.5q0 -5 -3 -11l-87 -161l87 -160q3 -6 3 -11q0 -12 -11.5 -22t-26.5 -10t-22 12l-89 164q-10 20 -10 27z" />
<glyph unicode="&#x203a;" horiz-adv-x="235" d="M41 106q0 5 3 11l86 160l-86 161q-3 6 -3 11q0 11 11 21.5t25 10.5q19 0 23 -12l89 -164q11 -22 11 -28q0 -7 -11 -27l-89 -164q-5 -12 -21 -12q-15 0 -26.5 10t-11.5 22z" />
<glyph unicode="&#x2044;" horiz-adv-x="159" d="M-137 -2q0 6 3 12l381 747q5 12 20 12q10 0 19 -8t9 -19q0 -7 -3 -13l-379 -741q-7 -15 -24 -15q-10 0 -18 7.5t-8 17.5z" />
<glyph unicode="&#x2070;" horiz-adv-x="340" d="M46 465v152q0 59 34 86.5t90 27.5t90 -27.5t34 -86.5v-152q0 -59 -34 -86.5t-90 -27.5t-90 27.5t-34 86.5zM97 465q0 -69 73 -69q74 0 74 69v152q0 69 -74 69q-73 0 -73 -69v-152z" />
<glyph unicode="&#x2074;" horiz-adv-x="287" d="M13 459q0 4 3 10l140 248q9 14 23 14q8 0 16.5 -6t8.5 -14q0 -2 -2 -8l-124 -216h96v77q0 17 25 17t25 -17v-77h30q8 0 13 -7.5t5 -16.5q0 -8 -5.5 -15.5t-12.5 -7.5h-30v-68q0 -18 -25 -18t-25 18v68h-143q-18 0 -18 19z" />
<glyph unicode="&#x2075;" horiz-adv-x="306" d="M28 439q0 26 26 26q25 0 25 -20q2 -49 70 -49q76 0 76 68v10q0 66 -73 66h-81q-23 0 -23 19q0 13 1 21l13 134q2 17 12 17h165q16 0 16 -23q0 -22 -16 -22h-134l-9 -105h56q57 0 90.5 -26t33.5 -81v-10q0 -58 -34 -85.5t-89 -27.5q-57 0 -91 26.5t-34 61.5z" />
<glyph unicode="&#x2076;" horiz-adv-x="329" d="M45 482v135q0 59 34.5 86.5t91.5 27.5t89 -27.5t32 -63.5q0 -22 -24 -22q-25 0 -25 20q0 22 -21.5 35t-52.5 13q-74 0 -74 -69v-68q26 31 82 31q115 0 115 -105v-10q0 -59 -33.5 -86.5t-89.5 -27.5q-62 0 -93 30.5t-31 100.5zM95 462q0 -68 74 -68q73 0 73 68v10 q0 67 -74 67q-73 0 -73 -62v-15z" />
<glyph unicode="&#x2077;" horiz-adv-x="293" d="M26 635v79q0 6 7.5 11.5t15.5 5.5h202q8 0 15.5 -5.5t7.5 -11.5v-51q0 -11 -8 -27l-161 -275q-5 -8 -16 -8q-12 0 -21.5 7t-9.5 17q0 2 2 10l164 269v30h-147v-51q0 -7 -8 -12t-18 -5t-17.5 5t-7.5 12z" />
<glyph unicode="&#x2078;" horiz-adv-x="320" d="M36 457v7q0 73 64 96q-52 18 -52 80q0 91 112 91t112 -91q0 -62 -52 -80q63 -23 63 -96v-7q0 -54 -33.5 -80t-89.5 -26t-90 26t-34 80zM87 462q0 -69 73 -69q74 0 74 69v9q0 67 -74 67q-73 0 -73 -67v-9zM97 635q0 -54 63 -54t63 54t-63 54t-63 -54z" />
<glyph unicode="&#x2079;" horiz-adv-x="330" d="M37 442q0 22 24 22q25 0 25 -20q0 -21 21.5 -34.5t52.5 -13.5q75 0 75 69v68q-27 -30 -83 -30q-115 0 -115 104v10q0 59 34 86.5t90 27.5t89.5 -27.5t33.5 -86.5v-152q0 -114 -126 -114q-57 0 -89 27.5t-32 63.5zM88 610q0 -67 73 -67q74 0 74 63v14q0 69 -74 69 q-73 0 -73 -69v-10z" />
<glyph unicode="&#x2080;" horiz-adv-x="340" d="M46 111v152q0 58 34 86t90 28t90 -28t34 -86v-152q0 -59 -34 -86.5t-90 -27.5t-90 27.5t-34 86.5zM97 111q0 -69 73 -69q74 0 74 69v152q0 69 -74 69q-73 0 -73 -69v-152z" />
<glyph unicode="&#x2081;" horiz-adv-x="169" d="M18 298q0 13 10 19l55 54q5 6 14 6q22 0 22 -17v-343q0 -17 -24 -17q-26 0 -26 17v291l-21 -25q-5 -6 -12 -6t-12.5 6.5t-5.5 14.5z" />
<glyph unicode="&#x2082;" horiz-adv-x="306" d="M33 17v50q0 28 29.5 56t65 48t65 47.5t29.5 54.5q0 23 -18 40t-51 17q-62 0 -62 -53q0 -7 -7.5 -13t-18.5 -6q-24 0 -24 28q0 40 32.5 65.5t80.5 25.5q50 0 84 -29t34 -73q0 -31 -19.5 -57.5t-47 -45.5t-54.5 -35.5t-46.5 -34t-19.5 -33.5v-24h173q7 0 12.5 -6.5 t5.5 -15.5t-5.5 -16t-12.5 -7h-202q-8 0 -15.5 5t-7.5 12z" />
<glyph unicode="&#x2083;" horiz-adv-x="313" d="M29 87q0 12 5.5 16.5t18.5 4.5q26 0 26 -18q0 -19 18 -33.5t55 -14.5q75 0 75 67v9q0 59 -75 59q-18 0 -18 20q0 21 18 21q32 0 48 12.5t16 45.5q0 56 -62 56q-65 0 -65 -45q0 -20 -24 -20q-16 0 -21 4.5t-5 18.5q0 32 27 59.5t89 27.5q110 0 110 -92q0 -67 -46 -86 q58 -20 58 -81v-9q0 -57 -34.5 -84.5t-90.5 -27.5q-59 0 -91 27.5t-32 62.5z" />
<glyph unicode="&#x2084;" horiz-adv-x="287" d="M13 105q0 4 3 10l140 247q9 15 23 15q8 0 16.5 -6t8.5 -14q0 -4 -2 -8l-124 -216h96v77q0 16 25 16t25 -16v-77h30q8 0 13 -7.5t5 -16.5t-5.5 -16t-12.5 -7h-30v-69q0 -17 -25 -17t-25 17v69h-143q-18 0 -18 19z" />
<glyph unicode="&#x2085;" horiz-adv-x="306" d="M28 85q0 26 26 26q25 0 25 -20q2 -49 70 -49q76 0 76 67v11q0 66 -73 66h-81q-23 0 -23 19q0 12 1 21l13 134q2 17 12 17h165q16 0 16 -23q0 -22 -16 -22h-134l-9 -105h56q57 0 90.5 -26t33.5 -81v-11q0 -57 -34 -84.5t-89 -27.5q-57 0 -91 26t-34 62z" />
<glyph unicode="&#x2086;" horiz-adv-x="329" d="M45 127v136q0 58 34.5 86t91.5 28t89 -27.5t32 -63.5q0 -22 -24 -22q-25 0 -25 20q0 22 -21.5 35t-52.5 13q-74 0 -74 -69v-68q27 31 82 31q115 0 115 -105v-10q0 -59 -33.5 -86.5t-89.5 -27.5q-62 0 -93 30.5t-31 99.5zM95 108q0 -68 74 -68q73 0 73 68v10q0 67 -74 67 q-73 0 -73 -62v-15z" />
<glyph unicode="&#x2087;" horiz-adv-x="293" d="M26 281v79q0 6 7.5 11.5t15.5 5.5h202q8 0 15.5 -5.5t7.5 -11.5v-52q0 -12 -8 -26l-161 -275q-5 -9 -16 -9q-12 0 -21.5 7t-9.5 18q0 3 2 9l164 269v31h-147v-51q0 -7 -8 -12t-18 -5q-25 0 -25 17z" />
<glyph unicode="&#x2088;" horiz-adv-x="320" d="M36 103v6q0 75 64 96q-52 18 -52 81q0 91 112 91t112 -91q0 -63 -52 -81q63 -22 63 -96v-6q0 -54 -33.5 -80t-89.5 -26t-90 26t-34 80zM87 108q0 -69 73 -69q74 0 74 69v9q0 67 -74 67q-73 0 -73 -67v-9zM97 280q0 -54 63 -54t63 54q0 55 -63 55t-63 -55z" />
<glyph unicode="&#x2089;" horiz-adv-x="330" d="M37 88q0 22 24 22q25 0 25 -20q0 -22 21.5 -35t52.5 -13q75 0 75 69v67q-29 -30 -83 -30q-115 0 -115 105v10q0 58 34 86t90 28t89.5 -28t33.5 -86v-152q0 -114 -126 -114q-57 0 -89 27.5t-32 63.5zM88 255q0 -66 73 -66q74 0 74 62v14q0 69 -74 69q-73 0 -73 -69v-10z " />
<glyph unicode="&#x20ac;" horiz-adv-x="582" d="M32 278q0 11 7 19t18 8h62v96h-62q-11 0 -18 7.5t-7 18.5t7 19t18 8h62v64q0 110 56.5 161.5t150.5 51.5t151.5 -48.5t57.5 -124.5q0 -33 -33 -33t-33 24q0 56 -38.5 88.5t-103.5 32.5q-142 0 -142 -152v-64h169q10 0 18 -8t8 -19t-8 -18.5t-18 -7.5h-169v-96h169 q10 0 18 -8t8 -19t-8 -18.5t-18 -7.5h-169v-49q0 -69 36 -108.5t107 -39.5q64 0 102.5 33t38.5 90q1 25 33 25q33 0 33 -33q0 -77 -57.5 -126.5t-151.5 -49.5q-95 0 -151 52.5t-56 156.5v49h-62q-11 0 -18 7.5t-7 18.5z" />
<glyph unicode="&#x2122;" horiz-adv-x="626" d="M42 746q0 22 16 22h197q15 0 15 -22q0 -23 -15 -23h-75v-233q0 -17 -23 -17q-25 0 -25 17v233h-74q-16 0 -16 23zM297 490v254q0 24 24 24q23 0 36 -30l70 -159l71 159q13 30 36 30q24 0 24 -24v-254q0 -17 -24 -17q-23 0 -23 17v178l-67 -151q-6 -13 -17 -13 q-12 0 -16 13l-67 153v-180q0 -17 -23 -17q-24 0 -24 17z" />
<glyph unicode="&#x2126;" horiz-adv-x="547" d="M54 31q0 13 7 21t17 8h105v33q-117 42 -117 201v224q0 110 56.5 161.5t150.5 51.5q95 0 151.5 -51.5t56.5 -161.5v-224q0 -158 -117 -201v-33h104q10 0 17.5 -8.5t7.5 -20.5q0 -13 -7 -22t-18 -9h-152v146q99 22 99 148v224q0 152 -142 152q-141 0 -141 -152v-224 q0 -130 98 -148v-146h-152q-10 0 -17 9t-7 22z" />
<glyph unicode="&#x212e;" horiz-adv-x="543" d="M52 210v57q0 86 68 149t161 63q88 0 152 -52t64 -130q0 -27 -6.5 -43.5t-21 -23.5t-26 -8.5t-32.5 -1.5h-249v-37q0 -64 38 -101t105 -37q50 0 83 11.5t49 22.5t24 11q9 0 16 -10.5t7 -20.5q0 -9 -12.5 -20.5t-35 -21.5t-57.5 -17t-75 -7q-112 0 -182 60t-70 157z M162 263h185q31 0 40.5 6t9.5 27q0 57 -32 96t-85 39q-51 0 -84.5 -36.5t-33.5 -93.5v-38z" />
<glyph unicode="&#x2153;" horiz-adv-x="632" d="M31 652q0 13 10 19l55 55q6 6 14 6q9 0 15.5 -5t6.5 -13v-342q0 -18 -24 -18q-26 0 -26 18v290l-21 -25q-5 -5 -12 -5t-12.5 6t-5.5 14zM55 -2q0 6 3 12l381 747q5 12 20 12q10 0 19 -8t9 -19q0 -7 -3 -13l-379 -741q-7 -15 -24 -15q-10 0 -18 7.5t-8 17.5zM350 87 q0 12 5.5 16.5t18.5 4.5q26 0 26 -18q0 -19 18 -33.5t55 -14.5q75 0 75 67v9q0 59 -75 59q-18 0 -18 20q0 21 18 21q32 0 48 12.5t16 45.5q0 56 -62 56q-65 0 -65 -45q0 -20 -24 -20q-16 0 -21 4.5t-5 18.5q0 32 27 59.5t89 27.5q110 0 110 -92q0 -67 -46 -86q58 -20 58 -81 v-9q0 -57 -34.5 -84.5t-90.5 -27.5q-59 0 -91 27.5t-32 62.5z" />
<glyph unicode="&#x2154;" horiz-adv-x="744" d="M36 372v49q0 28 29.5 56t65 48t65 47.5t29.5 54.5q0 23 -17.5 40.5t-51.5 17.5q-28 0 -45 -13.5t-17 -40.5q0 -7 -7 -12.5t-19 -5.5q-24 0 -24 27q0 40 32.5 65.5t80.5 25.5q50 0 84 -29t34 -73q0 -30 -19.5 -57t-46.5 -46t-54.5 -35.5t-47 -33.5t-19.5 -34v-24h173 q7 0 12.5 -6.5t5.5 -15.5t-5.5 -16t-12.5 -7h-202q-8 0 -15.5 5t-7.5 13zM176 -2q0 6 3 12l381 747q5 12 20 12q10 0 19 -8t9 -19q0 -7 -3 -13l-379 -741q-8 -15 -24 -15q-10 0 -18 7.5t-8 17.5zM462 87q0 12 5.5 16.5t18.5 4.5q26 0 26 -18q0 -19 18 -33.5t55 -14.5 q75 0 75 67v9q0 59 -75 59q-18 0 -18 20q0 21 18 21q32 0 48 12.5t16 45.5q0 56 -62 56q-65 0 -65 -45q0 -20 -24 -20q-16 0 -21 4.5t-5 18.5q0 32 27 59.5t89 27.5q110 0 110 -92q0 -67 -46 -86q58 -20 58 -81v-9q0 -57 -34.5 -84.5t-90.5 -27.5q-59 0 -91 27.5t-32 62.5z " />
<glyph unicode="&#x215b;" horiz-adv-x="631" d="M31 652q0 13 10 19l55 55q6 6 14 6q9 0 15.5 -5t6.5 -13v-342q0 -18 -24 -18q-26 0 -26 18v290l-21 -25q-5 -5 -12 -5t-12.5 6t-5.5 14zM55 -2q0 6 3 12l381 747q5 12 20 12q10 0 19 -8t9 -19q0 -7 -3 -13l-379 -741q-7 -15 -24 -15q-10 0 -18 7.5t-8 17.5zM350 103v6 q0 75 64 96q-52 18 -52 81q0 91 112 91t112 -91q0 -63 -52 -81q63 -22 63 -96v-6q0 -54 -33.5 -80t-89.5 -26t-90 26t-34 80zM401 108q0 -69 73 -69q74 0 74 69v9q0 67 -74 67q-73 0 -73 -67v-9zM411 280q0 -54 63 -54t63 54q0 55 -63 55t-63 -55z" />
<glyph unicode="&#x215c;" horiz-adv-x="749" d="M30 441q0 12 5.5 16.5t18.5 4.5q26 0 26 -18q0 -19 18 -33.5t55 -14.5q75 0 75 67v9q0 59 -75 59q-18 0 -18 20q0 21 18 21q32 0 48 12.5t16 45.5q0 57 -62 57q-65 0 -65 -45q0 -21 -24 -21q-16 0 -21 4.5t-5 19.5q0 32 27 59t89 27q110 0 110 -91q0 -67 -46 -87 q58 -20 58 -81v-9q0 -57 -34.5 -84.5t-90.5 -27.5q-59 0 -91 27.5t-32 62.5zM173 -2q0 6 3 12l381 747q5 12 20 12q10 0 19 -8t9 -19q0 -7 -3 -13l-379 -741q-7 -15 -24 -15q-10 0 -18 7.5t-8 17.5zM468 103v6q0 75 64 96q-52 18 -52 81q0 91 112 91t112 -91q0 -63 -52 -81 q63 -22 63 -96v-6q0 -54 -33.5 -80t-89.5 -26t-90 26t-34 80zM519 108q0 -69 73 -69q74 0 74 69v9q0 67 -74 67q-73 0 -73 -67v-9zM529 280q0 -54 63 -54t63 54q0 55 -63 55t-63 -55z" />
<glyph unicode="&#x215d;" horiz-adv-x="748" d="M29 439q0 26 26 26q25 0 25 -20q2 -49 70 -49q76 0 76 68v10q0 66 -73 66h-81q-23 0 -23 19q0 13 1 21l13 134q2 17 12 17h165q16 0 16 -23q0 -22 -16 -22h-134l-9 -105h56q57 0 90.5 -26t33.5 -81v-10q0 -58 -34 -85.5t-89 -27.5q-57 0 -91 26.5t-34 61.5zM172 -2 q0 6 3 12l381 747q5 12 20 12q10 0 19 -8t9 -19q0 -7 -3 -13l-379 -741q-8 -15 -24 -15q-10 0 -18 7.5t-8 17.5zM467 103v6q0 75 64 96q-52 18 -52 81q0 91 112 91t112 -91q0 -63 -52 -81q63 -22 63 -96v-6q0 -54 -33.5 -80t-89.5 -26t-90 26t-34 80zM518 108q0 -69 73 -69 q74 0 74 69v9q0 67 -74 67q-73 0 -73 -67v-9zM528 280q0 -54 63 -54t63 54q0 55 -63 55t-63 -55z" />
<glyph unicode="&#x215e;" horiz-adv-x="747" d="M30 635v79q0 6 7.5 11.5t15.5 5.5h202q8 0 15.5 -5.5t7.5 -11.5v-51q0 -11 -8 -27l-161 -275q-5 -8 -16 -8q-12 0 -21.5 7t-9.5 17q0 2 2 10l164 269v30h-147v-51q0 -7 -8 -12t-18 -5t-17.5 5t-7.5 12zM122 -2q0 6 3 12l381 747q5 12 20 12q10 0 19 -8t9 -19q0 -7 -3 -13 l-379 -741q-8 -15 -24 -15q-10 0 -18 7.5t-8 17.5zM467 103v6q0 75 64 96q-52 18 -52 81q0 91 112 91t112 -91q0 -63 -52 -81q63 -22 63 -96v-6q0 -54 -33.5 -80t-89.5 -26t-90 26t-34 80zM518 108q0 -69 73 -69q74 0 74 69v9q0 67 -74 67q-73 0 -73 -67v-9zM528 280 q0 -54 63 -54t63 54q0 55 -63 55t-63 -55z" />
<glyph unicode="&#x2190;" horiz-adv-x="771" d="M70 240q0 10 12 22l209 208q7 7 17 7q11 0 20.5 -9.5t9.5 -22.5q0 -10 -6 -16l-160 -159h505q10 0 17 -8.5t7 -21.5q0 -28 -24 -28h-505l160 -160q6 -5 6 -16q0 -12 -9 -22t-21 -10q-10 0 -17 7l-209 208q-12 12 -12 21z" />
<glyph unicode="&#x2191;" horiz-adv-x="771" d="M149 319q0 10 7 17l208 209q13 11 21 11q11 0 22 -11l208 -209q7 -7 7 -17q0 -12 -9.5 -21.5t-22.5 -9.5q-10 0 -16 6l-159 161v-506q0 -10 -8.5 -17t-21.5 -7q-12 0 -20 7t-8 17v506l-160 -161q-5 -6 -16 -6q-12 0 -22 9t-10 22z" />
<glyph unicode="&#x2192;" horiz-adv-x="771" d="M70 240q0 13 7 21.5t18 8.5h505l-161 159q-6 6 -6 16q0 13 9.5 22.5t21.5 9.5q10 0 17 -7l209 -208q11 -13 11 -22q0 -8 -11 -21l-209 -208q-7 -7 -17 -7q-12 0 -21.5 10t-9.5 22q0 11 6 16l161 160h-505q-25 0 -25 28z" />
<glyph unicode="&#x2193;" horiz-adv-x="771" d="M149 163q0 12 10 21t22 9q11 0 16 -6l160 -160v505q0 10 8 17t20 7q13 0 21.5 -7t8.5 -17v-505l159 160q6 6 16 6q13 0 22.5 -9.5t9.5 -20.5q0 -10 -7 -17l-208 -210q-11 -11 -22 -11q-8 0 -21 11l-208 210q-7 7 -7 17z" />
<glyph unicode="&#x2202;" horiz-adv-x="490" d="M49 183v116q0 76 52 132t124 56q46 0 86.5 -23.5t53.5 -60.5q-2 135 -40 208t-126 73q-35 0 -67.5 -13t-35.5 -13q-11 0 -19 13t-8 22q0 17 42.5 33.5t92.5 16.5q226 0 226 -373v-185q0 -75 -57.5 -133.5t-133.5 -58.5t-133 57.5t-57 132.5zM114 183q0 -51 37 -90.5 t88 -39.5q52 0 89 39.5t37 90.5v120q0 49 -38 86.5t-88 37.5q-52 0 -88.5 -39t-36.5 -89v-116z" />
<glyph unicode="&#x2206;" horiz-adv-x="515" d="M22 25q0 8 2 14l193 673q8 25 40 25t40 -25l191 -673q3 -9 3 -14q0 -25 -30 -25h-410q-29 0 -29 25zM98 61h316l-157 573z" />
<glyph unicode="&#x220f;" horiz-adv-x="568" d="M76 25v681q0 12 9 18.5t21 6.5h355q12 0 21.5 -6.5t9.5 -18.5v-681q0 -25 -33 -25t-33 25v645h-284v-645q0 -25 -33 -25t-33 25z" />
<glyph unicode="&#x2211;" horiz-adv-x="469" d="M27 -199q0 12 6 24l221 427l-221 427q-6 12 -6 24q0 28 29 28h362q12 0 19 -9t7 -21t-7 -21.5t-19 -9.5h-308l187 -360q23 -46 23 -58q0 -14 -23 -58l-187 -360h308q12 0 19 -9.5t7 -21.5t-7 -21t-19 -9h-362q-29 0 -29 28z" />
<glyph unicode="&#x2212;" horiz-adv-x="502" d="M66 284q0 13 7 21.5t18 8.5h320q10 0 17.5 -8.5t7.5 -21.5q0 -12 -7.5 -20t-17.5 -8h-320q-25 0 -25 28z" />
<glyph unicode="&#x221a;" horiz-adv-x="617" d="M12 415q0 12 7 20.5t18 8.5h67q18 0 25 -24l114 -356l203 685q7 19 25 19h117q10 0 17.5 -8.5t7.5 -20.5q0 -13 -7 -21t-18 -8h-85l-220 -721q-7 -24 -39 -24t-40 24l-132 397h-35q-11 0 -18 8t-7 21z" />
<glyph unicode="&#x221e;" horiz-adv-x="860" d="M56 236q0 82 52 127t125 45q55 0 109 -32.5t88 -86.5q35 55 88.5 87t109.5 32q73 0 124.5 -45t51.5 -127t-51.5 -127t-125.5 -45q-55 0 -108.5 32t-88.5 86q-34 -54 -88 -86t-109 -32q-73 0 -125 45t-52 127zM117 236q0 -56 33 -84.5t84 -28.5q49 0 95.5 29t72.5 84 q-26 55 -73 84.5t-95 29.5q-50 0 -83.5 -29t-33.5 -85zM458 236q26 -55 73.5 -84t95.5 -29q51 0 83.5 28.5t32.5 84.5t-33 85t-83 29q-48 0 -95.5 -29.5t-73.5 -84.5z" />
<glyph unicode="&#x222b;" horiz-adv-x="336" d="M7 -172q0 28 25 28q103 0 103 92v644q0 66 44.5 111t125.5 45q10 0 17.5 -7.5t7.5 -19.5q0 -11 -7 -19.5t-18 -8.5q-50 0 -77 -29t-27 -73v-643q0 -67 -42.5 -107.5t-124.5 -40.5q-11 0 -19 8t-8 20z" />
<glyph unicode="&#x2248;" horiz-adv-x="443" d="M67 160q0 27 29.5 43t58.5 16q26 0 65.5 -17.5t65.5 -17.5t45.5 14.5t25.5 14.5q9 0 14.5 -8t5.5 -16q0 -28 -28.5 -43t-56.5 -15q-26 0 -66 17.5t-67 17.5q-25 0 -46.5 -16t-26.5 -16q-9 0 -14 8t-5 18zM67 363q0 27 29.5 43t58.5 16q26 0 65.5 -17.5t65.5 -17.5 t45.5 14.5t25.5 14.5q9 0 14.5 -8t5.5 -16q0 -28 -28.5 -43t-56.5 -15q-26 0 -66 17.5t-67 17.5q-25 0 -46.5 -16t-26.5 -16q-9 0 -14 8t-5 18z" />
<glyph unicode="&#x2260;" horiz-adv-x="480" d="M53 166q0 12 7 20.5t18 8.5h101l67 145h-168q-11 0 -18 8t-7 21q0 12 7 20.5t18 8.5h199l77 163q4 9 15 9q9 0 16.5 -7t7.5 -17q0 -4 -3 -12l-64 -136h74q10 0 18 -8.5t8 -20.5t-8 -20.5t-18 -8.5h-105l-68 -145h173q10 0 18 -8.5t8 -20.5t-8 -20.5t-18 -8.5h-204 l-69 -147q-5 -11 -17 -11q-9 0 -15.5 5.5t-6.5 14.5q0 8 2 11l58 127h-70q-11 0 -18 8t-7 21z" />
<glyph unicode="&#x2264;" horiz-adv-x="435" d="M50 85q0 12 7.5 20.5t18.5 8.5h277q10 0 17.5 -8.5t7.5 -20.5q0 -13 -7 -21t-18 -8h-277q-11 0 -18.5 8t-7.5 21zM50 350q0 20 16 28l269 149q6 3 12 3q11 0 21 -9.5t10 -21.5q0 -15 -13 -21l-236 -128l236 -127q13 -7 13 -21q0 -12 -10 -21.5t-21 -9.5q-6 0 -12 3 l-269 149q-16 8 -16 27z" />
<glyph unicode="&#x2265;" horiz-adv-x="435" d="M57 85q0 12 7.5 20.5t17.5 8.5h278q10 0 17.5 -8.5t7.5 -20.5q0 -13 -7 -21t-18 -8h-278q-10 0 -17.5 8.5t-7.5 20.5zM58 202q0 15 13 21l235 127l-235 128q-13 6 -13 21q0 12 9.5 21.5t21.5 9.5q5 0 11 -3l270 -149q15 -8 15 -28t-15 -27l-270 -149q-6 -3 -11 -3 q-12 0 -21.5 9.5t-9.5 21.5z" />
<glyph unicode="&#x25ca;" horiz-adv-x="465" d="M24 365q0 20 21 59l144 275q18 35 43 35q26 0 44 -35l144 -275q21 -40 21 -59q0 -17 -21 -56l-145 -277q-19 -35 -43 -35t-42 35l-145 277q-21 40 -21 56zM83 366l149 -287l149 287l-149 290z" />
<glyph unicode="&#x25fc;" horiz-adv-x="480" d="M0 480h480v-480h-480v480z" />
<glyph unicode="&#xe000;" horiz-adv-x="480" d="M0 480h480v-480h-480v480z" />
<glyph unicode="&#xf6c3;" horiz-adv-x="218" d="M25 -130q0 12 11 18l111 62q6 2 9 2q10 0 17 -9t7 -19q0 -15 -13 -22l-106 -57q-6 -3 -11 -3q-10 0 -17.5 8.5t-7.5 19.5z" />
<glyph horiz-adv-x="450" d="M30 124q0 77 59.5 107t173.5 30h51v25q0 55 -29.5 95.5t-90.5 40.5q-37 0 -70 -14.5t-35 -14.5q-11 0 -18.5 11.5t-7.5 21.5q0 21 43 37t94 16q92 0 135.5 -55t43.5 -138v-171q0 -59 40 -61q22 -2 22 -27q0 -16 -9 -25t-23 -9q-76 0 -86 77q-71 -77 -157 -77 q-58 0 -97 33.5t-39 97.5zM95 129q0 -39 24 -60t60 -21q50 0 92.5 35t42.5 70v64h-42q-41 0 -68.5 -3t-54.5 -11.5t-40.5 -27t-13.5 -46.5z" />
<glyph horiz-adv-x="481" d="M60 160v579q0 24 31 24q14 0 24 -7t10 -17v-336q17 32 51.5 54t80.5 22q74 0 126.5 -55t52.5 -132v-109q0 -73 -51 -131.5t-142 -58.5q-75 0 -129 43.5t-54 123.5zM125 167q0 -54 34 -84t86 -30q65 0 95.5 41t30.5 89v109q0 49 -37 88t-88 39q-48 0 -84.5 -35t-36.5 -92 v-125z" />
<glyph horiz-adv-x="92" d="M0 695q0 19 13.5 32.5t32.5 13.5t32.5 -13.5t13.5 -32.5q0 -23 -41 -113q-5 -12 -18 -12q-9 0 -16.5 6t-7.5 15q0 6 2 9l19 52q-30 10 -30 43z" />
<glyph horiz-adv-x="483" d="M44 185v107q0 77 53 132t127 55q46 0 81 -22t53 -54v46q0 10 8.5 17t22.5 7t22.5 -7t8.5 -17v-474q0 -93 -49.5 -152.5t-153.5 -59.5q-60 0 -109 20.5t-49 48.5q0 12 8 22t18 10q7 0 23.5 -10.5t45.5 -21t66 -10.5q43 0 71.5 13.5t41.5 39t17.5 50t4.5 59.5v89 q-17 -32 -54 -55t-80 -23q-71 0 -124 57.5t-53 132.5zM109 185q0 -50 37 -89.5t87 -39.5q48 0 85 35.5t37 62.5v138q0 57 -36.5 92t-84.5 35q-51 0 -88 -39t-37 -88v-107z" />
<glyph horiz-adv-x="777" d="M59 25v267q0 83 50.5 135t119.5 52q101 0 159 -93q55 93 156 93q71 0 122.5 -52t51.5 -135v-267q0 -10 -9.5 -17.5t-23.5 -7.5q-13 0 -22.5 7.5t-9.5 17.5v267q0 58 -35 92.5t-80 34.5q-47 0 -82 -36.5t-35 -90.5v-267q0 -12 -9.5 -18.5t-23.5 -6.5q-13 0 -22.5 6.5 t-9.5 18.5v267q0 54 -35.5 90.5t-83.5 36.5q-45 0 -79 -34.5t-34 -92.5v-267q0 -10 -10 -17.5t-23 -7.5t-22.5 7.5t-9.5 17.5z" />
<glyph horiz-adv-x="495" d="M58 25v267q0 75 56.5 131t132.5 56q77 0 133.5 -56t56.5 -131v-267q0 -10 -9.5 -17.5t-23.5 -7.5q-13 0 -22.5 7.5t-9.5 17.5v267q0 50 -37 88.5t-88 38.5q-50 0 -87 -38.5t-37 -88.5v-267q0 -10 -9.5 -17.5t-22.5 -7.5q-14 0 -23.5 7.5t-9.5 17.5z" />
<glyph horiz-adv-x="394" d="M16 31q0 13 7.5 21.5t18.5 8.5h126v558l-40 -65q-8 -12 -20 -12q-10 0 -17.5 9t-7.5 20q0 18 12 26l85 120q11 15 24 15q12 0 21 -7t9 -18v-646h124q10 0 18 -9t8 -21q0 -13 -8 -22t-18 -9h-316q-11 0 -18.5 9t-7.5 22z" />
<glyph horiz-adv-x="480" d="M45 181v109q0 74 49.5 131.5t140.5 57.5q77 0 131.5 -48t54.5 -146v-493q0 -10 -8.5 -17t-22.5 -7t-24 7.5t-10 17.5v277q-17 -32 -52 -54.5t-81 -22.5q-72 0 -125 56t-53 132zM110 181q0 -49 37 -88.5t86 -39.5q46 0 84.5 34.5t38.5 64.5v126q0 71 -34.5 106t-88.5 35 q-65 0 -94 -40.5t-29 -88.5v-109z" />
<glyph horiz-adv-x="325" d="M57 25v229q0 90 50.5 157.5t129.5 67.5h52q12 0 19 -8.5t7 -20.5q0 -13 -7.5 -22t-17.5 -9h-45q-53 0 -88 -49.5t-35 -115.5v-229q0 -10 -9.5 -17.5t-23.5 -7.5q-13 0 -22.5 7.5t-9.5 17.5z" />
<glyph horiz-adv-x="497" d="M59 181v267q0 12 9.5 18.5t23.5 6.5q13 0 22.5 -6.5t9.5 -18.5v-267q0 -49 37 -88.5t87 -39.5q48 0 84.5 36t36.5 89v270q0 10 10 17.5t24 7.5q13 0 22 -7t9 -18v-423q0 -11 -9 -18t-22 -7t-22 7.5t-9 17.5v45q-17 -32 -53 -54.5t-82 -22.5q-72 0 -125 56t-53 132z" />
</font>
</defs>
</svg>
