<?xml version="1.0" standalone="no"?>
<!DOCTYPE svg PUBLIC "-//W3C//DTD SVG 1.1//EN" "http://www.w3.org/Graphics/SVG/1.1/DTD/svg11.dtd" >
<svg xmlns="http://www.w3.org/2000/svg" xmlns:xlink="http://www.w3.org/1999/xlink" version="1.1">
<metadata></metadata>
<defs>
<font id="hindmedium" horiz-adv-x="270" >
<font-face units-per-em="1000" ascent="800" descent="-200" />
<missing-glyph horiz-adv-x="246" />
<glyph horiz-adv-x="0" />
<glyph horiz-adv-x="0" />
<glyph unicode="&#xd;" horiz-adv-x="333" />
<glyph unicode=" "  horiz-adv-x="246" />
<glyph unicode="&#x09;" horiz-adv-x="246" />
<glyph unicode="&#xa0;" horiz-adv-x="246" />
<glyph unicode="!" horiz-adv-x="262" d="M62 60q0 29 19.5 49t48 20t49 -20.5t20.5 -49t-20 -48t-49 -19.5t-48.5 19.5t-19.5 48.5zM83 214v460h96v-460h-96z" />
<glyph unicode="&#x22;" horiz-adv-x="322" d="M194 437v244h85v-244h-85zM43 437v244h85v-244h-85z" />
<glyph unicode="#" horiz-adv-x="723" d="M673 427h-121l-39 -184h113v-78h-129l-35 -165h-87l35 165h-166l-35 -165h-86l35 165h-107v78h123l38 184h-113v80h130l35 167h88l-35 -167h166l35 167h86l-35 -167h104v-80zM427 243l39 184h-166l-39 -184h166z" />
<glyph unicode="$" horiz-adv-x="507" d="M274 587q-55 0 -86 -24.5t-31 -64.5q0 -44 43 -72q29 -20 79.5 -42.5t74.5 -36t52 -36.5q55 -45 55 -126.5t-51 -131t-136 -58.5v-107h-84v107q-82 8 -139 41v107q79 -59 183 -59q55 0 87.5 25.5t32.5 70.5q0 24 -8 36t-13 18.5t-16.5 14t-18 12t-22 12t-22.5 11 t-26 11.5q-95 40 -138 83t-43 118.5t53 124.5t140 57v107h85v-109q60 -9 101 -29v-102q-66 42 -152 42z" />
<glyph unicode="%" horiz-adv-x="884" d="M584 160q0 -35 25 -60t60 -25t59.5 25t24.5 60t-24.5 60t-59.5 25t-60 -25t-25 -60zM155.5 579q-24.5 -25 -24.5 -59.5t24.5 -59.5t59.5 -25t60 25t25 60t-25 59.5t-60 24.5t-59.5 -25zM97 401q-49 49 -49 118.5t49 118.5t118.5 49t118.5 -49t49 -118.5t-49 -118.5 t-118.5 -49t-118.5 49zM550 41.5q-49 48.5 -49 118t49 119t118.5 49.5t118.5 -49.5t49 -119t-49 -118t-118.5 -48.5t-118.5 48.5zM212 -1l364 678h93l-365 -678h-92z" />
<glyph unicode="&#x26;" horiz-adv-x="715" d="M525 55q-82 -63 -201.5 -63t-191 53t-71.5 133q0 118 155 173q-86 89 -86 167t54 125t142.5 47t143 -49.5t54.5 -128.5q0 -58 -35.5 -104t-118.5 -84l148 -142q23 42 26 95h92q-4 -88 -51 -158q29 -27 74.5 -70t52.5 -49h-128zM398 577.5q-26 26.5 -70.5 26.5t-70.5 -23 t-26 -58.5t19 -66t61 -75.5q113 55 113 128q0 42 -26 68.5zM189 243.5q-27 -25.5 -27 -67.5t45 -70t119 -28t133 39l-184 174q-59 -22 -86 -47.5z" />
<glyph unicode="'" horiz-adv-x="171" d="M43 437v244h85v-244h-85z" />
<glyph unicode="(" horiz-adv-x="318" d="M224 -196q-162 203 -162 455t155 448h106q-77 -100 -116.5 -217.5t-39.5 -231.5t42 -233t122 -221h-107z" />
<glyph unicode=")" horiz-adv-x="318" d="M102 707q154 -195 154 -447t-161 -456h-108q80 102 122.5 221.5t42.5 232.5t-40 230.5t-116 218.5h106z" />
<glyph unicode="*" horiz-adv-x="437" d="M276 471h-5q18 -11 33 -32l56 -79l-64 -47l-57 78q-12 17 -20 40q-4 -18 -20 -40l-58 -78l-65 47l58 78q14 19 33 32h-6q-22 0 -40 6l-92 31l24 76l93 -30q25 -9 41 -23q-9 23 -9 47v97h80v-97q0 -26 -8 -45q18 14 41 22l92 29l25 -76l-92 -30q-18 -6 -40 -6z" />
<glyph unicode="+" horiz-adv-x="564" d="M510 384v-89h-185v-186h-91v186h-181v89h181v187h91v-187h185z" />
<glyph unicode="," horiz-adv-x="245" d="M-8 -124l96 234h121l-131 -234h-86z" />
<glyph unicode="-" horiz-adv-x="350" d="M53 225v84h244v-84h-244z" />
<glyph unicode="." horiz-adv-x="193" d="M29 60q0 28 19.5 47.5t48 19.5t48 -19.5t19.5 -47.5t-19.5 -48t-48 -20t-48 20t-19.5 48z" />
<glyph unicode="/" horiz-adv-x="421" d="M-7 -102l363 809h101l-363 -809h-101z" />
<glyph unicode="0" horiz-adv-x="545" d="M141 329q0 -117 36.5 -181.5t96 -64.5t94.5 64t35 182.5t-36.5 181t-94 62.5t-94.5 -63.5t-37 -180.5zM102.5 84q-61.5 92 -61.5 245.5t61.5 244t169.5 90.5t170 -90t62 -244t-60.5 -246t-170 -92t-171 92z" />
<glyph unicode="1" horiz-adv-x="340" d="M268 654v-654h-97v547l-155 -95v105l163 97h89z" />
<glyph unicode="2" horiz-adv-x="496" d="M455 85v-85h-419v81q126 92 212.5 190.5t86.5 179.5q0 57 -33 87.5t-91 30.5q-80 0 -157 -60v97q72 55 167.5 55t155.5 -51.5t60 -146.5q0 -176 -266 -378h284z" />
<glyph unicode="3" horiz-adv-x="471" d="M195 661q100 0 156.5 -49.5t56.5 -124.5q0 -54 -26.5 -94.5t-78.5 -61.5q57 -14 89 -53t32 -98q0 -81 -58 -133.5t-160 -52.5t-170 34v96q74 -40 162 -40q59 0 92.5 29.5t33.5 76.5t-37 73t-111 26h-40v84h40q55 0 92.5 27.5t37.5 75.5t-30.5 72t-91 24t-127.5 -42v95 q62 36 138 36z" />
<glyph unicode="4" horiz-adv-x="546" d="M524 238v-85h-92v-153h-98v153h-296v85l235 417h159v-417h92zM334 238v357l-197 -357h197z" />
<glyph unicode="5" horiz-adv-x="507" d="M180 570v-172q37 8 68 8q102 0 160 -53.5t58 -148t-64.5 -153t-173.5 -58.5t-176 34v95q64 -39 154 -39q158 0 158 128q0 51 -35.5 79.5t-103.5 28.5t-142 -35v371h339v-85h-242z" />
<glyph unicode="6" horiz-adv-x="529" d="M358 581q-88 0 -141 -62.5t-67 -160.5q65 63 154 63t140.5 -57t51.5 -154t-58 -160t-156 -63q-114 0 -174.5 85t-60.5 225q0 164 83.5 269t223.5 105q50 0 95 -15v-95q-39 20 -91 20zM188.5 124.5q37.5 -48.5 92 -48.5t84.5 37.5t30 96.5t-30 92t-80 33q-78 0 -138 -65 q4 -97 41.5 -145.5z" />
<glyph unicode="7" horiz-adv-x="459" d="M14 654h431v-85l-266 -569h-105l267 569h-327v85z" />
<glyph unicode="8" horiz-adv-x="538" d="M492 174q0 -83 -64 -133t-161 -50t-159 48.5t-62 129.5q0 116 111 159q-47 20 -73.5 58t-26.5 89q0 88 61 138t149.5 50t149.5 -48.5t61 -144t-98 -141.5q112 -38 112 -155zM350.5 550q-27.5 29 -81.5 29t-83 -30t-29 -77t31.5 -73.5t80 -26.5t79 27.5t30.5 74.5 t-27.5 76zM177 103q31 -28 91 -28t92.5 30t32.5 74t-32 74t-93 29.5t-91.5 -32t-30.5 -75.5t31 -72z" />
<glyph unicode="9" horiz-adv-x="512" d="M173 83q172 0 198 204q-48 -55 -136.5 -55t-146 58t-57.5 153t57 157t162 62t163.5 -82.5t58.5 -213.5q0 -178 -75.5 -276t-216.5 -98q-64 0 -115 19v95q51 -23 108 -23zM252 316q76 0 123 59q-2 91 -33.5 144.5t-89 53.5t-88.5 -34.5t-31 -94t32.5 -94t86.5 -34.5z" />
<glyph unicode=":" horiz-adv-x="250" d="M58 66q0 28 19.5 47.5t47.5 19.5t47.5 -19.5t19.5 -47.5t-19.5 -47.5t-48 -19.5t-47.5 19.5t-19 47.5zM77 343q-19 19 -19 47.5t19.5 48t47.5 19.5t47.5 -19.5t19.5 -47.5t-19.5 -47.5t-48 -19.5t-47.5 19z" />
<glyph unicode=";" horiz-adv-x="245" d="M-8 -124l96 234h121l-131 -234h-86zM90 343q-19 19 -19 47.5t19 48t47.5 19.5t48 -20t19.5 -48t-19.5 -47t-48 -19t-47.5 19z" />
<glyph unicode="&#x3c;" horiz-adv-x="545" d="M53 293v95l444 185v-100q-290 -107 -342 -132q40 -20 342 -133v-100z" />
<glyph unicode="=" horiz-adv-x="564" d="M53 193v85h457v-85h-457zM53 403v84h457v-84h-457z" />
<glyph unicode="&#x3e;" horiz-adv-x="545" d="M491 388v-95l-443 -185v100q288 107 342 133q-48 22 -342 132v100z" />
<glyph unicode="?" horiz-adv-x="454" d="M114 60q0 29 20 49t48.5 20t48.5 -20t20 -49t-20 -48.5t-49 -19.5t-48.5 19.5t-19.5 48.5zM51 645q65 37 158.5 37t151 -48.5t57.5 -134t-58 -132.5t-129 -52l-1 -101h-93l-1 161q181 0 181 117q0 47 -30 75.5t-96 28.5t-140 -48v97z" />
<glyph unicode="@" horiz-adv-x="926" d="M573 356q0 15 4 63h80q-17 -175 -17 -223q0 -103 62 -103q41 0 68.5 46.5t27.5 121.5q0 138 -85 212.5t-224 74.5t-241.5 -102t-102.5 -246t83 -221.5t203 -77.5q101 0 184 44l-4 -91q-75 -36 -181 -36q-174 0 -275 107.5t-101 271.5q0 122 60.5 222t162.5 155.5 t222 55.5q161 0 272.5 -99.5t111.5 -263.5q0 -115 -56 -183.5t-129 -68.5q-100 0 -128 93q-48 -95 -149 -95q-76 0 -120 55t-44 143t57 150t139 62t120 -67zM374.5 119.5q26.5 -30.5 66.5 -30.5t73.5 27.5t47.5 76.5q2 24 3 51q-16 103 -102 103q-50 0 -82.5 -41.5 t-32.5 -98.5t26.5 -87.5z" />
<glyph unicode="A" horiz-adv-x="660" d="M519 0l-53 165h-272l-54 -165h-109l233 674h135l230 -674h-110zM222 251h216q-87 269 -107 345q-7 -29 -109 -345z" />
<glyph unicode="B" horiz-adv-x="581" d="M73 674h221q106 0 167 -49.5t61 -130.5q0 -56 -31.5 -98t-80.5 -54q55 -10 92.5 -51t37.5 -115.5t-54.5 -125t-153.5 -50.5h-259v674zM176 589v-207h93q75 0 111.5 30.5t36.5 76.5t-32.5 73t-98.5 27h-110zM176 85h132q127 0 127 105q0 51 -34.5 79.5t-102.5 28.5h-122 v-213z" />
<glyph unicode="C" horiz-adv-x="605" d="M390 588q-101 0 -168.5 -68.5t-67.5 -182.5t67 -182t170.5 -68t169.5 50v-104q-62 -41 -172 -41q-151 0 -247 94t-96 249.5t96.5 251.5t244.5 96q108 0 173 -37v-101q-44 24 -79.5 33.5t-90.5 9.5z" />
<glyph unicode="D" horiz-adv-x="667" d="M73 674h210q150 0 246 -93t96 -240t-90.5 -244t-249.5 -97h-212v674zM178 87h106q115 0 175 72t60 180.5t-65 177.5t-173 69h-103v-499z" />
<glyph unicode="E" horiz-adv-x="514" d="M176 86h286v-86h-389v674h384v-86h-281v-208h249v-86h-249v-208z" />
<glyph unicode="F" horiz-adv-x="494" d="M455 588h-279v-221h245v-86h-245v-281h-103v674h382v-86z" />
<glyph unicode="G" horiz-adv-x="681" d="M615 385v-323h-1l1 -7q-87 -63 -218 -63q-158 0 -254.5 93t-96.5 250.5t97.5 254t247.5 96.5q117 0 196 -45v-106q-86 54 -193 54t-173.5 -69t-66.5 -183.5t65.5 -181.5t180.5 -67q60 0 114 22v186h-137v89h238z" />
<glyph unicode="H" horiz-adv-x="656" d="M479 674h103v-674h-103v295h-303v-295h-103v674h103v-290h303v290z" />
<glyph unicode="I" horiz-adv-x="264" d="M81 0v674h102v-674h-102z" />
<glyph unicode="J" horiz-adv-x="368" d="M112 91q82 0 82 87v496h103v-492q0 -93 -45.5 -137.5t-115 -44.5t-106.5 21v95q41 -25 82 -25z" />
<glyph unicode="K" horiz-adv-x="599" d="M312 334l262 -334h-130l-255 333l245 341h125zM73 0v674h103v-674h-103z" />
<glyph unicode="L" horiz-adv-x="480" d="M176 91h276v-91h-379v674h103v-583z" />
<glyph unicode="M" horiz-adv-x="868" d="M64 0l52 674h122q143 -392 187 -528q52 154 195 528h122l62 -674h-102l-24 264l-21 270q-55 -154 -192 -521h-81l-91 251l-91 266q0 -55 -36 -530h-102z" />
<glyph unicode="N" horiz-adv-x="680" d="M73 0v674h122q259 -440 315 -550q-6 91 -6 267v283h103v-674h-122q-255 429 -317 551q8 -100 8 -269v-282h-103z" />
<glyph unicode="O" horiz-adv-x="711" d="M154 340q0 -116 55 -184t148.5 -68t146.5 67t53 184.5t-53.5 184.5t-148 67t-148 -67.5t-53.5 -183.5zM130.5 87q-84.5 95 -84.5 252.5t84 252.5t226.5 95t225.5 -94.5t83 -252.5t-83.5 -253t-225 -95t-226 95z" />
<glyph unicode="P" horiz-adv-x="550" d="M73 674h193q116 0 184 -61.5t68 -157.5t-68.5 -156t-177.5 -60h-96v-239h-103v674zM176 324h99q65 2 102 39t37 93.5t-38.5 94t-106.5 38.5h-93v-265z" />
<glyph unicode="Q" horiz-adv-x="719" d="M356 -8q-141 0 -225.5 95t-84.5 252.5t84 252.5t226.5 95t225.5 -94.5t83 -252.5q0 -113 -44 -196t-124 -122l202 -121l-114 -45l-197 137q-11 -1 -32 -1zM154 340q0 -116 55 -184t148.5 -68t146.5 67t53 184.5t-53.5 184.5t-148 67t-148 -67.5t-53.5 -183.5z" />
<glyph unicode="R" horiz-adv-x="568" d="M176 256v-256h-103v674h188q116 0 179 -56.5t63 -153.5q-1 -71 -36 -120.5t-97 -71.5l176 -272h-123l-158 256h-89zM176 588v-246h93q64 0 97 33.5t33 89.5q0 123 -135 123h-88z" />
<glyph unicode="S" horiz-adv-x="521" d="M285 587q-55 0 -86.5 -24.5t-31.5 -64.5t31 -64t84 -47t76.5 -36t53.5 -37q60 -45 60 -132t-63 -138t-168.5 -51t-178.5 43v107q79 -59 183 -59q55 0 87 25.5t32 70.5q0 27 -19 49.5t-41 34t-57 27.5t-45.5 21t-34.5 18t-35.5 22t-28.5 25t-25 32q-20 44 -20 84 q0 86 62.5 136t157.5 50t159 -32v-102q-67 42 -152 42z" />
<glyph unicode="T" horiz-adv-x="500" d="M478 674v-86h-177v-588h-103v588h-176v86h456z" />
<glyph unicode="U" horiz-adv-x="652" d="M478 256v418h103v-416q0 -131 -68 -199t-187 -68t-187 66.5t-68 192.5v424h103v-423q0 -86 41.5 -125.5t109.5 -39.5q153 0 153 170z" />
<glyph unicode="V" horiz-adv-x="643" d="M613 674l-233 -674h-122l-227 674h110q140 -436 179 -582q32 120 96 314l87 268h110z" />
<glyph unicode="W" horiz-adv-x="947" d="M432 664h91l71 -240l91 -317q36 178 128 567h104l-165 -674h-123l-64 213l-87 301q-18 -74 -146 -514h-124l-177 674h107l63 -249l74 -316q42 155 157 555z" />
<glyph unicode="X" horiz-adv-x="628" d="M311 253l-153 -253h-123l216 341l-204 333h119l143 -242l141 242h123l-204 -334l223 -340h-121z" />
<glyph unicode="Y" horiz-adv-x="608" d="M354 0h-103v251l-228 423h118q143 -296 161 -339q9 30 116 240l49 99h118l-231 -423v-251z" />
<glyph unicode="Z" horiz-adv-x="584" d="M516 674v-79l-341 -510h355v-85h-476v81l340 508h-335v85h457z" />
<glyph unicode="[" horiz-adv-x="325" d="M319 620h-150v-719h150v-87h-246v893h246v-87z" />
<glyph unicode="\" horiz-adv-x="420" d="M65 707l363 -810h-101l-364 810h102z" />
<glyph unicode="]" horiz-adv-x="325" d="M252 707v-893h-245v87h150v719h-150v87h245z" />
<glyph unicode="^" horiz-adv-x="470" d="M428 332h-95l-97 190l-99 -190h-96l145 262h100z" />
<glyph unicode="_" horiz-adv-x="557" d="M26 -119v84h505v-84h-505z" />
<glyph unicode="`" horiz-adv-x="444" d="M230 798l95 -162h-84l-120 162h109z" />
<glyph unicode="a" horiz-adv-x="499" d="M237 515q199 0 199 -193v-322h-97v60q-39 -64 -137 -64q-72 0 -115.5 41.5t-43.5 110t55 109t154 40.5h84v29q0 52 -25 78.5t-83 26.5q-81 0 -147 -45v95q59 34 156 34zM336 226h-76q-56 0 -84.5 -22t-28.5 -56.5t22 -54.5t67 -20t72.5 26.5t27.5 69.5v57z" />
<glyph unicode="b" horiz-adv-x="582" d="M170 707v-277q54 84 151.5 84t158.5 -72t61 -185t-58 -188.5t-159 -75.5t-154 84v-77h-99v707h99zM210 123q40 -44 97 -44t95 47.5t38 128t-38 127t-93.5 46.5t-97 -42t-41.5 -130.5t40 -132.5z" />
<glyph unicode="c" horiz-adv-x="471" d="M315 75q60 0 112 33v-88q-49 -30 -125 -30q-119 0 -190 75t-71 185.5t71.5 188t193.5 77.5q66 0 121 -28v-90q-49 31 -119.5 31t-118 -50t-47.5 -128q2 -77 47 -126.5t126 -49.5z" />
<glyph unicode="d" horiz-adv-x="580" d="M412 707h99v-707h-99v77q-53 -84 -154 -84t-159 75.5t-58 188.5t61 185t158.5 72t151.5 -84v277zM179.5 126q37.5 -47 95 -47t97.5 44t40 132.5t-41.5 130.5t-97 42t-93.5 -46.5t-38 -127.5t37.5 -128z" />
<glyph unicode="e" horiz-adv-x="525" d="M299 -5q-118 0 -188 71t-70 189.5t64 188t162 69.5t155 -60.5t57 -174.5q0 -31 -6 -65h-333q10 -66 56 -101t121.5 -35t129.5 38v-88q-56 -32 -148 -32zM384 290v18q-2 57 -31 90.5t-81 33.5t-88 -36.5t-45 -105.5h245z" />
<glyph unicode="f" horiz-adv-x="334" d="M282 632q-73 0 -73 -87v-38h107v-76h-107v-431h-98v431h-81v76h81v39q0 79 42.5 124.5t119.5 45.5q28 0 57 -8v-86q-23 10 -48 10z" />
<glyph unicode="g" horiz-adv-x="559" d="M398 507h98v-464q0 -117 -66.5 -176.5t-167.5 -59.5t-168 33v99q64 -42 155 -42q149 0 149 147v52q-49 -82 -141 -82t-153 63.5t-61 177.5t57 186.5t154.5 72.5t143.5 -86v79zM182.5 139q36.5 -41 87.5 -41t89.5 40.5t38.5 122t-36.5 124.5t-92 43t-89.5 -46.5t-34 -124 t36.5 -118.5z" />
<glyph unicode="h" horiz-adv-x="551" d="M167 707v-287q43 94 157 94q74 0 119 -46t45 -128v-340h-98v320q0 52 -26.5 80.5t-73 28.5t-85 -38t-38.5 -116v-275h-98v707h98z" />
<glyph unicode="i" horiz-adv-x="245" d="M61 662q0 26 17.5 44t43.5 18t44 -18t18 -43.5t-18 -43.5t-44 -18t-43.5 17.5t-17.5 43.5zM73 0v507h99v-507h-99z" />
<glyph unicode="j" horiz-adv-x="242" d="M62 662q0 26 17.5 44t43.5 18t44 -18t18 -43.5t-18 -43.5t-43.5 -18t-43.5 17.5t-18 43.5zM20 -114q55 0 55 71v550h98v-552q0 -71 -37.5 -111t-106.5 -40q-32 0 -73 15v83q32 -16 64 -16z" />
<glyph unicode="k" horiz-adv-x="500" d="M284 265l199 -265h-117l-195 265l191 242h115zM69 0v700h98v-700h-98z" />
<glyph unicode="l" horiz-adv-x="245" d="M73 0v707h99v-707h-99z" />
<glyph unicode="m" horiz-adv-x="830" d="M167 507v-81q43 88 143 88q114 0 146 -98q21 47 61 72.5t90 25.5q78 0 118.5 -46t40.5 -127v-341h-98v320q0 109 -88 109q-44 0 -78.5 -39t-34.5 -115v-275h-98v320q0 109 -89 109q-43 0 -78 -39t-35 -115v-275h-98v507h98z" />
<glyph unicode="n" horiz-adv-x="551" d="M167 507v-87q45 94 158 94q75 0 119 -46t44 -125v-343h-98v320q0 53 -26.5 81t-74.5 28t-85 -40.5t-37 -113.5v-275h-98v507h98z" />
<glyph unicode="o" horiz-adv-x="564" d="M386 380.5q-34 50.5 -102.5 50.5t-104.5 -51.5t-36 -127t37 -127t103 -51.5t101.5 50t35.5 128t-34 128.5zM458.5 65q-64.5 -74 -177 -74t-176.5 73t-64 186t66 188.5t178 75.5t175 -73.5t63 -187.5t-64.5 -188z" />
<glyph unicode="p" horiz-adv-x="580" d="M167 507v-78q52 85 154 85t160 -72.5t58 -186t-59.5 -188t-159.5 -74.5t-153 84v-271h-98v701h98zM208.5 123q41.5 -44 97.5 -44t94 46.5t38 128t-37 128t-94 46.5t-98.5 -41.5t-41.5 -130.5t41.5 -133z" />
<glyph unicode="q" horiz-adv-x="580" d="M412 507h99v-701h-99v272q-54 -85 -153 -85t-158.5 74.5t-59.5 188t58.5 186t158.5 72.5t154 -83v76zM180.5 126q38.5 -47 94.5 -47t96.5 44t40.5 133t-41 130.5t-97.5 41.5t-94 -47t-37.5 -127.5t38.5 -127.5z" />
<glyph unicode="r" horiz-adv-x="339" d="M167 507v-89q37 94 133 94q14 0 31 -3v-96q-21 9 -47 9q-51 0 -84 -45t-33 -107v-270h-98v507h98z" />
<glyph unicode="s" horiz-adv-x="419" d="M232 430q-35 0 -55.5 -16t-20.5 -42q0 -31 26 -47q8 -5 12.5 -8.5t15 -8.5t15.5 -8q15 -7 54.5 -24t73 -49.5t33.5 -93.5t-48 -99.5t-134 -38.5t-146 30v93q70 -43 145 -43q39 0 60.5 16t21.5 40t-17 41.5t-34.5 26t-59.5 26.5q-119 49 -119 144q0 67 50 105t128.5 38 t124.5 -22v-89q-49 29 -126 29z" />
<glyph unicode="t" horiz-adv-x="374" d="M196 431v-279q0 -73 70 -73q41 0 69 22v-88q-33 -18 -81 -18q-157 0 -157 159v277h-79v76h79v124h99v-124h133v-76h-133z" />
<glyph unicode="u" horiz-adv-x="551" d="M384 507h98v-507h-98v87q-40 -93 -158 -93q-75 0 -119 44.5t-44 122.5v346h99v-322q0 -52 25.5 -79.5t76.5 -27.5t85.5 40t34.5 113v276z" />
<glyph unicode="v" horiz-adv-x="514" d="M199 0l-180 507h103q121 -377 134 -430q9 49 66 216l71 214h102l-184 -507h-112z" />
<glyph unicode="w" horiz-adv-x="796" d="M178 0l-159 507h104q99 -353 110 -412q14 68 115 412h95q97 -324 117 -413q12 59 118 413h99l-161 -507h-112q-90 317 -108 400q-13 -62 -107 -400h-111z" />
<glyph unicode="x" horiz-adv-x="492" d="M300 257l169 -257h-111l-111 186l-117 -186h-108l173 258l-162 250h111l106 -179l109 179h110z" />
<glyph unicode="y" horiz-adv-x="504" d="M85 -181q-27 0 -46 5v84q16 -4 34 -4q97 0 136 107l-202 496h109l63 -165l79 -214q13 42 129 379h104l-183 -493q-73 -195 -223 -195z" />
<glyph unicode="z" horiz-adv-x="461" d="M405 507v-70l-249 -354h262v-83h-375v75l246 350h-237v82h353z" />
<glyph unicode="{" horiz-adv-x="348" d="M46 212v96q14 0 25 1q41 4 64 36t23 75q0 21 -9 65.5t-9 69.5q0 70 40 114t98 44q26 0 53 -9v-94q-17 9 -39 9t-37.5 -19t-15.5 -45.5t9 -74t9 -75.5q0 -57 -32.5 -97t-87.5 -48q55 -8 87.5 -48.5t32.5 -97.5q0 -28 -9 -75.5t-9 -73.5t15.5 -45.5t37.5 -19.5t39 9v-94 q-27 -9 -53 -9q-58 0 -98 44t-40 114q0 25 9 69.5t9 65.5q0 43 -22 75q-27 38 -90 38z" />
<glyph unicode="|" horiz-adv-x="243" d="M76 -194v889h91v-889h-91z" />
<glyph unicode="}" horiz-adv-x="348" d="M69 713q59 0 98.5 -43.5t39.5 -114.5q0 -25 -9 -69.5t-9 -65.5q0 -43 23 -75t65 -36q10 -1 25 -1v-96q-64 0 -88.5 -35t-24.5 -78q0 -21 9 -65.5t9 -69.5q0 -71 -39.5 -114.5t-98.5 -43.5q-25 0 -52 9v94q15 -9 37.5 -9t38.5 19.5t16 45.5t-9 73.5t-9 75.5q0 57 32 97.5 t87 48.5q-55 8 -87 48t-32 97q0 28 9 75.5t9 73.5t-16 45.5t-38.5 19.5t-37.5 -9v94q27 9 52 9z" />
<glyph unicode="~" horiz-adv-x="615" d="M429 192q-51 0 -119.5 33.5t-97.5 33.5q-63 0 -112 -66l-66 56q69 99 160 99q45 0 86 -16.5t74.5 -33t60.5 -16.5q55 0 95 59l71 -53q-63 -96 -152 -96z" />
<glyph unicode="&#xa1;" horiz-adv-x="262" d="M83 -165v460h96v-460h-96zM62 449q0 29 19.5 48.5t48.5 19.5t49 -19.5t20 -48.5t-20.5 -49t-49 -20t-48 20t-19.5 49z" />
<glyph unicode="&#xa2;" horiz-adv-x="460" d="M318 427q-79 0 -127 -49.5t-49 -126.5q2 -76 48.5 -125t127.5 -49q54 0 102 28v-88q-34 -16 -79 -23v-105h-84v106q-99 16 -157.5 87t-58 169t58 170t157.5 88v108h84v-106q42 -5 79 -23v-88q-48 27 -102 27z" />
<glyph unicode="&#xa3;" horiz-adv-x="527" d="M250 285l1 -35q0 -118 -74 -165h313v-85h-434v82q52 26 72 63.5t20 104.5q0 11 -2 35h-86v75h78q-7 51 -7 81q0 104 55 161t157 57q69 0 117 -27v-96q-48 30 -102 30q-122 0 -122 -125q0 -25 6 -81h176v-75h-168z" />
<glyph unicode="&#xa4;" horiz-adv-x="551" d="M140 312q0 -58 38.5 -97.5t98 -39.5t97.5 39t38 97.5t-38.5 98t-97.5 39.5t-97.5 -39.5t-38.5 -97.5zM91 188q-35 50 -35 119t36 125l-60 60l61 59l60 -60q54 37 122.5 37t125.5 -34l58 57l60 -59l-58 -58q35 -55 35 -121.5t-38 -122.5l61 -60l-60 -59l-62 60 q-52 -35 -123.5 -35t-122.5 33l-58 -58l-61 59z" />
<glyph unicode="&#xa5;" horiz-adv-x="600" d="M526 362v-68h-155l-22 -40v-41h177v-68h-177v-145h-103v145h-176v68h176v41l-22 40h-154v68h116l-160 292h118l153 -300l157 300h117l-162 -292h117z" />
<glyph unicode="&#xa6;" horiz-adv-x="243" d="M167 -160h-91v333h91v-333zM167 367h-91v333h91v-333z" />
<glyph unicode="&#xa7;" horiz-adv-x="537" d="M283 588q-56 0 -86 -21t-30 -59q0 -34 29 -54q25 -17 64.5 -35t68 -31.5t52 -27.5t49.5 -36q49 -44 49 -118.5t-42 -121.5q38 -45 38 -102q0 -86 -61.5 -133t-167.5 -47t-179 43v107q79 -59 183 -59q57 0 88.5 22.5t31.5 62.5t-30 63.5t-114 60.5t-128.5 79.5 t-44.5 111.5t43 119q-36 38 -36 93q0 83 61 129t155.5 46t158.5 -32v-102q-70 42 -152 42zM175 359q-22 -28 -22 -65.5t31.5 -61.5t89.5 -49t87 -41q19 25 19 62.5t-28.5 60.5t-65.5 41t-45 22q-24 10 -66 31z" />
<glyph unicode="&#xa8;" horiz-adv-x="444" d="M272 719q0 25 17 42.5t43 17.5t43.5 -17t17.5 -43t-17.5 -43t-43.5 -17t-43 17.5t-17 42.5zM51 719q0 26 17 43t43.5 17t43.5 -17.5t17 -42.5t-17 -42.5t-43.5 -17.5t-43.5 17t-17 43z" />
<glyph unicode="&#xa9;" horiz-adv-x="772" d="M336 255.5q30 -31.5 76 -31.5t81 25v-74q-36 -21 -88 -21q-80 0 -131 52t-51 129t50 130.5t135 53.5q47 0 85 -21v-73q-34 22 -80 22t-77 -30.5t-30.5 -80t30.5 -81zM116 336q0 -113 78.5 -191.5t192 -78.5t191.5 78.5t78 191.5t-78.5 192t-191.5 79t-191.5 -79 t-78.5 -192zM41 337q0 142 101.5 243.5t243.5 101.5t243.5 -101.5t101.5 -243.5t-101.5 -244t-243.5 -102t-243.5 102t-101.5 244z" />
<glyph unicode="&#xaa;" horiz-adv-x="365" d="M36 797q51 29 134 29q165 0 165 -162v-272h-82v53q-39 -57 -115 -57q-61 0 -97.5 34t-36.5 93t46.5 94t130.5 35h70v22q0 44 -21 66.5t-80.5 22.5t-113.5 -37v79zM251 582h-57q-50 0 -77 -17t-27 -47.5t19 -47t56 -16.5t61.5 22.5t24.5 54.5v51z" />
<glyph unicode="&#xab;" horiz-adv-x="512" d="M479 415l-146 -162l146 -162h-106l-151 162l151 162h106zM284 415l-147 -162l147 -162h-107l-150 162l150 162h107z" />
<glyph unicode="&#xac;" horiz-adv-x="565" d="M526 153h-87v177h-408v84h495v-261z" />
<glyph unicode="&#xad;" horiz-adv-x="350" d="M53 225v84h244v-84h-244z" />
<glyph unicode="&#xae;" horiz-adv-x="462" d="M231 787q96 0 158.5 -62t62.5 -158t-62.5 -158t-158.5 -62t-158.5 62t-62.5 158t62.5 158t158.5 62zM108.5 444q46.5 -47 123 -47t123 47t46.5 123t-46.5 123.5t-123 47.5t-123 -47.5t-46.5 -123.5t46.5 -123zM163 684h64q84 0 84 -70q0 -44 -36 -62l56 -88h-56l-48 80 h-17v-80h-47v220zM210 645v-63h24q29 0 29 31.5t-32 31.5h-21z" />
<glyph unicode="&#xaf;" horiz-adv-x="444" d="M374 681h-304v68h304v-68z" />
<glyph unicode="&#xb0;" horiz-adv-x="380" d="M105 521q0 -36 25 -61.5t61 -25.5t60 25.5t24 61.5t-25 61.5t-61 25.5t-60 -25.5t-24 -61.5zM75.5 407.5q-45.5 44.5 -45.5 112t46.5 113.5t114.5 46t113.5 -45t45.5 -112.5t-46.5 -113t-114.5 -45.5t-113.5 44.5z" />
<glyph unicode="&#xb1;" horiz-adv-x="564" d="M325 414h185v-85h-185v-160h-91v160h-181v85h181v160h91v-160zM53 30v84h457v-84h-457z" />
<glyph unicode="&#xb2;" horiz-adv-x="365" d="M43 392v57q190 141 190 238q0 33 -19.5 50.5t-52.5 17.5q-51 0 -105 -40v79q53 33 113.5 33t102 -35t41.5 -96t-46 -122.5t-121 -116.5h181v-65h-284z" />
<glyph unicode="&#xb3;" horiz-adv-x="333" d="M105 642h21q36 0 59 15.5t23 44.5q0 57 -66 57q-46 0 -94 -33v74q43 27 104 27t98 -33.5t37 -78.5q0 -87 -79 -104q38 -4 64 -32t26 -76t-38 -81.5t-106.5 -33.5t-118.5 25v70q53 -28 99 -28q86 0 86 60q0 62 -94 62h-21v65z" />
<glyph unicode="&#xb4;" horiz-adv-x="444" d="M121 636l95 162h109l-120 -162h-84z" />
<glyph unicode="&#xb5;" horiz-adv-x="557" d="M390 507h98v-507h-98v72q-36 -78 -125 -78q-57 0 -98 29v-202h-98v686h98v-322q0 -51 32.5 -79t82.5 -28t79 39.5t29 113.5v276z" />
<glyph unicode="&#xb6;" horiz-adv-x="559" d="M488 674v-822h-83l1 822h82zM297 674v-822h-82v482q-92 0 -143 48.5t-51 119.5t51.5 121.5t149.5 50.5h75z" />
<glyph unicode="&#xb7;" horiz-adv-x="242" d="M54 300q0 28 19.5 47.5t48 19.5t48 -19.5t19.5 -47.5t-19.5 -48t-47.5 -20t-48 20t-20 48z" />
<glyph unicode="&#xb8;" horiz-adv-x="444" d="M283 -51q18 -25 18 -76.5t-41 -90t-118 -39.5v68q82 5 82 69q0 32 -25 69h84z" />
<glyph unicode="&#xb9;" horiz-adv-x="258" d="M194 823v-431h-75v346l-109 -60v75l122 70h62z" />
<glyph unicode="&#xba;" horiz-adv-x="395" d="M282 716q-27 43 -83 43t-85 -44t-29 -108.5t30 -108t83.5 -43.5t82 42.5t28.5 109t-27 109.5zM343.5 448.5q-52.5 -62.5 -146 -62.5t-146 61.5t-52.5 157.5t54 159.5t147 63.5t144.5 -62t51.5 -158.5t-52.5 -159z" />
<glyph unicode="&#xbb;" horiz-adv-x="514" d="M335 415l150 -162l-150 -162h-106l146 162l-146 162h106zM139 415l151 -162l-151 -162h-106l146 162l-146 162h106z" />
<glyph unicode="&#xbf;" horiz-adv-x="454" d="M355 449q0 -29 -19.5 -48.5t-48.5 -19.5t-49 19.5t-20 48.5t20 48.5t49 19.5t48.5 -19.5t19.5 -48.5zM418 -136q-68 -37 -160.5 -37t-149.5 48.5t-57 134.5q0 59 31 102q56 76 156 83l1 101h93l1 -162q-181 0 -181 -116q0 -47 29.5 -75.5t96.5 -28.5t140 47v-97z" />
<glyph unicode="&#xc0;" horiz-adv-x="660" d="M519 0l-53 165h-272l-54 -165h-109l233 674h135l230 -674h-110zM222 251h216q-87 269 -107 345q-7 -29 -109 -345zM369 725h-84l-120 162h109z" />
<glyph unicode="&#xc1;" horiz-adv-x="660" d="M519 0l-53 165h-272l-54 -165h-109l233 674h135l230 -674h-110zM222 251h216q-87 269 -107 345q-7 -29 -109 -345zM502 887l-120 -162h-84l95 162h109z" />
<glyph unicode="&#xc2;" horiz-adv-x="660" d="M519 0l-53 165h-272l-54 -165h-109l233 674h135l230 -674h-110zM222 251h216q-87 269 -107 345q-7 -29 -109 -345zM332 827l-82 -102h-97l135 162h90l135 -162h-97z" />
<glyph unicode="&#xc3;" horiz-adv-x="660" d="M519 0l-53 165h-272l-54 -165h-109l233 674h135l230 -674h-110zM222 251h216q-87 269 -107 345q-7 -29 -109 -345zM400 752q-29 0 -69.5 20.5t-60.5 20.5q-35 0 -66 -46l-49 45q14 31 42.5 52.5t61.5 21.5t75 -20.5t61 -20.5q37 0 58 43l56 -42q-35 -74 -109 -74z" />
<glyph unicode="&#xc4;" horiz-adv-x="660" d="M519 0l-53 165h-272l-54 -165h-109l233 674h135l230 -674h-110zM222 251h216q-87 269 -107 345q-7 -29 -109 -345zM267.5 764.5q-17.5 -17.5 -43.5 -17.5t-43 17t-17 43t17 43t43 17t43.5 -17.5t17.5 -42.5t-17.5 -42.5zM488.5 764q-17.5 -17 -43 -17t-43 17.5 t-17.5 42.5t17.5 42.5t43 17.5t43 -17t17.5 -43t-17.5 -43z" />
<glyph unicode="&#xc5;" horiz-adv-x="660" d="M519 0l-53 165h-272l-54 -165h-109l233 674h135l230 -674h-110zM222 251h216q-87 269 -107 345q-7 -29 -109 -345zM415 748.5q-34 -33.5 -81.5 -33.5t-81 33.5t-33.5 81t33.5 81.5t81 34t81.5 -34t34 -81.5t-34 -81zM371.5 869q-15.5 16 -38 16t-38 -16t-15.5 -38 t15.5 -38.5t38 -16.5t38 16.5t15.5 38.5t-15.5 38z" />
<glyph unicode="&#xc6;" horiz-adv-x="897" d="M559 86h286v-86h-386v165h-241l-91 -165h-108l366 674h455v-86h-281v-208h249v-86h-249v-208zM459 251v357q-51 -103 -193 -357h193z" />
<glyph unicode="&#xc7;" horiz-adv-x="605" d="M390 588q-101 0 -168.5 -68.5t-67.5 -182.5t67 -182t170.5 -68t169.5 50v-104q-62 -41 -172 -41q-151 0 -247 94t-96 249.5t96.5 251.5t244.5 96q108 0 173 -37v-101q-44 24 -79.5 33.5t-90.5 9.5zM412 -51q18 -25 18 -76.5t-41 -90t-118 -39.5v68q82 5 82 69 q0 32 -25 69h84z" />
<glyph unicode="&#xc8;" horiz-adv-x="514" d="M176 86h286v-86h-389v674h384v-86h-281v-208h249v-86h-249v-208zM327 725h-84l-120 162h109z" />
<glyph unicode="&#xc9;" horiz-adv-x="514" d="M176 86h286v-86h-389v674h384v-86h-281v-208h249v-86h-249v-208zM442 887l-120 -162h-84l95 162h109z" />
<glyph unicode="&#xca;" horiz-adv-x="514" d="M176 86h286v-86h-389v674h384v-86h-281v-208h249v-86h-249v-208zM272 827l-82 -102h-97l135 162h90l135 -162h-97z" />
<glyph unicode="&#xcb;" horiz-adv-x="514" d="M176 86h286v-86h-389v674h384v-86h-281v-208h249v-86h-249v-208zM201.5 763q-17.5 -17 -43.5 -17t-43 17t-17 43t17 43t43 17t43.5 -17t17.5 -43t-17.5 -43zM422.5 763q-17.5 -17 -43 -17t-43 17t-17.5 43t17.5 43t43 17t43 -17t17.5 -43t-17.5 -43z" />
<glyph unicode="&#xcc;" horiz-adv-x="264" d="M74 887l95 -162h-84l-120 162h109zM81 0v674h102v-674h-102z" />
<glyph unicode="&#xcd;" horiz-adv-x="264" d="M94 725l95 162h109l-120 -162h-84zM81 0v674h102v-674h-102z" />
<glyph unicode="&#xce;" horiz-adv-x="264" d="M81 0v674h102v-674h-102zM88 887h90l135 -162h-97l-84 102l-82 -102h-97z" />
<glyph unicode="&#xcf;" horiz-adv-x="264" d="M185 807q0 25 17.5 42.5t43 17.5t43 -17t17.5 -43t-17.5 -43t-43 -17t-43 17.5t-17.5 42.5zM-36 807q0 26 17 43t43 17t43.5 -17.5t17.5 -42.5t-17.5 -42.5t-43.5 -17.5t-43 17t-17 43zM81 0v674h102v-674h-102z" />
<glyph unicode="&#xd0;" horiz-adv-x="736" d="M142 674h209q150 0 246 -93t96 -240t-90.5 -244t-249.5 -97h-211v294h-80v84h80v296zM246 87h106q116 0 176 72t60 180.5t-65.5 177.5t-173.5 69h-103v-208h164v-84h-164v-207z" />
<glyph unicode="&#xd1;" horiz-adv-x="680" d="M416 752q-29 0 -69.5 20.5t-60.5 20.5q-35 0 -66 -46l-49 45q14 31 42.5 52.5t61.5 21.5t75 -20.5t61 -20.5q37 0 58 43l56 -42q-35 -74 -109 -74zM73 0v674h122q259 -440 315 -550q-6 91 -6 267v283h103v-674h-122q-255 429 -317 551q8 -100 8 -269v-282h-103z" />
<glyph unicode="&#xd2;" horiz-adv-x="711" d="M312 887l95 -162h-84l-120 162h109zM154 340q0 -116 55 -184t148.5 -68t146.5 67t53 184.5t-53.5 184.5t-148 67t-148 -67.5t-53.5 -183.5zM130.5 87q-84.5 95 -84.5 252.5t84 252.5t226.5 95t225.5 -94.5t83 -252.5t-83.5 -253t-225 -95t-226 95z" />
<glyph unicode="&#xd3;" horiz-adv-x="711" d="M154 340q0 -116 55 -184t148.5 -68t146.5 67t53 184.5t-53.5 184.5t-148 67t-148 -67.5t-53.5 -183.5zM130.5 87q-84.5 95 -84.5 252.5t84 252.5t226.5 95t225.5 -94.5t83 -252.5t-83.5 -253t-225 -95t-226 95zM320 725l95 162h109l-120 -162h-84z" />
<glyph unicode="&#xd4;" horiz-adv-x="711" d="M317 887h90l135 -162h-97l-84 102l-82 -102h-97zM130.5 87q-84.5 95 -84.5 252.5t84 252.5t226.5 95t225.5 -94.5t83 -252.5t-83.5 -253t-225 -95t-226 95zM154 340q0 -116 55 -184t148.5 -68t146.5 67t53 184.5t-53.5 184.5t-148 67t-148 -67.5t-53.5 -183.5z" />
<glyph unicode="&#xd5;" horiz-adv-x="711" d="M425 753q-29 0 -69.5 20.5t-59.5 20.5q-36 0 -67 -46l-49 45q14 31 42.5 52.5t61.5 21.5t75 -20.5t61 -20.5q37 0 58 43l56 -42q-35 -74 -109 -74zM154 340q0 -116 55 -184t148.5 -68t146.5 67t53 184.5t-53.5 184.5t-148 67t-148 -67.5t-53.5 -183.5zM130.5 87 q-84.5 95 -84.5 252.5t84 252.5t226.5 95t225.5 -94.5t83 -252.5t-83.5 -253t-225 -95t-226 95z" />
<glyph unicode="&#xd6;" horiz-adv-x="711" d="M154 340q0 -116 55 -184t148.5 -68t146.5 67t53 184.5t-53.5 184.5t-148 67t-148 -67.5t-53.5 -183.5zM130.5 87q-84.5 95 -84.5 252.5t84 252.5t226.5 95t225.5 -94.5t83 -252.5t-83.5 -253t-225 -95t-226 95zM411 807q0 25 17.5 42.5t43 17.5t43 -17t17.5 -43 t-17.5 -43t-43 -17t-43 17.5t-17.5 42.5zM190 807q0 26 17 43t43 17t43.5 -17.5t17.5 -42.5t-17.5 -42.5t-43.5 -17.5t-43 17t-17 43z" />
<glyph unicode="&#xd7;" horiz-adv-x="503" d="M447 472l-133 -132l131 -130l-63 -63l-131 130l-130 -129l-64 63l130 130l-133 132l63 63l133 -132l133 132z" />
<glyph unicode="&#xd8;" horiz-adv-x="686" d="M585 583q75 -94 75 -247.5t-83.5 -248.5t-225.5 -95q-98 0 -171 48l-36 -48h-104l77 104q-77 94 -77 247.5t84 248.5t226 95q98 0 172 -47l35 46h104zM350 595q-95 0 -149.5 -68.5t-54.5 -174.5t36 -170l282 380q-45 33 -114 33zM351 84q96 0 149.5 68.5t53.5 187.5 q0 94 -34 157l-282 -379q48 -34 113 -34z" />
<glyph unicode="&#xd9;" horiz-adv-x="652" d="M277 887l95 -162h-84l-120 162h109zM478 256v418h103v-416q0 -131 -68 -199t-187 -68t-187 66.5t-68 192.5v424h103v-423q0 -86 41.5 -125.5t109.5 -39.5q153 0 153 170z" />
<glyph unicode="&#xda;" horiz-adv-x="652" d="M478 256v418h103v-416q0 -131 -68 -199t-187 -68t-187 66.5t-68 192.5v424h103v-423q0 -86 41.5 -125.5t109.5 -39.5q153 0 153 170zM297 725l95 162h109l-120 -162h-84z" />
<glyph unicode="&#xdb;" horiz-adv-x="652" d="M282 887h90l135 -162h-97l-84 102l-82 -102h-97zM478 256v418h103v-416q0 -131 -68 -199t-187 -68t-187 66.5t-68 192.5v424h103v-423q0 -86 41.5 -125.5t109.5 -39.5q153 0 153 170z" />
<glyph unicode="&#xdc;" horiz-adv-x="652" d="M478 256v418h103v-416q0 -131 -68 -199t-187 -68t-187 66.5t-68 192.5v424h103v-423q0 -86 41.5 -125.5t109.5 -39.5q153 0 153 170zM378 807q0 25 17 42.5t43 17.5t43.5 -17t17.5 -43t-17.5 -43t-43.5 -17t-43 17.5t-17 42.5zM157 807q0 26 17 43t43.5 17t43.5 -17.5 t17 -42.5t-17 -42.5t-43.5 -17.5t-43.5 17t-17 43z" />
<glyph unicode="&#xdd;" horiz-adv-x="608" d="M354 0h-103v251l-228 423h118q143 -296 161 -339q9 30 116 240l49 99h118l-231 -423v-251zM482 887l-120 -162h-84l95 162h109z" />
<glyph unicode="&#xde;" horiz-adv-x="544" d="M176 554h85q119 0 185.5 -60.5t66.5 -158t-67 -156.5t-179 -59h-91v-120h-103v674h103v-120zM176 205h89q72 0 108 35.5t36 94.5t-36.5 96.5t-113.5 37.5h-83v-264z" />
<glyph unicode="&#xdf;" horiz-adv-x="558" d="M264 98q43 -24 85 -24t64.5 18t22.5 45t-15 47.5t-37 37t-44 34.5q-52 41 -52 96q0 40 37 90t37 84t-24 54.5t-64 20.5q-106 0 -106 -111v-490h-97v486q0 100 54 152t143 52t141.5 -46.5t52.5 -112.5q0 -42 -18 -74.5t-35.5 -55t-17.5 -41.5t22 -40t48 -39.5t48 -55 t22 -82.5q0 -67 -46 -109t-126 -42q-59 0 -95 16v90z" />
<glyph unicode="&#xe0;" horiz-adv-x="499" d="M237 515q199 0 199 -193v-322h-97v60q-39 -64 -137 -64q-72 0 -115.5 41.5t-43.5 110t55 109t154 40.5h84v29q0 52 -25 78.5t-83 26.5q-81 0 -147 -45v95q59 34 156 34zM336 226h-76q-56 0 -84.5 -22t-28.5 -56.5t22 -54.5t67 -20t72.5 26.5t27.5 69.5v57zM301 558h-84 l-120 162h109z" />
<glyph unicode="&#xe1;" horiz-adv-x="499" d="M237 515q199 0 199 -193v-322h-97v60q-39 -64 -137 -64q-72 0 -115.5 41.5t-43.5 110t55 109t154 40.5h84v29q0 52 -25 78.5t-83 26.5q-81 0 -147 -45v95q59 34 156 34zM336 226h-76q-56 0 -84.5 -22t-28.5 -56.5t22 -54.5t67 -20t72.5 26.5t27.5 69.5v57zM419 720 l-120 -162h-84l95 162h109z" />
<glyph unicode="&#xe2;" horiz-adv-x="499" d="M237 515q199 0 199 -193v-322h-97v60q-39 -64 -137 -64q-72 0 -115.5 41.5t-43.5 110t55 109t154 40.5h84v29q0 52 -25 78.5t-83 26.5q-81 0 -147 -45v95q59 34 156 34zM336 226h-76q-56 0 -84.5 -22t-28.5 -56.5t22 -54.5t67 -20t72.5 26.5t27.5 69.5v57zM254 660 l-82 -102h-97l135 162h90l135 -162h-97z" />
<glyph unicode="&#xe3;" horiz-adv-x="499" d="M237 515q199 0 199 -193v-322h-97v60q-39 -64 -137 -64q-72 0 -115.5 41.5t-43.5 110t55 109t154 40.5h84v29q0 52 -25 78.5t-83 26.5q-81 0 -147 -45v95q59 34 156 34zM336 226h-76q-56 0 -84.5 -22t-28.5 -56.5t22 -54.5t67 -20t72.5 26.5t27.5 69.5v57zM320 585 q-29 0 -69.5 20.5t-60.5 20.5q-35 0 -66 -46l-49 45q14 31 42.5 52.5t61.5 21.5t75 -20.5t61 -20.5q37 0 58 43l56 -42q-35 -74 -109 -74z" />
<glyph unicode="&#xe4;" horiz-adv-x="499" d="M237 515q199 0 199 -193v-322h-97v60q-39 -64 -137 -64q-72 0 -115.5 41.5t-43.5 110t55 109t154 40.5h84v29q0 52 -25 78.5t-83 26.5q-81 0 -147 -45v95q59 34 156 34zM336 226h-76q-56 0 -84.5 -22t-28.5 -56.5t22 -54.5t67 -20t72.5 26.5t27.5 69.5v57zM189 595 q-17 -17 -43.5 -17t-43.5 17t-17 43t17 43t43.5 17t43.5 -17t17 -43t-17 -43zM366 578q-26 0 -43 17t-17 43t17 43t43 17t43.5 -17t17.5 -43t-17.5 -43t-43.5 -17z" />
<glyph unicode="&#xe5;" horiz-adv-x="499" d="M237 515q199 0 199 -193v-322h-97v60q-39 -64 -137 -64q-72 0 -115.5 41.5t-43.5 110t55 109t154 40.5h84v29q0 52 -25 78.5t-83 26.5q-81 0 -147 -45v95q59 34 156 34zM336 226h-76q-56 0 -84.5 -22t-28.5 -56.5t22 -54.5t67 -20t72.5 26.5t27.5 69.5v57zM338 581.5 q-34 -33.5 -81.5 -33.5t-81 33.5t-33.5 81t33.5 81.5t81 34t81.5 -34t34 -81.5t-34 -81zM294.5 702q-15.5 16 -38 16t-38 -16t-15.5 -38t15.5 -38.5t38 -16.5t38 16.5t15.5 38.5t-15.5 38z" />
<glyph unicode="&#xe6;" horiz-adv-x="816" d="M495.5 112q45.5 -35 118.5 -35t127 38v-88q-56 -32 -131 -32t-130.5 26.5t-84.5 74.5q-19 -44 -64.5 -72.5t-118.5 -28.5t-118.5 40t-45.5 110.5t55.5 111.5t155.5 41h82v28q0 52 -25 78.5t-94 26.5t-136 -44v93q58 35 152 35q125 0 160 -85q56 83 170 83q99 0 153.5 -61 t54.5 -177q0 -28 -6 -62h-331q11 -66 56.5 -101zM681 290v18q-1 59 -31 91.5t-80.5 32.5t-87 -36t-45.5 -106h244zM341 175v50h-67q-123 0 -123 -78q0 -34 22 -53.5t65.5 -19.5t73 27.5t29.5 73.5z" />
<glyph unicode="&#xe7;" horiz-adv-x="471" d="M330 -51q18 -25 18 -76.5t-41 -90t-118 -39.5v68q82 5 82 69q0 32 -25 69h84zM315 75q60 0 112 33v-88q-49 -30 -125 -30q-119 0 -190 75t-71 185.5t71.5 188t193.5 77.5q66 0 121 -28v-90q-49 31 -119.5 31t-118 -50t-47.5 -128q2 -77 47 -126.5t126 -49.5z" />
<glyph unicode="&#xe8;" horiz-adv-x="525" d="M299 -5q-118 0 -188 71t-70 189.5t64 188t162 69.5t155 -60.5t57 -174.5q0 -31 -6 -65h-333q10 -66 56 -101t121.5 -35t129.5 38v-88q-56 -32 -148 -32zM384 290v18q-2 57 -31 90.5t-81 33.5t-88 -36.5t-45 -105.5h245zM324 558h-84l-120 162h109z" />
<glyph unicode="&#xe9;" horiz-adv-x="525" d="M299 -5q-118 0 -188 71t-70 189.5t64 188t162 69.5t155 -60.5t57 -174.5q0 -31 -6 -65h-333q10 -66 56 -101t121.5 -35t129.5 38v-88q-56 -32 -148 -32zM384 290v18q-2 57 -31 90.5t-81 33.5t-88 -36.5t-45 -105.5h245zM448 720l-120 -162h-84l95 162h109z" />
<glyph unicode="&#xea;" horiz-adv-x="525" d="M299 -5q-118 0 -188 71t-70 189.5t64 188t162 69.5t155 -60.5t57 -174.5q0 -31 -6 -65h-333q10 -66 56 -101t121.5 -35t129.5 38v-88q-56 -32 -148 -32zM384 290v18q-2 57 -31 90.5t-81 33.5t-88 -36.5t-45 -105.5h245zM277 660l-82 -102h-97l135 162h90l135 -162h-97z " />
<glyph unicode="&#xeb;" horiz-adv-x="525" d="M299 -5q-118 0 -188 71t-70 189.5t64 188t162 69.5t155 -60.5t57 -174.5q0 -31 -6 -65h-333q10 -66 56 -101t121.5 -35t129.5 38v-88q-56 -32 -148 -32zM384 290v18q-2 57 -31 90.5t-81 33.5t-88 -36.5t-45 -105.5h245zM215 597q-17 -17 -43.5 -17t-43.5 17t-17 43t17 43 t43.5 17t43.5 -17t17 -43t-17 -43zM392 580q-26 0 -43 17t-17 43t17 43t43 17t43.5 -17t17.5 -43t-17.5 -43t-43.5 -17z" />
<glyph unicode="&#xec;" horiz-adv-x="245" d="M63 720l95 -162h-84l-120 162h109zM73 0v507h99v-507h-99z" />
<glyph unicode="&#xed;" horiz-adv-x="245" d="M88 558l95 162h109l-120 -162h-84zM73 0v507h99v-507h-99z" />
<glyph unicode="&#xee;" horiz-adv-x="245" d="M73 0v507h99v-507h-99zM79 720h90l135 -162h-97l-84 102l-82 -102h-97z" />
<glyph unicode="&#xef;" horiz-adv-x="245" d="M173 641q0 25 17.5 42.5t43 17.5t43 -17t17.5 -43t-17.5 -43t-43 -17t-43 17.5t-17.5 42.5zM-48 641q0 26 17 43t43 17t43.5 -17.5t17.5 -42.5t-17.5 -42.5t-43.5 -17.5t-43 17t-17 43zM73 0v507h99v-507h-99z" />
<glyph unicode="&#xf0;" horiz-adv-x="528" d="M483 275q0 -135 -60 -209.5t-163 -74.5t-163 62t-60 152.5t57.5 145.5t143 55t144.5 -62q-17 99 -81 185l-141 -71v67l100 50q-57 58 -130 99h142q37 -25 69 -58l120 60v-67l-80 -40q102 -134 102 -294zM171.5 112q32.5 -32 85 -32t88.5 40t41 130q-54 69 -135 69 q-50 0 -81 -32t-31 -87.5t32.5 -87.5z" />
<glyph unicode="&#xf1;" horiz-adv-x="551" d="M167 507v-87q45 94 158 94q75 0 119 -46t44 -125v-343h-98v320q0 53 -26.5 81t-74.5 28t-85 -40.5t-37 -113.5v-275h-98v507h98zM351 585q-29 0 -69.5 20.5t-59.5 20.5q-36 0 -67 -46l-49 45q14 31 42.5 52.5t61.5 21.5t75 -20.5t61 -20.5q37 0 58 43l56 -42 q-35 -74 -109 -74z" />
<glyph unicode="&#xf2;" horiz-adv-x="564" d="M234 720l95 -162h-84l-120 162h109zM386 380.5q-34 50.5 -102.5 50.5t-104.5 -51.5t-36 -127t37 -127t103 -51.5t101.5 50t35.5 128t-34 128.5zM458.5 65q-64.5 -74 -177 -74t-176.5 73t-64 186t66 188.5t178 75.5t175 -73.5t63 -187.5t-64.5 -188z" />
<glyph unicode="&#xf3;" horiz-adv-x="564" d="M386 380.5q-34 50.5 -102.5 50.5t-104.5 -51.5t-36 -127t37 -127t103 -51.5t101.5 50t35.5 128t-34 128.5zM458.5 65q-64.5 -74 -177 -74t-176.5 73t-64 186t66 188.5t178 75.5t175 -73.5t63 -187.5t-64.5 -188zM252 558l95 162h109l-120 -162h-84z" />
<glyph unicode="&#xf4;" horiz-adv-x="564" d="M240 719h90l135 -162h-97l-84 102l-82 -102h-97zM458.5 65q-64.5 -74 -177 -74t-176.5 73t-64 186t66 188.5t178 75.5t175 -73.5t63 -187.5t-64.5 -188zM386 380.5q-34 50.5 -102.5 50.5t-104.5 -51.5t-36 -127t37 -127t103 -51.5t101.5 50t35.5 128t-34 128.5z" />
<glyph unicode="&#xf5;" horiz-adv-x="564" d="M353 585q-29 0 -69.5 20.5t-59.5 20.5q-36 0 -67 -46l-49 45q14 31 42.5 52.5t61.5 21.5t75 -20.5t61 -20.5q37 0 58 43l56 -42q-35 -74 -109 -74zM386 380.5q-34 50.5 -102.5 50.5t-104.5 -51.5t-36 -127t37 -127t103 -51.5t101.5 50t35.5 128t-34 128.5zM458.5 65 q-64.5 -74 -177 -74t-176.5 73t-64 186t66 188.5t178 75.5t175 -73.5t63 -187.5t-64.5 -188z" />
<glyph unicode="&#xf6;" horiz-adv-x="564" d="M386 380.5q-34 50.5 -102.5 50.5t-104.5 -51.5t-36 -127t37 -127t103 -51.5t101.5 50t35.5 128t-34 128.5zM458.5 65q-64.5 -74 -177 -74t-176.5 73t-64 186t66 188.5t178 75.5t175 -73.5t63 -187.5t-64.5 -188zM341 639q0 25 17.5 42.5t43 17.5t43 -17t17.5 -43 t-17.5 -43t-43 -17t-43 17.5t-17.5 42.5zM120 639q0 26 17 43t43 17t43.5 -17.5t17.5 -42.5t-17.5 -42.5t-43.5 -17.5t-43 17t-17 43z" />
<glyph unicode="&#xf7;" horiz-adv-x="564" d="M221 162q0 24 17.5 42t41.5 18t41.5 -18t17.5 -42t-17.5 -41.5t-41.5 -17.5t-41.5 17.5t-17.5 41.5zM53 296v88h457v-88h-457zM221 518q0 24 17.5 41.5t41.5 17.5t41.5 -17.5t17.5 -41.5t-17.5 -42t-41.5 -18t-41.5 18t-17.5 42z" />
<glyph unicode="&#xf8;" horiz-adv-x="563" d="M474 435q59 -71 59 -183.5t-65 -186.5t-178 -74q-71 0 -124 31l-23 -31h-93l59 79q-59 71 -59 182t66 186.5t174 75.5q73 0 126 -31l23 31h94zM290 440q-70 0 -108.5 -54t-38.5 -123.5t23 -115.5l202 272q-32 21 -78 21zM291 65q72 0 110 52.5t38 126t-21 116.5 l-203 -272q32 -23 76 -23z" />
<glyph unicode="&#xf9;" horiz-adv-x="551" d="M384 507h98v-507h-98v87q-40 -93 -158 -93q-75 0 -119 44.5t-44 122.5v346h99v-322q0 -52 25.5 -79.5t76.5 -27.5t85.5 40t34.5 113v276zM318 557h-84l-120 162h109z" />
<glyph unicode="&#xfa;" horiz-adv-x="551" d="M384 507h98v-507h-98v87q-40 -93 -158 -93q-75 0 -119 44.5t-44 122.5v346h99v-322q0 -52 25.5 -79.5t76.5 -27.5t85.5 40t34.5 113v276zM444 720l-120 -162h-84l95 162h109z" />
<glyph unicode="&#xfb;" horiz-adv-x="551" d="M384 507h98v-507h-98v87q-40 -93 -158 -93q-75 0 -119 44.5t-44 122.5v346h99v-322q0 -52 25.5 -79.5t76.5 -27.5t85.5 40t34.5 113v276zM274 660l-82 -102h-97l135 162h90l135 -162h-97z" />
<glyph unicode="&#xfc;" horiz-adv-x="551" d="M384 507h98v-507h-98v87q-40 -93 -158 -93q-75 0 -119 44.5t-44 122.5v346h99v-322q0 -52 25.5 -79.5t76.5 -27.5t85.5 40t34.5 113v276zM207.5 596.5q-17.5 -17.5 -43.5 -17.5t-43 17t-17 43t17 43t43 17t43.5 -17.5t17.5 -42.5t-17.5 -42.5zM428.5 596 q-17.5 -17 -43 -17t-43 17.5t-17.5 42.5t17.5 42.5t43 17.5t43 -17t17.5 -43t-17.5 -43z" />
<glyph unicode="&#xfd;" horiz-adv-x="504" d="M85 -181q-27 0 -46 5v84q16 -4 34 -4q97 0 136 107l-202 496h109l63 -165l79 -214q13 42 129 379h104l-183 -493q-73 -195 -223 -195zM223 558l95 162h109l-120 -162h-84z" />
<glyph unicode="&#xfe;" horiz-adv-x="580" d="M167 707v-278q52 85 154 85t160 -72.5t58 -186t-59.5 -188t-159.5 -74.5t-153 84v-271h-98v901h98zM208.5 123q41.5 -44 97.5 -44t94 46.5t38 128t-37 128t-94 46.5t-98.5 -41.5t-41.5 -130.5t41.5 -133z" />
<glyph unicode="&#xff;" horiz-adv-x="504" d="M85 -181q-27 0 -46 5v84q16 -4 34 -4q97 0 136 107l-202 496h109l63 -165l79 -214q13 42 129 379h104l-183 -493q-73 -195 -223 -195zM90 639q0 26 17 43t43 17t43.5 -17.5t17.5 -42.5t-17.5 -42.5t-43.5 -17.5t-43 17t-17 43zM311 639q0 25 17.5 42.5t43 17.5t43 -17 t17.5 -43t-17.5 -43t-43 -17t-43 17.5t-17.5 42.5z" />
<glyph unicode="&#x100;" horiz-adv-x="660" d="M519 0l-53 165h-272l-54 -165h-109l233 674h135l230 -674h-110zM222 251h216q-87 269 -107 345q-7 -29 -109 -345zM486 841v-68h-304v68h304z" />
<glyph unicode="&#x101;" horiz-adv-x="499" d="M237 515q199 0 199 -193v-322h-97v60q-39 -64 -137 -64q-72 0 -115.5 41.5t-43.5 110t55 109t154 40.5h84v29q0 52 -25 78.5t-83 26.5q-81 0 -147 -45v95q59 34 156 34zM336 226h-76q-56 0 -84.5 -22t-28.5 -56.5t22 -54.5t67 -20t72.5 26.5t27.5 69.5v57zM403 673v-68 h-304v68h304z" />
<glyph unicode="&#x102;" horiz-adv-x="660" d="M519 0l-53 165h-272l-54 -165h-109l233 674h135l230 -674h-110zM222 251h216q-87 269 -107 345q-7 -29 -109 -345zM426 887h78q0 -79 -45 -122t-129 -43t-129 43t-45 122h78q0 -44 24 -71t72 -27t72 27t24 71z" />
<glyph unicode="&#x103;" horiz-adv-x="499" d="M237 515q199 0 199 -193v-322h-97v60q-39 -64 -137 -64q-72 0 -115.5 41.5t-43.5 110t55 109t154 40.5h84v29q0 52 -25 78.5t-83 26.5q-81 0 -147 -45v95q59 34 156 34zM336 226h-76q-56 0 -84.5 -22t-28.5 -56.5t22 -54.5t67 -20t72.5 26.5t27.5 69.5v57zM347 719h78 q0 -79 -45 -122t-129 -43t-129 43t-45 122h78q0 -44 24 -71t72 -27t72 27t24 71z" />
<glyph unicode="&#x104;" horiz-adv-x="656" d="M513 -127q0 -51 58 -51q39 0 74 24v-72q-36 -21 -93 -21t-89.5 31.5t-32.5 80.5q0 81 84 143l-50 157h-273l-53 -165h-109l232 674h136l230 -674q-114 -60 -114 -127zM219 251h217l-108 345q-10 -47 -98 -311z" />
<glyph unicode="&#x105;" horiz-adv-x="497" d="M436 322v-322q-114 -61 -114 -127q0 -51 58 -51q39 0 74 24v-72q-36 -21 -93 -21t-89.5 31.5t-32.5 80.5q0 87 100 150v48q-47 -67 -137 -67q-72 0 -115.5 40.5t-43.5 110t55.5 110.5t155.5 41h82v28q0 52 -25 78.5t-94 26.5t-136 -44v93q58 35 156 35q199 0 199 -193z M336 225h-67q-123 0 -123 -78q0 -34 22 -53.5t66.5 -19.5t73 26.5t28.5 64.5v60z" />
<glyph unicode="&#x106;" horiz-adv-x="605" d="M323 725l95 162h109l-120 -162h-84zM390 588q-101 0 -168.5 -68.5t-67.5 -182.5t67 -182t170.5 -68t169.5 50v-104q-62 -41 -172 -41q-151 0 -247 94t-96 249.5t96.5 251.5t244.5 96q108 0 173 -37v-101q-44 24 -79.5 33.5t-90.5 9.5z" />
<glyph unicode="&#x107;" horiz-adv-x="471" d="M315 75q60 0 112 33v-88q-49 -30 -125 -30q-119 0 -190 75t-71 185.5t71.5 188t193.5 77.5q66 0 121 -28v-90q-49 31 -119.5 31t-118 -50t-47.5 -128q2 -77 47 -126.5t126 -49.5zM253 557l95 162h109l-120 -162h-84z" />
<glyph unicode="&#x108;" horiz-adv-x="605" d="M314 887h90l135 -162h-97l-84 102l-82 -102h-97zM390 588q-101 0 -168.5 -68.5t-67.5 -182.5t67 -182t170.5 -68t169.5 50v-104q-62 -41 -172 -41q-151 0 -247 94t-96 249.5t96.5 251.5t244.5 96q108 0 173 -37v-101q-44 24 -79.5 33.5t-90.5 9.5z" />
<glyph unicode="&#x109;" horiz-adv-x="471" d="M224 720h90l135 -162h-97l-84 102l-82 -102h-97zM427 398q-49 31 -119.5 31t-118 -50t-47.5 -128q2 -77 47 -126.5t126 -49.5q60 0 112 33v-88q-49 -30 -125 -30q-119 0 -190 75t-71 185.5t71.5 188t193.5 77.5q66 0 121 -28v-90z" />
<glyph unicode="&#x10a;" horiz-adv-x="605" d="M390 588q-101 0 -168.5 -68.5t-67.5 -182.5t67 -182t170.5 -68t169.5 50v-104q-62 -41 -172 -41q-151 0 -247 94t-96 249.5t96.5 251.5t244.5 96q108 0 173 -37v-101q-44 24 -79.5 33.5t-90.5 9.5zM312 809q0 26 17.5 43t43.5 17t43 -17t17 -43t-17 -43t-43 -17t-43.5 17 t-17.5 43z" />
<glyph unicode="&#x10b;" horiz-adv-x="471" d="M235 640q0 26 17.5 43t43.5 17t43 -17t17 -43t-17 -43t-43 -17t-43.5 17t-17.5 43zM315 75q60 0 112 33v-88q-49 -30 -125 -30q-119 0 -190 75t-71 185.5t71.5 188t193.5 77.5q66 0 121 -28v-90q-49 31 -119.5 31t-118 -50t-47.5 -128q2 -77 47 -126.5t126 -49.5z" />
<glyph unicode="&#x10c;" horiz-adv-x="605" d="M418 725h-90l-135 162h97l83 -102l83 102h97zM390 588q-101 0 -168.5 -68.5t-67.5 -182.5t67 -182t170.5 -68t169.5 50v-104q-62 -41 -172 -41q-151 0 -247 94t-96 249.5t96.5 251.5t244.5 96q108 0 173 -37v-101q-44 24 -79.5 33.5t-90.5 9.5z" />
<glyph unicode="&#x10d;" horiz-adv-x="471" d="M321 558h-90l-135 162h97l83 -102l83 102h97zM427 398q-49 31 -119.5 31t-118 -50t-47.5 -128q2 -77 47 -126.5t126 -49.5q60 0 112 33v-88q-49 -30 -125 -30q-119 0 -190 75t-71 185.5t71.5 188t193.5 77.5q66 0 121 -28v-90z" />
<glyph unicode="&#x10e;" horiz-adv-x="667" d="M73 674h210q150 0 246 -93t96 -240t-90.5 -244t-249.5 -97h-212v674zM178 87h106q115 0 175 72t60 180.5t-65 177.5t-173 69h-103v-499zM355 725h-90l-135 162h97l83 -102l83 102h97z" />
<glyph unicode="&#x10f;" horiz-adv-x="685" d="M646 707h109l-113 -197h-77zM412 707h99v-707h-99v77q-53 -84 -154 -84t-159 75.5t-58 188.5t61 185t158.5 72t151.5 -84v277zM179.5 126q37.5 -47 95 -47t97.5 44t40 132.5t-41.5 130.5t-97 42t-93.5 -46.5t-38 -127.5t37.5 -128z" />
<glyph unicode="&#x110;" horiz-adv-x="736" d="M142 674h209q150 0 246 -93t96 -240t-90.5 -244t-249.5 -97h-211v294h-80v84h80v296zM246 87h106q116 0 176 72t60 180.5t-65.5 177.5t-173.5 69h-103v-208h164v-84h-164v-207z" />
<glyph unicode="&#x111;" horiz-adv-x="580" d="M578 643v-63h-67v-580h-99v77q-53 -84 -154 -84t-159 75.5t-58 188.5t61 185t158.5 72t151.5 -84v150h-181v63h181v64h99v-64h67zM179.5 126q37.5 -47 95 -47t97.5 44t40 132.5t-41.5 130.5t-97 42t-93.5 -46.5t-38 -127.5t37.5 -128z" />
<glyph unicode="&#x112;" horiz-adv-x="514" d="M176 86h286v-86h-389v674h384v-86h-281v-208h249v-86h-249v-208zM418 842v-68h-304v68h304z" />
<glyph unicode="&#x113;" horiz-adv-x="525" d="M299 -5q-118 0 -188 71t-70 189.5t64 188t162 69.5t155 -60.5t57 -174.5q0 -31 -6 -65h-333q10 -66 56 -101t121.5 -35t129.5 38v-88q-56 -32 -148 -32zM384 290v18q-2 57 -31 90.5t-81 33.5t-88 -36.5t-45 -105.5h245zM426 673v-68h-304v68h304z" />
<glyph unicode="&#x114;" horiz-adv-x="514" d="M176 86h286v-86h-389v674h384v-86h-281v-208h249v-86h-249v-208zM369 887h78q0 -79 -45 -122t-129 -43t-129 43t-45 122h78q0 -44 24 -71t72 -27t72 27t24 71z" />
<glyph unicode="&#x115;" horiz-adv-x="525" d="M299 -5q-118 0 -188 71t-70 189.5t64 188t162 69.5t155 -60.5t57 -174.5q0 -31 -6 -65h-333q10 -66 56 -101t121.5 -35t129.5 38v-88q-56 -32 -148 -32zM384 290v18q-2 57 -31 90.5t-81 33.5t-88 -36.5t-45 -105.5h245zM369 720h78q0 -79 -45 -122t-129 -43t-129 43 t-45 122h78q0 -44 24 -71t72 -27t72 27t24 71z" />
<glyph unicode="&#x116;" horiz-adv-x="514" d="M176 86h286v-86h-389v674h384v-86h-281v-208h249v-86h-249v-208zM277 748q-26 0 -43.5 17t-17.5 43t17.5 43t43.5 17t43 -17t17 -43t-17 -43t-43 -17z" />
<glyph unicode="&#x117;" horiz-adv-x="525" d="M299 -5q-118 0 -188 71t-70 189.5t64 188t162 69.5t155 -60.5t57 -174.5q0 -31 -6 -65h-333q10 -66 56 -101t121.5 -35t129.5 38v-88q-56 -32 -148 -32zM384 290v18q-2 57 -31 90.5t-81 33.5t-88 -36.5t-45 -105.5h245zM281 580q-26 0 -43.5 17t-17.5 43t17.5 43t43.5 17 t43 -17t17 -43t-17 -43t-43 -17z" />
<glyph unicode="&#x118;" horiz-adv-x="514" d="M462 0h-63q-114 -61 -114 -127q0 -51 58 -51q41 0 74 24v-72q-36 -21 -92.5 -21t-89 31.5t-32.5 80.5q0 74 78 135h-208v674h384v-86h-281v-208h249v-86h-249v-208h286v-86z" />
<glyph unicode="&#x119;" horiz-adv-x="525" d="M407 -217q-36 -21 -92.5 -21t-89 31.5t-32.5 80.5q0 67 64 124q-100 13 -158 82t-58 181.5t64 182t162 69.5t155 -60.5t57 -174.5q0 -31 -6 -65h-333q10 -66 56 -101t121.5 -35t129.5 38v-88q-27 -15 -68 -23q-104 -59 -104 -122q0 -51 58 -51q41 0 74 24v-72zM384 290 v18q-2 57 -31 90.5t-81 33.5t-88 -36.5t-45 -105.5h245z" />
<glyph unicode="&#x11a;" horiz-adv-x="514" d="M176 86h286v-86h-389v674h384v-86h-281v-208h249v-86h-249v-208zM319 725h-90l-135 162h97l83 -102l83 102h97z" />
<glyph unicode="&#x11b;" horiz-adv-x="525" d="M299 -5q-118 0 -188 71t-70 189.5t64 188t162 69.5t155 -60.5t57 -174.5q0 -31 -6 -65h-333q10 -66 56 -101t121.5 -35t129.5 38v-88q-56 -32 -148 -32zM384 290v18q-2 57 -31 90.5t-81 33.5t-88 -36.5t-45 -105.5h245zM319 558h-90l-135 162h97l83 -102l83 102h97z" />
<glyph unicode="&#x11c;" horiz-adv-x="681" d="M615 385v-323h-1l1 -7q-87 -63 -218 -63q-158 0 -254.5 93t-96.5 250.5t97.5 254t247.5 96.5q117 0 196 -45v-106q-86 54 -193 54t-173.5 -69t-66.5 -183.5t65.5 -181.5t180.5 -67q60 0 114 22v186h-137v89h238zM371 827l-82 -102h-97l135 162h90l135 -162h-97z" />
<glyph unicode="&#x11d;" horiz-adv-x="559" d="M398 507h98v-464q0 -117 -66.5 -176.5t-167.5 -59.5t-168 33v99q64 -42 155 -42q149 0 149 147v52q-49 -82 -141 -82t-153 63.5t-61 177.5t57 186.5t154.5 72.5t143.5 -86v79zM182.5 139q36.5 -41 87.5 -41t89.5 40.5t38.5 122t-36.5 124.5t-92 43t-89.5 -46.5t-34 -124 t36.5 -118.5zM286 660l-82 -102h-97l135 162h90l135 -162h-97z" />
<glyph unicode="&#x11e;" horiz-adv-x="681" d="M615 385v-323h-1l1 -7q-87 -63 -218 -63q-158 0 -254.5 93t-96.5 250.5t97.5 254t247.5 96.5q117 0 196 -45v-106q-86 54 -193 54t-173.5 -69t-66.5 -183.5t65.5 -181.5t180.5 -67q60 0 114 22v186h-137v89h238zM467 887h78q0 -79 -45 -122t-129 -43t-129 43t-45 122h78 q0 -44 24 -71t72 -27t72 27t24 71z" />
<glyph unicode="&#x11f;" horiz-adv-x="559" d="M398 507h98v-464q0 -117 -66.5 -176.5t-167.5 -59.5t-168 33v99q64 -42 155 -42q149 0 149 147v52q-49 -82 -141 -82t-153 63.5t-61 177.5t57 186.5t154.5 72.5t143.5 -86v79zM182.5 139q36.5 -41 87.5 -41t89.5 40.5t38.5 122t-36.5 124.5t-92 43t-89.5 -46.5t-34 -124 t36.5 -118.5zM393 720h78q0 -79 -45 -122t-129 -43t-129 43t-45 122h78q0 -44 24 -71t72 -27t72 27t24 71z" />
<glyph unicode="&#x120;" horiz-adv-x="681" d="M615 385v-323h-1l1 -7q-87 -63 -218 -63q-158 0 -254.5 93t-96.5 250.5t97.5 254t247.5 96.5q117 0 196 -45v-106q-86 54 -193 54t-173.5 -69t-66.5 -183.5t65.5 -181.5t180.5 -67q60 0 114 22v186h-137v89h238zM378 747q-26 0 -43.5 17t-17.5 43t17.5 43t43.5 17t43 -17 t17 -43t-17 -43t-43 -17z" />
<glyph unicode="&#x121;" horiz-adv-x="559" d="M398 507h98v-464q0 -117 -66.5 -176.5t-167.5 -59.5t-168 33v99q64 -42 155 -42q149 0 149 147v52q-49 -82 -141 -82t-153 63.5t-61 177.5t57 186.5t154.5 72.5t143.5 -86v79zM182.5 139q36.5 -41 87.5 -41t89.5 40.5t38.5 122t-36.5 124.5t-92 43t-89.5 -46.5t-34 -124 t36.5 -118.5zM309 580q-26 0 -43.5 17t-17.5 43t17.5 43t43.5 17t43 -17t17 -43t-17 -43t-43 -17z" />
<glyph unicode="&#x122;" horiz-adv-x="681" d="M615 385v-323h-1l1 -7q-87 -63 -218 -63q-158 0 -254.5 93t-96.5 250.5t97.5 254t247.5 96.5q117 0 196 -45v-106q-86 54 -193 54t-173.5 -69t-66.5 -183.5t65.5 -181.5t180.5 -67q60 0 114 22v186h-137v89h238zM240 -249l81 198h109l-113 -198h-77z" />
<glyph unicode="&#x123;" horiz-adv-x="559" d="M398 507h98v-464q0 -117 -66.5 -176.5t-167.5 -59.5t-168 33v99q64 -42 155 -42q149 0 149 147v52q-49 -82 -141 -82t-153 63.5t-61 177.5t57 186.5t154.5 72.5t143.5 -86v79zM182.5 139q36.5 -41 87.5 -41t89.5 40.5t38.5 122t-36.5 124.5t-92 43t-89.5 -46.5t-34 -124 t36.5 -118.5zM447 755l-80 -197h-109l113 197h76z" />
<glyph unicode="&#x124;" horiz-adv-x="656" d="M479 674h103v-674h-103v295h-303v-295h-103v674h103v-290h303v290zM329 827l-82 -102h-97l135 162h90l135 -162h-97z" />
<glyph unicode="&#x125;" horiz-adv-x="551" d="M167 707v-287q43 94 157 94q74 0 119 -46t45 -128v-340h-98v320q0 52 -26.5 80.5t-73 28.5t-85 -38t-38.5 -116v-275h-98v707h98zM203 758l-84 102l-82 -102h-97l135 162h90l135 -162h-97z" />
<glyph unicode="&#x126;" horiz-adv-x="731" d="M695 572v-64h-75v-508h-103v295h-303v-295h-103v508h-74v64h74v102h103v-102h303v102h103v-102h75zM517 384v124h-303v-124h303z" />
<glyph unicode="&#x127;" horiz-adv-x="551" d="M167 580v-160q43 94 157 94q74 0 119 -46t45 -128v-340h-98v320q0 52 -26.5 80.5t-73 28.5t-85 -38t-38.5 -116v-275h-98v580h-67v63h67v64h98v-64h176v-63h-176z" />
<glyph unicode="&#x128;" horiz-adv-x="264" d="M198 751q-29 0 -69.5 20.5t-60.5 20.5q-35 0 -66 -46l-49 45q14 31 42.5 52.5t61.5 21.5t75 -20.5t61 -20.5q37 0 58 43l56 -42q-35 -74 -109 -74zM81 0v674h102v-674h-102z" />
<glyph unicode="&#x129;" horiz-adv-x="245" d="M191 582q-29 0 -69.5 20.5t-59.5 20.5q-36 0 -67 -46l-49 45q14 31 42.5 52.5t61.5 21.5t75 -20.5t61 -20.5q37 0 58 43l56 -42q-35 -74 -109 -74zM73 0v507h99v-507h-99z" />
<glyph unicode="&#x12a;" horiz-adv-x="264" d="M284 772h-304v68h304v-68zM81 0v674h102v-674h-102z" />
<glyph unicode="&#x12b;" horiz-adv-x="245" d="M275 605h-304v68h304v-68zM73 0v507h99v-507h-99z" />
<glyph unicode="&#x12c;" horiz-adv-x="264" d="M81 0v674h102v-674h-102zM-41 887h78q0 -44 24 -71t72 -27t72 27t24 71h78q0 -79 -45 -122t-129 -43t-129 43t-45 122z" />
<glyph unicode="&#x12d;" horiz-adv-x="245" d="M73 0v507h99v-507h-99zM-51 720h78q0 -44 24 -71t72 -27t72 27t24 71h78q0 -79 -45 -122t-129 -43t-129 43t-45 122z" />
<glyph unicode="&#x12e;" horiz-adv-x="264" d="M183 674v-674q-114 -61 -114 -127q0 -51 58 -51q41 0 74 24v-72q-36 -21 -92.5 -21t-89 31.5t-32.5 80.5q0 83 94 146v663h102z" />
<glyph unicode="&#x12f;" horiz-adv-x="245" d="M172 507v-507q-114 -61 -114 -127q0 -51 58 -51q41 0 74 24v-72q-36 -21 -92.5 -21t-89 31.5t-32.5 80.5q0 85 97 148v494h99zM122 601q-26 0 -43.5 17.5t-17.5 43.5t17.5 44t43.5 18t44 -18t18 -43.5t-18 -43.5t-44 -18z" />
<glyph unicode="&#x130;" horiz-adv-x="264" d="M72 808q0 26 17.5 43t43.5 17t43 -17t17 -43t-17 -43t-43 -17t-43.5 17t-17.5 43zM81 0v674h102v-674h-102z" />
<glyph unicode="&#x131;" horiz-adv-x="245" d="M73 0v507h99v-507h-99z" />
<glyph unicode="&#x132;" horiz-adv-x="595" d="M339 91q82 0 82 87v496h103v-492q0 -93 -45.5 -137.5t-115 -44.5t-106.5 21v95q41 -25 82 -25zM81 0v674h102v-674h-102z" />
<glyph unicode="&#x133;" horiz-adv-x="478" d="M298 662q0 26 17.5 44t43.5 18t44 -18t18 -43.5t-18 -43.5t-43.5 -18t-43.5 17.5t-18 43.5zM256 -114q55 0 55 71v550h98v-552q0 -71 -37.5 -111t-106.5 -40q-32 0 -73 15v83q32 -16 64 -16zM59 662q0 26 17.5 44t43.5 18t44 -18t18 -43.5t-18 -43.5t-44 -18t-43.5 17.5 t-17.5 43.5zM71 0v507h99v-507h-99z" />
<glyph unicode="&#x134;" horiz-adv-x="396" d="M202 887h90l135 -162h-97l-84 102l-82 -102h-97zM112 91q82 0 82 87v496h103v-492q0 -93 -45.5 -137.5t-115 -44.5t-106.5 21v95q41 -25 82 -25z" />
<glyph unicode="&#x135;" horiz-adv-x="242" d="M20 -114q55 0 55 71v550h98v-552q0 -71 -37.5 -111t-106.5 -40q-32 0 -73 15v83q32 -16 64 -16zM80 720h90l135 -162h-97l-84 102l-82 -102h-97z" />
<glyph unicode="&#x136;" horiz-adv-x="599" d="M312 334l262 -334h-130l-255 333l245 341h125zM172 -249l81 198h109l-113 -198h-77zM176 674v-674h-103v674h103z" />
<glyph unicode="&#x137;" horiz-adv-x="500" d="M284 265l199 -265h-117l-195 265l191 242h115zM126 -249l81 198h109l-113 -198h-77zM167 700v-700h-98v700h98z" />
<glyph unicode="&#x138;" horiz-adv-x="500" d="M284 265l199 -265h-117l-195 265l191 242h115zM69 0v507h98v-507h-98z" />
<glyph unicode="&#x139;" horiz-adv-x="480" d="M176 674v-583h276v-91h-379v674h103zM460 887l-120 -162h-84l95 162h109z" />
<glyph unicode="&#x13a;" horiz-adv-x="245" d="M73 0v707h99v-707h-99zM82 758l95 162h109l-120 -162h-84z" />
<glyph unicode="&#x13b;" horiz-adv-x="480" d="M176 91h276v-91h-379v674h103v-583zM139 -249l81 198h109l-113 -198h-77z" />
<glyph unicode="&#x13c;" horiz-adv-x="245" d="M-13 -249l81 198h109l-113 -198h-77zM73 0v707h99v-707h-99z" />
<glyph unicode="&#x13d;" horiz-adv-x="480" d="M176 91h276v-91h-379v674h103v-583zM447 701l-113 -198h-77l81 198h109z" />
<glyph unicode="&#x13e;" horiz-adv-x="264" d="M237 510l80 198h109l-113 -198h-76zM73 0v707h99v-707h-99z" />
<glyph unicode="&#x13f;" horiz-adv-x="491" d="M176 91h276v-91h-379v674h103v-583zM339 310q-28 0 -46 18.5t-18 45.5t18.5 46t46 19t46 -19t18.5 -46t-18.5 -45.5t-46.5 -18.5z" />
<glyph unicode="&#x140;" horiz-adv-x="417" d="M260 364q0 27 18.5 45.5t46.5 18.5t46.5 -18.5t18.5 -45.5t-18.5 -45.5t-46.5 -18.5t-46.5 18.5t-18.5 45.5zM69 0v707h98v-707h-98z" />
<glyph unicode="&#x141;" horiz-adv-x="518" d="M207 91h276v-91h-378v233l-71 -46v90l71 46v351h102v-285l154 99v-90l-154 -99v-208z" />
<glyph unicode="&#x142;" horiz-adv-x="306" d="M200 0h-99v291l-70 -49v91l70 49v325h99v-256l82 57v-90l-82 -57v-361z" />
<glyph unicode="&#x143;" horiz-adv-x="680" d="M73 0v674h122q259 -440 315 -550q-6 91 -6 267v283h103v-674h-122q-255 429 -317 551q8 -100 8 -269v-282h-103zM319 725l95 162h109l-120 -162h-84z" />
<glyph unicode="&#x144;" horiz-adv-x="551" d="M167 507v-87q45 94 158 94q75 0 119 -46t44 -125v-343h-98v320q0 53 -26.5 81t-74.5 28t-85 -40.5t-37 -113.5v-275h-98v507h98zM468 720l-120 -162h-84l95 162h109z" />
<glyph unicode="&#x145;" horiz-adv-x="680" d="M73 0v674h122q259 -440 315 -550q-6 91 -6 267v283h103v-674h-122q-255 429 -317 551q8 -100 8 -269v-282h-103zM215 -249l81 198h109l-113 -198h-77z" />
<glyph unicode="&#x146;" horiz-adv-x="551" d="M167 507v-87q45 94 158 94q75 0 119 -46t44 -125v-343h-98v320q0 53 -26.5 81t-74.5 28t-85 -40.5t-37 -113.5v-275h-98v507h98zM149 -249l81 198h109l-113 -198h-77z" />
<glyph unicode="&#x147;" horiz-adv-x="680" d="M398 725h-90l-135 162h97l83 -102l83 102h97zM73 0v674h122q259 -440 315 -550q-6 91 -6 267v283h103v-674h-122q-255 429 -317 551q8 -100 8 -269v-282h-103z" />
<glyph unicode="&#x148;" horiz-adv-x="551" d="M167 507v-87q45 94 158 94q75 0 119 -46t44 -125v-343h-98v320q0 53 -26.5 81t-74.5 28t-85 -40.5t-37 -113.5v-275h-98v507h98zM336 558h-90l-135 162h97l83 -102l83 102h97z" />
<glyph unicode="&#x149;" horiz-adv-x="603" d="M219 507v-87q45 94 158 94q75 0 119 -46t44 -125v-343h-98v320q0 53 -26.5 81t-74.5 28t-85 -40.5t-37 -113.5v-275h-98v507h98zM56 695h102l-109 -206h-70z" />
<glyph unicode="&#x14a;" horiz-adv-x="680" d="M504 674h103v-690q0 -94 -45.5 -138.5t-114 -44.5t-107.5 22v95q38 -25 82 -25q82 0 82 87v20h-19q-255 429 -317 551q8 -100 8 -269v-282h-103v674h122q259 -440 315 -550q-6 91 -6 267v283z" />
<glyph unicode="&#x14b;" horiz-adv-x="551" d="M488 233h1v-278q0 -70 -38 -110.5t-106 -40.5q-33 0 -73 15v83q32 -16 64 -16q54 0 54 71v363q0 53 -26.5 81t-74.5 28t-85 -40.5t-37 -113.5v-275h-98v507h98v-87q45 94 158 94q75 0 119 -46t44 -125v-110z" />
<glyph unicode="&#x14c;" horiz-adv-x="711" d="M154 340q0 -116 55 -184t148.5 -68t146.5 67t53 184.5t-53.5 184.5t-148 67t-148 -67.5t-53.5 -183.5zM130.5 87q-84.5 95 -84.5 252.5t84 252.5t226.5 95t225.5 -94.5t83 -252.5t-83.5 -253t-225 -95t-226 95zM508 772h-304v68h304v-68z" />
<glyph unicode="&#x14d;" horiz-adv-x="564" d="M386 380.5q-34 50.5 -102.5 50.5t-104.5 -51.5t-36 -127t37 -127t103 -51.5t101.5 50t35.5 128t-34 128.5zM458.5 65q-64.5 -74 -177 -74t-176.5 73t-64 186t66 188.5t178 75.5t175 -73.5t63 -187.5t-64.5 -188zM436 605h-304v68h304v-68z" />
<glyph unicode="&#x14e;" horiz-adv-x="711" d="M130.5 87q-84.5 95 -84.5 252.5t84 252.5t226.5 95t225.5 -94.5t83 -252.5t-83.5 -253t-225 -95t-226 95zM154 340q0 -116 55 -184t148.5 -68t146.5 67t53 184.5t-53.5 184.5t-148 67t-148 -67.5t-53.5 -183.5zM189 887h78q0 -44 24 -71t72 -27t72 27t24 71h78 q0 -79 -45 -122t-129 -43t-129 43t-45 122z" />
<glyph unicode="&#x14f;" horiz-adv-x="564" d="M458.5 65q-64.5 -74 -177 -74t-176.5 73t-64 186t66 188.5t178 75.5t175 -73.5t63 -187.5t-64.5 -188zM386 380.5q-34 50.5 -102.5 50.5t-104.5 -51.5t-36 -127t37 -127t103 -51.5t101.5 50t35.5 128t-34 128.5zM117 720h78q0 -44 24 -71t72 -27t72 27t24 71h78 q0 -79 -45 -122t-129 -43t-129 43t-45 122z" />
<glyph unicode="&#x150;" horiz-adv-x="711" d="M154 340q0 -116 55 -184t148.5 -68t146.5 67t53 184.5t-53.5 184.5t-148 67t-148 -67.5t-53.5 -183.5zM130.5 87q-84.5 95 -84.5 252.5t84 252.5t226.5 95t225.5 -94.5t83 -252.5t-83.5 -253t-225 -95t-226 95zM248 725l94 162h103l-122 -162h-75zM413 725l100 162h109 l-134 -162h-75z" />
<glyph unicode="&#x151;" horiz-adv-x="564" d="M386 380.5q-34 50.5 -102.5 50.5t-104.5 -51.5t-36 -127t37 -127t103 -51.5t101.5 50t35.5 128t-34 128.5zM458.5 65q-64.5 -74 -177 -74t-176.5 73t-64 186t66 188.5t178 75.5t175 -73.5t63 -187.5t-64.5 -188zM180 558l94 162h103l-122 -162h-75zM345 558l100 162h109 l-134 -162h-75z" />
<glyph unicode="&#x152;" horiz-adv-x="988" d="M646 86h291v-86h-389v72q-78 -80 -197 -80q-140 0 -222.5 95t-82.5 253t81.5 252.5t222.5 94.5q121 0 198 -79v66h384v-86h-286v-208h254v-86h-254v-208zM207 155.5q53 -67.5 145.5 -67.5t144 67t51.5 185t-51.5 184.5t-145.5 66.5t-145.5 -67t-51.5 -184t53 -184.5z" />
<glyph unicode="&#x153;" horiz-adv-x="889" d="M666 -5q-133 0 -204 93q-64 -97 -181 -97t-178.5 73t-61.5 186.5t63.5 188.5t170.5 75q122 0 184 -91q66 90 180 90q99 0 153.5 -61t54.5 -177q0 -28 -6 -62h-332q11 -65 57 -100.5t119.5 -35.5t127.5 38v-88q-58 -32 -147 -32zM177.5 125q34.5 -51 99.5 -51t98.5 49.5 t33.5 128.5t-31.5 129t-99.5 50t-101.5 -51t-33.5 -127.5t34.5 -127.5zM752 290v22q-2 57 -32 88.5t-80 31.5t-86.5 -36t-45.5 -106h244z" />
<glyph unicode="&#x154;" horiz-adv-x="568" d="M176 256v-256h-103v674h188q116 0 179 -56.5t63 -153.5q-1 -71 -36 -120.5t-97 -71.5l176 -272h-123l-158 256h-89zM176 588v-246h93q64 0 97 33.5t33 89.5q0 123 -135 123h-88zM440 887l-120 -162h-84l95 162h109z" />
<glyph unicode="&#x155;" horiz-adv-x="339" d="M167 507v-89q37 94 133 94q14 0 31 -3v-96q-21 9 -47 9q-51 0 -84 -45t-33 -107v-270h-98v507h98zM370 720l-120 -162h-84l95 162h109z" />
<glyph unicode="&#x156;" horiz-adv-x="568" d="M176 256v-256h-103v674h188q116 0 179 -56.5t63 -153.5q-1 -71 -36 -120.5t-97 -71.5l176 -272h-123l-158 256h-89zM176 588v-246h93q64 0 97 33.5t33 89.5q0 123 -135 123h-88zM159 -249l81 198h109l-113 -198h-77z" />
<glyph unicode="&#x157;" horiz-adv-x="339" d="M167 507v-89q37 94 133 94q14 0 31 -3v-96q-21 9 -47 9q-51 0 -84 -45t-33 -107v-270h-98v507h98zM-20 -249l81 198h109l-113 -198h-77z" />
<glyph unicode="&#x158;" horiz-adv-x="568" d="M176 256v-256h-103v674h188q116 0 179 -56.5t63 -153.5q-1 -71 -36 -120.5t-97 -71.5l176 -272h-123l-158 256h-89zM176 588v-246h93q64 0 97 33.5t33 89.5q0 123 -135 123h-88zM335 725h-90l-135 162h97l83 -102l83 102h97z" />
<glyph unicode="&#x159;" horiz-adv-x="339" d="M167 507v-89q37 94 133 94q14 0 31 -3v-96q-21 9 -47 9q-51 0 -84 -45t-33 -107v-270h-98v507h98zM250 558h-90l-135 162h97l83 -102l83 102h97z" />
<glyph unicode="&#x15a;" horiz-adv-x="521" d="M285 587q-55 0 -86.5 -24.5t-31.5 -64.5t31 -64t84 -47t76.5 -36t53.5 -37q60 -45 60 -132t-63 -138t-168.5 -51t-178.5 43v107q79 -59 183 -59q55 0 87 25.5t32 70.5q0 27 -19 49.5t-41 34t-57 27.5t-45.5 21t-34.5 18t-35.5 22t-28.5 25t-25 32q-20 44 -20 84 q0 86 62.5 136t157.5 50t159 -32v-102q-67 42 -152 42zM234 725l95 162h109l-120 -162h-84z" />
<glyph unicode="&#x15b;" horiz-adv-x="419" d="M232 430q-35 0 -55.5 -16t-20.5 -42q0 -31 26 -47q8 -5 12.5 -8.5t15 -8.5t15.5 -8q15 -7 54.5 -24t73 -49.5t33.5 -93.5t-48 -99.5t-134 -38.5t-146 30v93q70 -43 145 -43q39 0 60.5 16t21.5 40t-17 41.5t-34.5 26t-59.5 26.5q-119 49 -119 144q0 67 50 105t128.5 38 t124.5 -22v-89q-49 29 -126 29zM186 558l95 162h109l-120 -162h-84z" />
<glyph unicode="&#x15c;" horiz-adv-x="521" d="M216 887h90l135 -162h-97l-84 102l-82 -102h-97zM285 587q-55 0 -86.5 -24.5t-31.5 -64.5t31 -64t84 -47t76.5 -36t53.5 -37q60 -45 60 -132t-63 -138t-168.5 -51t-178.5 43v107q79 -59 183 -59q55 0 87 25.5t32 70.5q0 27 -19 49.5t-41 34t-57 27.5t-45.5 21t-34.5 18 t-35.5 22t-28.5 25t-25 32q-20 44 -20 84q0 86 62.5 136t157.5 50t159 -32v-102q-67 42 -152 42z" />
<glyph unicode="&#x15d;" horiz-adv-x="419" d="M184 720h90l135 -162h-97l-84 102l-82 -102h-97zM232 430q-35 0 -55.5 -16t-20.5 -42q0 -31 26 -47q8 -5 12.5 -8.5t15 -8.5t15.5 -8q15 -7 54.5 -24t73 -49.5t33.5 -93.5t-48 -99.5t-134 -38.5t-146 30v93q70 -43 145 -43q39 0 60.5 16t21.5 40t-17 41.5t-34.5 26 t-59.5 26.5q-119 49 -119 144q0 67 50 105t128.5 38t124.5 -22v-89q-49 29 -126 29z" />
<glyph unicode="&#x15e;" horiz-adv-x="521" d="M303 -51q18 -25 18 -76.5t-41 -90t-118 -39.5v68q82 5 82 69q0 32 -25 69h84zM285 587q-55 0 -86.5 -24.5t-31.5 -64.5t31 -64t84 -47t76.5 -36t53.5 -37q60 -45 60 -132t-63 -138t-168.5 -51t-178.5 43v107q79 -59 183 -59q55 0 87 25.5t32 70.5q0 27 -19 49.5t-41 34 t-57 27.5t-45.5 21t-34.5 18t-35.5 22t-28.5 25t-25 32q-20 44 -20 84q0 86 62.5 136t157.5 50t159 -32v-102q-67 42 -152 42z" />
<glyph unicode="&#x15f;" horiz-adv-x="419" d="M265 -51q18 -25 18 -76.5t-41 -90t-118 -39.5v68q82 5 82 69q0 32 -25 69h84zM232 430q-35 0 -55.5 -16t-20.5 -42q0 -31 26 -47q8 -5 12.5 -8.5t15 -8.5t15.5 -8q15 -7 54.5 -24t73 -49.5t33.5 -93.5t-48 -99.5t-134 -38.5t-146 30v93q70 -43 145 -43q39 0 60.5 16 t21.5 40t-17 41.5t-34.5 26t-59.5 26.5q-119 49 -119 144q0 67 50 105t128.5 38t124.5 -22v-89q-49 29 -126 29z" />
<glyph unicode="&#x160;" horiz-adv-x="521" d="M309 725h-90l-135 162h97l83 -102l83 102h97zM285 587q-55 0 -86.5 -24.5t-31.5 -64.5t31 -64t84 -47t76.5 -36t53.5 -37q60 -45 60 -132t-63 -138t-168.5 -51t-178.5 43v107q79 -59 183 -59q55 0 87 25.5t32 70.5q0 27 -19 49.5t-41 34t-57 27.5t-45.5 21t-34.5 18 t-35.5 22t-28.5 25t-25 32q-20 44 -20 84q0 86 62.5 136t157.5 50t159 -32v-102q-67 42 -152 42z" />
<glyph unicode="&#x161;" horiz-adv-x="419" d="M278 558h-90l-135 162h97l83 -102l83 102h97zM232 430q-35 0 -55.5 -16t-20.5 -42q0 -31 26 -47q8 -5 12.5 -8.5t15 -8.5t15.5 -8q15 -7 54.5 -24t73 -49.5t33.5 -93.5t-48 -99.5t-134 -38.5t-146 30v93q70 -43 145 -43q39 0 60.5 16t21.5 40t-17 41.5t-34.5 26 t-59.5 26.5q-119 49 -119 144q0 67 50 105t128.5 38t124.5 -22v-89q-49 29 -126 29z" />
<glyph unicode="&#x162;" horiz-adv-x="500" d="M478 674v-86h-177v-588h-103v588h-176v86h456zM110 -249l80 198h109l-112 -198h-77z" />
<glyph unicode="&#x163;" horiz-adv-x="374" d="M196 431v-279q0 -73 70 -73q41 0 69 22v-88q-33 -18 -81 -18q-157 0 -157 159v277h-79v76h79v124h99v-124h133v-76h-133zM65 -249l80 198h109l-112 -198h-77z" />
<glyph unicode="&#x164;" horiz-adv-x="500" d="M478 674v-86h-177v-588h-103v588h-176v86h456zM296 725h-90l-135 162h97l83 -102l83 102h97z" />
<glyph unicode="&#x165;" horiz-adv-x="374" d="M196 431v-279q0 -73 70 -73q41 0 69 22v-88q-33 -18 -81 -18q-157 0 -157 159v277h-79v76h79v124h99v-124h133v-76h-133zM442 771l-113 -198h-76l80 198h109z" />
<glyph unicode="&#x166;" horiz-adv-x="500" d="M478 588h-177v-219h116v-79h-116v-290h-103v290h-115v79h115v219h-176v86h456v-86z" />
<glyph unicode="&#x167;" horiz-adv-x="391" d="M205 249v-97q0 -73 70 -73q39 0 69 22v-88q-33 -18 -81 -18q-157 0 -157 159v95h-79v71h79v113h-79v74h79v124h99v-124h133v-74h-133v-113h133v-71h-133z" />
<glyph unicode="&#x168;" horiz-adv-x="652" d="M401 751q-29 0 -69.5 20.5t-59.5 20.5q-36 0 -67 -46l-49 45q14 31 42.5 52.5t61.5 21.5t75 -20.5t61 -20.5q37 0 58 43l56 -42q-35 -74 -109 -74zM478 256v418h103v-416q0 -131 -68 -199t-187 -68t-187 66.5t-68 192.5v424h103v-423q0 -86 41.5 -125.5t109.5 -39.5 q153 0 153 170z" />
<glyph unicode="&#x169;" horiz-adv-x="551" d="M384 507h98v-507h-98v87q-40 -93 -158 -93q-75 0 -119 44.5t-44 122.5v346h99v-322q0 -52 25.5 -79.5t76.5 -27.5t85.5 40t34.5 113v276zM346 581q-29 0 -69.5 20.5t-60.5 20.5q-35 0 -66 -46l-49 45q14 31 42.5 52.5t61.5 21.5t75 -20.5t61 -20.5q37 0 58 43l56 -42 q-35 -74 -109 -74z" />
<glyph unicode="&#x16a;" horiz-adv-x="652" d="M483 772h-304v68h304v-68zM478 256v418h103v-416q0 -131 -68 -199t-187 -68t-187 66.5t-68 192.5v424h103v-423q0 -86 41.5 -125.5t109.5 -39.5q153 0 153 170z" />
<glyph unicode="&#x16b;" horiz-adv-x="551" d="M384 507h98v-507h-98v87q-40 -93 -158 -93q-75 0 -119 44.5t-44 122.5v346h99v-322q0 -52 25.5 -79.5t76.5 -27.5t85.5 40t34.5 113v276zM425 673v-68h-304v68h304z" />
<glyph unicode="&#x16c;" horiz-adv-x="652" d="M478 256v418h103v-416q0 -131 -68 -199t-187 -68t-187 66.5t-68 192.5v424h103v-423q0 -86 41.5 -125.5t109.5 -39.5q153 0 153 170zM153 887h78q0 -44 24 -71t72 -27t72 27t24 71h78q0 -79 -45 -122t-129 -43t-129 43t-45 122z" />
<glyph unicode="&#x16d;" horiz-adv-x="551" d="M384 507h98v-507h-98v87q-40 -93 -158 -93q-75 0 -119 44.5t-44 122.5v346h99v-322q0 -52 25.5 -79.5t76.5 -27.5t85.5 40t34.5 113v276zM374 720h78q0 -79 -45 -122t-129 -43t-129 43t-45 122h78q0 -44 24 -71t72 -27t72 27t24 71z" />
<glyph unicode="&#x16e;" horiz-adv-x="652" d="M478 256v418h103v-416q0 -131 -68 -199t-187 -68t-187 66.5t-68 192.5v424h103v-423q0 -86 41.5 -125.5t109.5 -39.5q153 0 153 170zM275 831q0 -22 15.5 -38.5t38 -16.5t38 16.5t15.5 38.5t-15.5 38t-38 16t-38 -16t-15.5 -38zM247.5 748.5q-33.5 33.5 -33.5 81 t33.5 81.5t81 34t81.5 -34t34 -81.5t-34 -81t-81.5 -33.5t-81 33.5z" />
<glyph unicode="&#x16f;" horiz-adv-x="551" d="M384 507h98v-507h-98v87q-40 -93 -158 -93q-75 0 -119 44.5t-44 122.5v346h99v-322q0 -52 25.5 -79.5t76.5 -27.5t85.5 40t34.5 113v276zM361 581.5q-34 -33.5 -81.5 -33.5t-81 33.5t-33.5 81t33.5 81.5t81 34t81.5 -34t34 -81.5t-34 -81zM317.5 702q-15.5 16 -38 16 t-38 -16t-15.5 -38t15.5 -38.5t38 -16.5t38 16.5t15.5 38.5t-15.5 38z" />
<glyph unicode="&#x170;" horiz-adv-x="652" d="M204 725l94 162h103l-122 -162h-75zM369 725l100 162h109l-134 -162h-75zM478 256v418h103v-416q0 -131 -68 -199t-187 -68t-187 66.5t-68 192.5v424h103v-423q0 -86 41.5 -125.5t109.5 -39.5q153 0 153 170z" />
<glyph unicode="&#x171;" horiz-adv-x="551" d="M384 231v276h98v-507h-98v87q-40 -93 -158 -93q-75 0 -119 44.5t-44 122.5v346h99v-322q0 -52 25.5 -79.5t76.5 -27.5t85.5 40t34.5 113zM355 720l-122 -162h-75l94 162h103zM398 558h-75l100 162h109z" />
<glyph unicode="&#x172;" horiz-adv-x="652" d="M478 674h103v-416q0 -199 -154 -252q-113 -60 -113 -126q0 -51 58 -51q41 0 74 24v-72q-36 -21 -92.5 -21t-89 31.5t-32.5 80.5q0 66 61 120q-104 9 -163 75t-59 183v424h103v-423q0 -86 41.5 -125.5t109.5 -39.5q153 0 153 170v418z" />
<glyph unicode="&#x173;" horiz-adv-x="551" d="M482 507v-507q-114 -61 -114 -127q0 -51 58 -51q41 0 74 24v-72q-36 -21 -92.5 -21t-89 31.5t-32.5 80.5q0 86 98 149v73q-40 -93 -158 -93q-75 0 -119 44.5t-44 122.5v346h99v-322q0 -52 25.5 -79.5t76.5 -27.5t85.5 40t34.5 113v276h98z" />
<glyph unicode="&#x174;" horiz-adv-x="947" d="M435 887h90l135 -162h-97l-84 102l-82 -102h-97zM432 664h91l71 -240l91 -317q36 178 128 567h104l-165 -674h-123l-64 213l-87 301q-18 -74 -146 -514h-124l-177 674h107l63 -249l74 -316q42 155 157 555z" />
<glyph unicode="&#x175;" horiz-adv-x="796" d="M352 720h90l135 -162h-97l-84 102l-82 -102h-97zM178 0l-159 507h104q99 -353 110 -412q14 68 115 412h95q97 -324 117 -413q12 59 118 413h99l-161 -507h-112q-90 317 -108 400q-13 -62 -107 -400h-111z" />
<glyph unicode="&#x176;" horiz-adv-x="608" d="M354 0h-103v251l-228 423h118q143 -296 161 -339q9 30 116 240l49 99h118l-231 -423v-251zM303 827l-82 -102h-97l135 162h90l135 -162h-97z" />
<glyph unicode="&#x177;" horiz-adv-x="504" d="M85 -181q-27 0 -46 5v84q16 -4 34 -4q97 0 136 107l-202 496h109l63 -165l79 -214q13 42 129 379h104l-183 -493q-73 -195 -223 -195zM207 720h90l135 -162h-97l-84 102l-82 -102h-97z" />
<glyph unicode="&#x178;" horiz-adv-x="608" d="M354 0h-103v251l-228 423h118q143 -296 161 -339q9 30 116 240l49 99h118l-231 -423v-251zM239.5 763q-17.5 -17 -43.5 -17t-43 17t-17 43t17 43t43 17t43.5 -17t17.5 -43t-17.5 -43zM460.5 763q-17.5 -17 -43 -17t-43 17t-17.5 43t17.5 43t43 17t43 -17t17.5 -43 t-17.5 -43z" />
<glyph unicode="&#x179;" horiz-adv-x="584" d="M516 674v-79l-341 -510h355v-85h-476v81l340 508h-335v85h457zM266 725l95 162h109l-120 -162h-84z" />
<glyph unicode="&#x17a;" horiz-adv-x="461" d="M405 507v-70l-249 -354h262v-83h-375v75l246 350h-237v82h353zM200 558l95 162h109l-120 -162h-84z" />
<glyph unicode="&#x17b;" horiz-adv-x="584" d="M242 808q0 26 17.5 43t43.5 17t43 -17t17 -43t-17 -43t-43 -17t-43.5 17t-17.5 43zM516 674v-79l-341 -510h355v-85h-476v81l340 508h-335v85h457z" />
<glyph unicode="&#x17c;" horiz-adv-x="461" d="M184 639q0 26 17.5 43t43.5 17t43 -17t17 -43t-17 -43t-43 -17t-43.5 17t-17.5 43zM405 507v-70l-249 -354h262v-83h-375v75l246 350h-237v82h353z" />
<glyph unicode="&#x17d;" horiz-adv-x="584" d="M339 725h-90l-135 162h97l83 -102l83 102h97zM516 674v-79l-341 -510h355v-85h-476v81l340 508h-335v85h457z" />
<glyph unicode="&#x17e;" horiz-adv-x="461" d="M292 558h-90l-135 162h97l83 -102l83 102h97zM405 507v-70l-249 -354h262v-83h-375v75l246 350h-237v82h353z" />
<glyph unicode="&#x17f;" horiz-adv-x="260" d="M242 685q-73 0 -73 -87v-598h-98v599q0 79 42.5 124.5t119.5 45.5q33 0 57 -8v-85q-24 9 -48 9z" />
<glyph unicode="&#x192;" horiz-adv-x="430" d="M364 680q46 0 72 -9v-85q-28 10 -57 10q-73 0 -91 -112l-19 -109h98v-76h-110l-63 -368q-31 -188 -173 -188q-46 0 -77 12v85q31 -13 66 -13q69 0 87 112l61 360h-94v76h106l20 117q31 188 174 188z" />
<glyph unicode="&#x218;" horiz-adv-x="521" d="M131 -249l80 198h109l-112 -198h-77zM285 587q-55 0 -86.5 -24.5t-31.5 -64.5t31 -64t84 -47t76.5 -36t53.5 -37q60 -45 60 -132t-63 -138t-168.5 -51t-178.5 43v107q79 -59 183 -59q55 0 87 25.5t32 70.5q0 27 -19 49.5t-41 34t-57 27.5t-45.5 21t-34.5 18t-35.5 22 t-28.5 25t-25 32q-20 44 -20 84q0 86 62.5 136t157.5 50t159 -32v-102q-67 42 -152 42z" />
<glyph unicode="&#x219;" horiz-adv-x="419" d="M232 430q-35 0 -55.5 -16t-20.5 -42q0 -31 26 -47q8 -5 12.5 -8.5t15 -8.5t15.5 -8q15 -7 54.5 -24t73 -49.5t33.5 -93.5t-48 -99.5t-134 -38.5t-146 30v93q70 -43 145 -43q39 0 60.5 16t21.5 40t-17 41.5t-34.5 26t-59.5 26.5q-119 49 -119 144q0 67 50 105t128.5 38 t124.5 -22v-89q-49 29 -126 29zM85 -249l80 198h109l-113 -198h-76z" />
<glyph unicode="&#x21a;" horiz-adv-x="500" d="M22 674h456v-86h-177v-588h-103v588h-176v86zM113 -249l80 198h109l-112 -198h-77z" />
<glyph unicode="&#x21b;" horiz-adv-x="374" d="M196 431v-279q0 -73 70 -73q41 0 69 22v-88q-33 -18 -81 -18q-157 0 -157 159v277h-79v76h79v124h99v-124h133v-76h-133zM111 -249l80 198h109l-112 -198h-77z" />
<glyph unicode="&#x237;" horiz-adv-x="242" d="M20 -114q55 0 55 71v550h98v-552q0 -71 -37.5 -111t-106.5 -40q-32 0 -73 15v83q32 -16 64 -16z" />
<glyph unicode="&#x2bc;" horiz-adv-x="204" d="M20 460l89 235h116l-124 -235h-81z" />
<glyph unicode="&#x2c6;" horiz-adv-x="444" d="M177 798h90l135 -162h-97l-84 102l-82 -102h-97z" />
<glyph unicode="&#x2c7;" horiz-adv-x="444" d="M267 636h-90l-135 162h97l83 -102l83 102h97z" />
<glyph unicode="&#x2c9;" horiz-adv-x="444" d="M374 681h-304v68h304v-68z" />
<glyph unicode="&#x2d8;" horiz-adv-x="444" d="M48 798h78q0 -44 24 -71t72 -27t72 27t24 71h78q0 -79 -45 -122t-129 -43t-129 43t-45 122z" />
<glyph unicode="&#x2d9;" horiz-adv-x="444" d="M161 720q0 26 17.5 43t43.5 17t43 -17t17 -43t-17 -43t-43 -17t-43.5 17t-17.5 43z" />
<glyph unicode="&#x2da;" horiz-adv-x="444" d="M168 719q0 -22 15.5 -38.5t38 -16.5t38 16.5t15.5 38.5t-15.5 38t-38 16t-38 -16t-15.5 -38zM140.5 636.5q-33.5 33.5 -33.5 81t33.5 81.5t81 34t81.5 -34t34 -81.5t-34 -81t-81.5 -33.5t-81 33.5z" />
<glyph unicode="&#x2db;" horiz-adv-x="444" d="M329 -214q-36 -21 -92.5 -21t-89 31.5t-32.5 87t50 103.5t110 70l36 -45q-114 -61 -114 -127q0 -51 58 -51q41 0 74 24v-72z" />
<glyph unicode="&#x2dc;" horiz-adv-x="444" d="M296 647q-29 0 -69.5 20.5t-60.5 20.5q-35 0 -66 -46l-49 45q14 31 42.5 52.5t61.5 21.5t75 -20.5t61 -20.5q37 0 58 43l56 -42q-35 -74 -109 -74z" />
<glyph unicode="&#x2dd;" horiz-adv-x="444" d="M35 636l94 162h103l-122 -162h-75zM200 636l100 162h109l-134 -162h-75z" />
<glyph unicode="&#x3c0;" horiz-adv-x="589" d="M574 507v-76h-92v-431h-98v431h-172v-251q0 -100 -42.5 -140t-129.5 -40v84q41 0 57.5 18t16.5 71v258h-91v76h551z" />
<glyph unicode="&#x901;" horiz-adv-x="0" d="M-177 918q-16 16 -16 40.5t16 41t40.5 16.5t41 -17t16.5 -41t-16.5 -40t-41 -16t-40.5 16zM2 781q-57 -44 -141 -44t-139 42.5t-55 124.5h94q0 -41 27 -67t74.5 -26t74.5 26t27 67h95q0 -79 -57 -123z" />
<glyph unicode="&#x902;" horiz-adv-x="0" d="M-198 793q0 26 17.5 44.5t44 18.5t44.5 -18.5t18 -44.5t-18 -43.5t-44.5 -17.5t-44 17.5t-17.5 43.5z" />
<glyph unicode="&#x903;" horiz-adv-x="295" d="M85.5 111q-17.5 18 -17.5 44.5t17.5 44.5t44 18t45 -18.5t18.5 -44.5t-18.5 -44t-45 -18t-44 18zM68 484q0 26 17.5 44t44 18t45 -18t18.5 -44t-18.5 -44t-45 -18t-44 18t-17.5 44z" />
<glyph unicode="&#x905;" horiz-adv-x="671" d="M696 650v-80h-112v-570h-96v252h-130q1 -6 1 -18q0 -76 -53 -123t-150 -47q-68 0 -126 24v90q62 -32 115.5 -32t86.5 23.5t33 75.5q0 85 -116 85h-37v84h32q49 0 74.5 21t25.5 58q0 75 -87 75q-55 0 -99 -24v89q48 19 103 19q86 0 133 -40t47 -108q0 -51 -26 -85t-70 -46 q49 -6 80 -40h163v237h-87v80h295z" />
<glyph unicode="&#x906;" horiz-adv-x="941" d="M965 650v-80h-111v-570h-97v570h-173v-570h-96v252h-130q1 -6 1 -18q0 -76 -53 -123t-150 -47q-68 0 -126 24v90q62 -32 115.5 -32t86.5 23.5t33 75.5q0 85 -116 85h-37v84h32q49 0 74.5 21t25.5 58q0 75 -87 75q-55 0 -99 -24v89q48 19 103 19q86 0 133 -40t47 -108 q0 -51 -26 -85t-70 -46q49 -6 80 -40h163v237h-87v80h564z" />
<glyph unicode="&#x907;" horiz-adv-x="495" d="M412 570v-151h-172q-36 0 -57.5 -14t-21.5 -41t25.5 -39.5t84.5 -16.5q99 -4 146.5 -40t47.5 -105t-49 -114t-126 -45t-134 41v-108h-95v235h88q16 -41 52.5 -66.5t78 -25.5t65.5 22t24 56t-26 50t-82 18.5t-96.5 13t-70.5 40.5t-30 80q0 67 48.5 103t127.5 36h76v71 h-340v80h543v-80h-107z" />
<glyph unicode="&#x908;" horiz-adv-x="495" d="M408 570v-151h-168q-36 0 -57.5 -14t-21.5 -41t25.5 -39.5t84.5 -16.5q99 -4 146.5 -40t47.5 -105t-49 -114t-126 -45t-134 41v-108h-95v235h88q16 -41 52.5 -66.5t78 -25.5t65.5 22t24 56t-26 50t-82 18.5t-96.5 13t-70.5 40.5t-30 80q0 67 48.5 103t127.5 36h71v71 h-335v80h312q-33 37 -33 99t43.5 103t103.5 41t95 -17v-88q-33 19 -71 19t-55.5 -19t-17.5 -55.5t36 -82.5h130v-80h-111z" />
<glyph unicode="&#x909;" horiz-adv-x="439" d="M463 650v-80h-128q32 -37 32 -90.5t-30 -87.5t-82 -46q62 -6 104 -45t42 -104q0 -83 -60.5 -131.5t-170.5 -48.5q-70 0 -140 24v89q62 -32 134 -32q140 0 140 106q0 47 -39 74t-110 27h-44v82h42q117 0 117 97q0 48 -40 86h-254v80h487z" />
<glyph unicode="&#x90a;" horiz-adv-x="702" d="M726 650v-80h-391q32 -37 32 -90.5t-30 -87.5t-82 -46q57 -5 96 -38q15 46 54 74t91 28q87 0 134 -50.5t47 -136.5t-50 -141.5t-136 -55.5q-14 0 -26 3v78q12 -2 17 -2q99 0 99 119q0 48 -22 77.5t-65.5 29.5t-67.5 -37.5t-25 -92.5v-4q0 -83 -60.5 -131.5t-170.5 -48.5 q-70 0 -140 24v89q62 -32 134 -32q140 0 140 106q0 47 -39 74t-110 27h-44v82h42q117 0 117 97q0 48 -40 86h-254v80h750z" />
<glyph unicode="&#x90b;" horiz-adv-x="845" d="M465 570v-209l124 71v59h90v-89q0 -84 82 -84h16v-79h-43q-90 0 -90 -69q0 -28 21 -43t66 -15t81 24v-81q-36 -21 -98.5 -21t-113.5 34t-51 97q0 42 25.5 74t69.5 46q-35 19 -48 60l-131 -75v-270h-98v221l-309 -183v96l207 120q-12 60 -41 93.5t-79 33.5t-96 -19v88 q40 18 104 18t116.5 -41.5t72.5 -127.5l25 15v256h-391v80h894v-80h-405z" />
<glyph unicode="&#x90c;" horiz-adv-x="779" d="M684 570v-399q-56 -1 -84 -23.5t-28 -55.5t22.5 -51.5t67.5 -18.5t87 18v-78q-44 -17 -92 -17q-80 0 -130.5 37t-50.5 106q0 47 29 82.5t82 49.5v166q-33 13 -63 13q-103 0 -103 -119v-70h-97v72q0 110 -82 110q-40 0 -65.5 -33t-25.5 -105.5t42 -122.5t126 -50 q25 0 46 6v-80q-30 -7 -58 -7q-114 0 -183 74t-69 190q0 93 48 150.5t129 57.5q57 0 94.5 -25t46.5 -67q25 97 145 97q34 0 69 -13v106h-611v80h828v-80h-120z" />
<glyph unicode="&#x90d;" horiz-adv-x="561" d="M586 650v-80h-84v-138q0 -75 -44 -117t-121 -42q-30 0 -52 6v78q18 -5 37 -5q84 0 84 86v132h-230v-310q0 -146 166 -146q83 0 145 32v-88q-66 -27 -152 -27q-117 0 -186.5 56t-69.5 173v310h-103v80h610zM396 904h94q0 -79 -54.5 -123t-138.5 -44t-137 42.5t-53 124.5 h95q0 -42 25 -67.5t71.5 -25.5t72 26t25.5 67z" />
<glyph unicode="&#x90e;" horiz-adv-x="561" d="M586 650v-80h-84v-138q0 -75 -44 -117t-121 -42q-30 0 -52 6v78q18 -5 37 -5q84 0 84 86v132h-230v-310q0 -146 166 -146q83 0 145 32v-88q-66 -27 -152 -27q-117 0 -186.5 56t-69.5 173v310h-103v80h429q0 41 -15.5 62.5t-54.5 21.5h-48q-79 0 -125.5 35.5t-46.5 130.5 h97q0 -49 19 -67.5t65 -18.5h45q160 0 161 -164h84z" />
<glyph unicode="&#x90f;" horiz-adv-x="561" d="M586 650v-80h-84v-138q0 -75 -44 -117t-121 -42q-30 0 -52 6v78q18 -5 37 -5q84 0 84 86v132h-230v-310q0 -146 166 -146q83 0 145 32v-88q-66 -27 -152 -27q-117 0 -186.5 56t-69.5 173v310h-103v80h610z" />
<glyph unicode="&#x910;" horiz-adv-x="561" d="M586 650v-80h-84v-138q0 -75 -44 -117t-121 -42q-30 0 -52 6v78q18 -5 37 -5q84 0 84 86v132h-230v-310q0 -146 166 -146q83 0 145 32v-88q-66 -27 -152 -27q-117 0 -186.5 56t-69.5 173v310h-103v80h418l-77 117q-33 50 -87 50q-30 0 -54 -8v83q36 6 60 6q53 0 91 -21.5 t69 -68.5l103 -158h87z" />
<glyph unicode="&#x911;" horiz-adv-x="941" d="M966 650v-80h-111v-570h-97v570h-174v-570h-96v252h-130q1 -6 1 -18q0 -76 -53 -123t-150 -47q-68 0 -126 24v90q62 -32 115.5 -32t86.5 23.5t33 75.5q0 85 -116 85h-37v84h32q49 0 74.5 21t25.5 58q0 75 -87 75q-55 0 -99 -24v89q48 19 103 19q86 0 133 -40t47 -108 q0 -51 -26 -85t-70 -46q49 -6 80 -40h163v237h-87v80h565zM779 904h95q0 -79 -55 -123t-138.5 -44t-137 42.5t-53.5 124.5h95q0 -41 25.5 -67t72 -26t71.5 26t25 67z" />
<glyph unicode="&#x912;" horiz-adv-x="942" d="M966 650v-80h-111v-570h-97v570h-174v-570h-96v252h-130q1 -6 1 -18q0 -76 -53 -123t-150 -47q-68 0 -126 24v90q62 -32 115.5 -32t86.5 23.5t33 75.5q0 85 -116 85h-37v84h32q49 0 74.5 21t25.5 58q0 75 -87 75q-55 0 -99 -24v89q48 19 103 19q86 0 133 -40t47 -108 q0 -51 -26 -85t-70 -46q49 -6 80 -40h163v237h-87v80h357q0 41 -15.5 62.5t-54.5 21.5h-48q-79 0 -125.5 35.5t-46.5 130.5h97q0 -49 19 -67.5t65 -18.5h45q160 0 161 -164h111z" />
<glyph unicode="&#x913;" horiz-adv-x="942" d="M961 650v-80h-111v-570h-97v570h-169v-570h-96v252h-130q1 -6 1 -18q0 -76 -53 -123t-150 -47q-68 0 -126 24v90q62 -32 115.5 -32t86.5 23.5t33 75.5q0 85 -116 85h-37v84h32q49 0 74.5 21t25.5 58q0 75 -87 75q-55 0 -99 -24v89q48 19 103 19q86 0 133 -40t47 -108 q0 -51 -26 -85t-70 -46q49 -6 80 -40h163v237h-87v80h348l-77 117q-33 50 -87 50q-30 0 -54 -8v83q36 6 60 6q53 0 91 -21.5t69 -68.5l103 -158h107z" />
<glyph unicode="&#x914;" horiz-adv-x="942" d="M966 650v-80h-111v-570h-97v570h-174v-570h-96v252h-130q1 -6 1 -18q0 -76 -53 -123t-150 -47q-68 0 -126 24v90q62 -32 115.5 -32t86.5 23.5t33 75.5q0 85 -116 85h-37v84h32q49 0 74.5 21t25.5 58q0 75 -87 75q-55 0 -99 -24v89q48 19 103 19q86 0 133 -40t47 -108 q0 -51 -26 -85t-70 -46q49 -6 80 -40h163v237h-87v80h329q-96 68 -168 68q-33 0 -57 -8v79q28 8 64.5 8t74.5 -19t99 -73l38 -34l-92 116q-48 59 -122 59q-38 0 -62 -8v79q24 7 68 7q112 0 177 -103l108 -171h108z" />
<glyph unicode="&#x915;" horiz-adv-x="782" d="M807 570h-367v-133q45 45 121.5 45t128 -51t51.5 -137t-58.5 -139t-146.5 -53q-11 0 -23 2v80q6 -1 19 -1q50 0 81 30.5t31 80t-28.5 80t-73 30.5t-73.5 -29.5t-29 -73.5v-301h-97v137q-47 -45 -122.5 -45t-127.5 51.5t-52 137t58.5 138.5t146.5 53q16 0 23 -2v-80 q-10 2 -19 2q-49 0 -80.5 -31t-31.5 -80.5t29 -80t73 -30.5t73.5 29.5t29.5 73.5v297h-367v80h831v-80z" />
<glyph unicode="&#x916;" horiz-adv-x="797" d="M822 650v-80h-111v-570h-98v165q-44 -40 -114 -40t-120 48t-50 125t51 124.5t125 47.5q20 0 42 -4v-76q-9 3 -29 3q-42 0 -69 -27.5t-27 -70.5t26.5 -69t68 -26t69 26.5t27.5 72.5v271h-302v-136q0 -70 -41 -112q-43 -42 -124 -49l214 -273h-117l-211 272v78h70 q113 0 113 91v129h-239v80h846z" />
<glyph unicode="&#x917;" horiz-adv-x="577" d="M-24 650h626v-80h-112v-570h-95v570h-156v-228q0 -66 -35 -100.5t-86.5 -34.5t-87.5 13v82q28 -14 57 -14q56 0 56 61v221h-167v80z" />
<glyph unicode="&#x918;" horiz-adv-x="641" d="M665 650v-80h-111v-570h-96v172q-28 -38 -81.5 -62t-116.5 -24q-89 0 -144.5 42.5t-55.5 114.5q0 54 34.5 88t93.5 43q-51 3 -85.5 31.5t-34.5 79t38 85.5h-130v80h689zM458 333v237h-245q-48 -29 -48 -80q0 -74 115 -74h46v-83h-56q-52 0 -82.5 -22.5t-30.5 -62.5 t32.5 -60.5t79.5 -20.5q81 0 135 47.5t54 118.5z" />
<glyph unicode="&#x919;" horiz-adv-x="598" d="M-24 650h646v-80h-213v-152h-184q-75 0 -75 -56q0 -31 29.5 -44t100.5 -15q185 -5 185 -143q0 -71 -57.5 -116t-161 -45t-191.5 46v93q92 -58 198 -58q54 0 84.5 20.5t30.5 56t-28 49.5t-95 16q-191 7 -191 138q0 68 48 103t121 35h90v72h-337v80zM520 410 q25 0 42.5 -17.5t17.5 -42.5t-17 -42t-43 -17t-42.5 16.5t-16.5 42t17 43t42 17.5z" />
<glyph unicode="&#x91a;" horiz-adv-x="642" d="M666 650v-80h-111v-570h-97v182q-55 -84 -182 -85q-83 0 -135 44.5t-52 122.5t71 115h-134v81h346v-81q-100 0 -144.5 -31t-44.5 -78t30 -71t81 -24q76 0 120 47.5t44 103.5v244h-482v80h690z" />
<glyph unicode="&#x91b;" horiz-adv-x="639" d="M663 570h-149v-107q76 -47 76 -155.5t-83 -180.5t-210 -72q-103 0 -170.5 45t-67.5 124q0 54 33 88t89 39q-44 5 -75 38.5t-31 88.5t41 92h-140v80h687v-80zM424 570h-197q-56 -36 -56 -96q0 -38 26.5 -61.5t66.5 -23.5h31v-82h-37q-50 0 -76 -21t-26 -61t40 -65t101 -25 q87 0 141 46t54 127q0 48 -26.5 75.5t-75.5 27.5q-25 0 -45 -6v78q20 7 46.5 7t32.5 -1v81z" />
<glyph unicode="&#x91c;" horiz-adv-x="652" d="M-24 650h701v-80h-111v-570h-97v374h-185q69 -41 69 -128t-55 -136t-145 -49q-68 0 -123 22v86q50 -26 107 -26t89.5 28t32.5 83.5t-43.5 87.5t-121.5 32v81h375v115h-493v80z" />
<glyph unicode="&#x91d;" horiz-adv-x="765" d="M790 650v-80h-111v-570h-98v245h-137q20 -32 20 -77q0 -69 -48 -112.5t-126.5 -43.5t-135.5 43v-104h-95v229h88q17 -40 54.5 -66t78.5 -26t64.5 20.5t23.5 56.5q0 70 -110 76q-88 3 -138 31t-50 95.5t48.5 102t127.5 34.5h78v66h-348v80h814zM581 322v248h-161v-146 h-169q-84 0 -84 -52q0 -26 23 -36q21 -10 94 -14h297z" />
<glyph unicode="&#x91e;" horiz-adv-x="679" d="M704 650v-80h-111v-570h-98v251h-100q-9 -79 -67 -128t-150 -52q-82 0 -154 36v89q71 -42 139.5 -42t101.5 34t33 86.5t-30.5 84t-79.5 31.5t-85 -16v82q36 15 86 15q82 0 134 -37t67 -103h105v239h-519v80h728z" />
<glyph unicode="&#x91f;" horiz-adv-x="502" d="M420 570v-191q-28 6 -78 6q-87 0 -138.5 -38t-51.5 -106.5t47 -104.5t124 -36q38 0 78.5 12t64.5 27v-88q-64 -33 -148 -33q-121 0 -193 59.5t-72 160t69 162.5t182 63h20v107h-348v80h550v-80h-106z" />
<glyph unicode="&#x920;" horiz-adv-x="567" d="M592 570h-239v-117q75 -17 120.5 -66t45.5 -131.5t-64.5 -138.5t-170 -56.5t-170.5 55t-65 145.5t60.5 140.5t147.5 57.5v111h-281v80h616v-80zM383 173q37 34 37 90.5t-36.5 87t-96.5 31t-100 -29.5t-40 -87.5t38 -91.5t99.5 -34t98.5 34z" />
<glyph unicode="&#x921;" horiz-adv-x="524" d="M409 570v-152h-184q-75 0 -75 -56q0 -31 29.5 -44t100.5 -15q185 -5 185 -143q0 -71 -57.5 -116t-161 -45t-191.5 46v93q92 -58 198 -58q54 0 84.5 20.5t30.5 56t-28 49.5t-95 16q-191 7 -191 138q0 68 48 103t121 35h90v72h-337v80h573v-80h-140z" />
<glyph unicode="&#x922;" horiz-adv-x="558" d="M266 283q41 22 103 22t101 -35t39 -99t-56.5 -109t-159.5 -45t-174.5 64t-71.5 165.5t72.5 163.5t190.5 64q11 0 35 -2v98h-369v80h607v-80h-142v-185q-57 10 -102 10q-87 0 -140 -40t-53 -107.5t43.5 -109.5t113.5 -42q49 0 81 21t32 59q0 24 -18.5 40t-58.5 16t-73 -24 v75z" />
<glyph unicode="&#x923;" horiz-adv-x="746" d="M771 650v-80h-112v-570h-96v570h-149v-219q0 -89 -47 -136t-134 -47q-175 0 -175 182v220h-82v80h795zM318 346v224h-164v-224q0 -96 81 -96q83 0 83 96z" />
<glyph unicode="&#x924;" horiz-adv-x="593" d="M618 650v-80h-111v-570h-97v377h-87q-166 0 -166 -146q0 -69 33 -108.5t99 -39.5q16 0 21 1v-82q-18 -2 -33 -2q-101 0 -159.5 65t-58.5 167.5t65 164t191 61.5h95v112h-434v80h642z" />
<glyph unicode="&#x925;" horiz-adv-x="649" d="M375 507q0 -152 -237 -213q14 -53 53.5 -80.5t104.5 -27.5t117.5 45t52.5 133v286h203v-80h-106v-570h-97v189q-20 -33 -71 -59.5t-113 -26.5q-100 0 -172.5 64t-83.5 182q134 31 195 66.5t61 92.5q0 30 -15 49.5t-44.5 19.5t-45 -18t-15.5 -43t13 -59h-94q-12 32 -12 65 q0 57 41.5 96t112 39t111.5 -42t41 -108z" />
<glyph unicode="&#x926;" horiz-adv-x="558" d="M-24 650h607v-80h-118v-169h-185q-63 0 -100.5 -33.5t-37.5 -92t33 -92.5t87.5 -34t88 30.5t37.5 81.5h93v-271h-95v131q-19 -25 -56.5 -39t-78.5 -14q-95 0 -152.5 59t-57.5 148.5t61 147t171 57.5h95v90h-392v80z" />
<glyph unicode="&#x927;" horiz-adv-x="637" d="M661 650v-80h-111v-570h-96v151q-26 -38 -75.5 -61.5t-111.5 -23.5q-95 0 -153 44.5t-58 116.5q0 57 37 91t99 40q-60 5 -94 34t-34 82q0 67 57 96h-145v80h314v-80h-1q-61 0 -94.5 -25t-33.5 -66t33.5 -61t88.5 -20h48v-81h-56q-57 0 -89 -22.5t-32 -62t32.5 -62.5 t87.5 -23q81 0 130.5 47t49.5 114v342h207z" />
<glyph unicode="&#x928;" horiz-adv-x="502" d="M-24 650h550v-80h-111v-570h-97v325h-162q-18 0 -25.5 -9.5t-7.5 -36t12 -67.5h-79q-30 51 -30 112q0 37 23 58.5t70 21.5h199v166h-342v80z" />
<glyph unicode="&#x929;" horiz-adv-x="502" d="M-24 650h550v-80h-111v-570h-97v325h-162q-18 0 -25.5 -9.5t-7.5 -36t12 -67.5h-79q-30 51 -30 112q0 37 23 58.5t70 21.5h199v166h-342v80zM134 109q25 0 42.5 -17.5t17.5 -42.5t-17.5 -42t-43 -17t-42 17t-16.5 42t17 42.5t42 17.5z" />
<glyph unicode="&#x92a;" horiz-adv-x="560" d="M585 650v-80h-112v-570h-97v228q-48 -53 -128 -54q-182 0 -182 201v195h-90v80h609zM376 380v190h-213v-198q0 -63 24 -91t73 -28t82.5 34t33.5 93z" />
<glyph unicode="&#x92b;" horiz-adv-x="806" d="M831 570h-358v-127q46 46 124 46t127.5 -52t49.5 -138.5t-58.5 -138t-145.5 -51.5q-10 0 -24 2v80q12 -2 19 -2q51 0 82 30t31 80.5t-28 80.5t-72.5 30t-74.5 -29t-30 -75v-306h-97v229q-47 -52 -132.5 -52t-131.5 46t-46 149v198h-90v80h855v-80zM376 380v190h-213v-198 q0 -63 24 -90t73 -27t82.5 33t33.5 92z" />
<glyph unicode="&#x92c;" horiz-adv-x="620" d="M645 650v-80h-112v-570h-96v153q-64 -74 -172 -74q-89 0 -152.5 59t-63.5 151t62.5 151.5t160.5 59.5q40 0 82 -10v-84q-39 12 -76 12t-67 -14l199 -184q27 37 27 82v268h-461v80h669zM169 369q-24 -34 -24 -87t36.5 -89t92 -36t95.5 26z" />
<glyph unicode="&#x92d;" horiz-adv-x="565" d="M383 356v294h207v-80h-112v-570h-95v277h-184v-134h-84l-28 62q-27 57 -27 84t12 43t31 20v162q0 60 -46 60q-31 0 -55 -14v78q31 17 74 17q123 0 123 -127v-172h184z" />
<glyph unicode="&#x92e;" horiz-adv-x="576" d="M394 570h-195v-216h195v216zM-24 570v80h624v-80h-111v-570h-95v274h-195v-132h-83l-28 64q-28 63 -28 90q0 43 44 54v220h-128z" />
<glyph unicode="&#x92f;" horiz-adv-x="628" d="M205.5 234q38.5 -31 99 -31t100.5 37t40 102v228h-170q23 -37 23 -90q0 -118 -143 -166q12 -49 50.5 -80zM445 187q-47 -68 -150 -68t-170.5 66t-82.5 184q79 12 119.5 43t40.5 77.5t-30 80.5h-196v80h676v-80h-111v-570h-96v187z" />
<glyph unicode="&#x930;" horiz-adv-x="388" d="M32 350h70q113 0 113 91v129h-239v80h436v-80h-101v-137q0 -70 -41 -111.5t-112 -46.5q-2 -1 -12 -1l211 -274h-117l-208 272v78z" />
<glyph unicode="&#x931;" horiz-adv-x="388" d="M32 350h70q113 0 113 91v129h-239v80h436v-80h-101v-137q0 -70 -41 -111.5t-112 -46.5q-2 -1 -12 -1l211 -274h-117l-208 272v78zM-30 17q0 25 17 42.5t42 17.5t43 -17.5t18 -42.5t-17.5 -42t-43 -17t-42.5 17t-17 42z" />
<glyph unicode="&#x932;" horiz-adv-x="742" d="M766 650v-80h-111v-570h-97v392q-23 7 -44 7q-103 0 -103 -119v-70h-97v72q0 110 -78 110q-40 0 -65.5 -33t-25.5 -105.5t42 -122.5t126 -50q20 0 31 2v-79q-17 -4 -43 -4q-115 0 -183.5 74t-68.5 190q0 93 48 150.5t129 57.5q56 0 92 -25t45 -67q25 97 144 97 q27 0 51 -8v101h-582v80h790z" />
<glyph unicode="&#x933;" horiz-adv-x="799" d="M824 570h-217v-102q70 -15 110.5 -64t40.5 -128t-58 -132.5t-152 -53.5t-161 69q-50 -69 -142 -69t-148 52t-56 138.5t56 140t148 53.5t159 -65q43 52 111 61v100h-539v80h848v-80zM243 169q48 0 73 41q19 32 31 74t16 54q-54 58 -120 58q-48 0 -76 -32.5t-28 -83t28 -81 t76 -30.5zM631 200.5q29 31.5 29 82.5t-29 81.5t-79 30.5q-38 0 -58 -21q-12 -12 -19.5 -20t-15 -29t-10.5 -29q-13 -34 -19 -65q53 -62 123 -62q49 0 78 31.5z" />
<glyph unicode="&#x934;" horiz-adv-x="799" d="M824 570h-217v-102q70 -15 110.5 -64t40.5 -128t-58 -132.5t-152 -53.5t-161 69q-50 -69 -142 -69t-148 52t-56 138.5t56 140t148 53.5t159 -65q43 52 111 61v100h-539v80h848v-80zM243 169q48 0 73 41q19 32 31 74t16 54q-54 58 -120 58q-48 0 -76 -32.5t-28 -83t28 -81 t76 -30.5zM631 200.5q29 31.5 29 82.5t-29 81.5t-79 30.5q-38 0 -58 -21q-12 -12 -19.5 -20t-15 -29t-10.5 -29q-13 -34 -19 -65q53 -62 123 -62q49 0 78 31.5zM217 15q25 0 42.5 -17.5t17.5 -42.5t-17.5 -42t-42.5 -17t-42.5 17t-17.5 42t17.5 42.5t42.5 17.5z" />
<glyph unicode="&#x935;" horiz-adv-x="582" d="M607 650v-80h-112v-570h-96v155q-54 -66 -146 -66t-151 52.5t-59 140.5t57 144t148 56q36 0 66 -7v-85q-27 9 -67 9t-73 -31t-33 -83.5t33 -84.5t89.5 -32t96 41t39.5 98v263h-423v80h631z" />
<glyph unicode="&#x936;" horiz-adv-x="683" d="M499 650h208v-80h-111v-570h-97v650zM68 508q0 60 42.5 102.5t118 42.5t123.5 -52t48 -129q0 -105 -71 -163t-166 -58h-17l231 -251h-126l-221 247v84h102q82 0 127 37t45 104q0 99 -79 99q-32 0 -48 -20.5t-16 -50t15 -59.5h-93q-15 33 -15 67z" />
<glyph unicode="&#x937;" horiz-adv-x="589" d="M613 650v-80h-111v-570h-96v223q-51 -54 -139.5 -54t-142 50.5t-53.5 152.5v198h-95v80h637zM165 372q0 -63 31.5 -94t88.5 -31t94 45l-214 211v-131zM406 372v198h-225l223 -224q2 18 2 26z" />
<glyph unicode="&#x938;" horiz-adv-x="649" d="M673 650v-80h-111v-570h-96v259h-163q-96 0 -157 9l185 -268h-117l-188 278v73h67q54 0 75 22t21 67v130h-213v80h697zM466 339v231h-181v-134q0 -60 -24 -97h205z" />
<glyph unicode="&#x939;" horiz-adv-x="536" d="M453 413h-245q-51 0 -51 -40q0 -44 41 -67q42 12 94 12q84 0 132 -40.5t48 -97.5q0 -34 -10 -57h-95q13 21 13 50t-23 47.5t-76 18.5t-87 -26.5t-34 -68.5t39.5 -70.5t110.5 -28.5t142 18v-81q-73 -16 -135 -16q-122 0 -188 55t-66 129t65 122q-69 41 -69 113 q0 51 36.5 78.5t95.5 27.5h166v79h-381v80h585v-80h-108v-157z" />
<glyph unicode="&#x93c;" horiz-adv-x="0" d="M-336 -129q0 25 17 42.5t42 17.5t42.5 -17.5t17.5 -42.5t-17.5 -42t-42.5 -17t-42 17t-17 42z" />
<glyph unicode="&#x93d;" horiz-adv-x="491" d="M405 47.5q-54 -50.5 -165.5 -50.5t-207.5 55v102q47 -30 106 -50t112 -20t81.5 24t28.5 58.5t-33.5 67.5t-81 62.5t-95.5 61.5t-81.5 74.5t-33.5 96t38.5 87.5t107.5 34h248v-87h-238q-54 0 -54 -45q0 -26 33 -55t80.5 -58.5t95 -62.5t80.5 -78t33 -94q0 -72 -54 -122.5z " />
<glyph unicode="&#x93e;" d="M-24 570v80h319v-80h-111v-570h-97v570h-111z" />
<glyph unicode="&#x93f;" d="M464.5 794q-105.5 28 -166.5 28q-115 0 -115 -100v-72h111v-80h-111v-570h-96v570h-111v80h111v73q0 83 52.5 133.5t145.5 50.5q162 0 376 -100v-89q-91 48 -196.5 76z" />
<glyph unicode="&#x940;" d="M182 650h112v-80h-111v-570h-96v570h-111v80h109v78q0 45 -24.5 69t-65 24t-63.5 -23t-23 -70v-21h-97v23q0 87 52 131t131.5 44t133 -44t53.5 -130v-81z" />
<glyph unicode="&#x941;" horiz-adv-x="0" d="M-162 -196q43 0 66.5 19t23.5 48t-20 45t-56 16t-98 -31v86q48 24 102 24q81 0 123.5 -37.5t42.5 -102t-49 -106t-127 -41.5t-153 34.5t-121 76.5v108q45 -50 121.5 -94.5t144.5 -44.5z" />
<glyph unicode="&#x942;" horiz-adv-x="0" d="M-140 -265q-68 0 -112.5 36.5t-44.5 99.5t43.5 103t110.5 40t116.5 -29.5t76.5 -76.5q54 -92 54 -195h-90q0 90 -40 156t-111 66q-30 0 -48.5 -17t-18.5 -45.5t21 -45t47 -16.5t44 6v-75q-19 -7 -48 -7z" />
<glyph unicode="&#x943;" horiz-adv-x="0" d="M-276 -249q-45 40 -45 101t38.5 98.5t98.5 42.5v17h97v-89h-48q-43 0 -67 -18t-24 -49.5t18.5 -49t58.5 -17.5t77 24v-77q-39 -23 -86 -23q-73 0 -118 40z" />
<glyph unicode="&#x945;" horiz-adv-x="0" d="M2 781q-55 -44 -138.5 -44t-137 42.5t-53.5 124.5h95q0 -41 25.5 -67t72 -26t71.5 25.5t25 67.5h95q0 -79 -55 -123z" />
<glyph unicode="&#x946;" horiz-adv-x="0" d="M-293 814h45q161 0 161 -166h-97q0 42 -15 64t-55 22h-48q-79 0 -125.5 35.5t-46.5 130.5h97q0 -49 19 -67.5t65 -18.5z" />
<glyph unicode="&#x947;" horiz-adv-x="0" d="M-352 898q53 0 91 -21.5t69 -68.5l108 -165h-105l-82 124q-33 50 -87 50q-30 0 -54 -8v83q36 6 60 6z" />
<glyph unicode="&#x948;" horiz-adv-x="0" d="M-297 699.5q-40 18.5 -78.5 18.5t-62.5 -8v79q28 8 64.5 8t74.5 -19t99 -73l38 -34l-92 116q-48 59 -122 59q-38 0 -62 -8v79q25 7 68 7q112 0 177 -103l112 -178h-122q-54 38 -94 56.5z" />
<glyph unicode="&#x949;" d="M268 781q-55 -44 -138.5 -44t-136.5 42.5t-53 124.5h94q0 -41 25.5 -67t72 -26t71.5 26t25 67h95q0 -79 -55 -123zM-24 570v80h318v-80h-111v-570h-96v570h-111z" />
<glyph unicode="&#x94a;" horiz-adv-x="269" d="M294 650v-80h-111v-570h-96v570h-111v80h110q0 41 -15.5 62.5t-54.5 21.5h-48q-79 0 -125.5 35.5t-46.5 130.5h97q0 -49 19 -67.5t65 -18.5h45q160 0 161 -164h111z" />
<glyph unicode="&#x94b;" horiz-adv-x="269" d="M294 650v-80h-111v-570h-96v570h-111v80h100l-77 117q-33 50 -87 50q-30 0 -54 -8v83q36 6 60 6q53 0 91 -21.5t69 -68.5l103 -158h113z" />
<glyph unicode="&#x94c;" d="M294 650v-80h-111v-570h-96v570h-111v80h81q-96 68 -168 68q-33 0 -57 -8v79q28 8 64.5 8t74.5 -19t99 -73l38 -34l-92 116q-48 59 -122 59q-38 0 -62 -8v79q24 7 68 7q112 0 177 -103l108 -171h109z" />
<glyph unicode="&#x94d;" horiz-adv-x="0" d="M65 -235h-117l-123 168h99z" />
<glyph unicode="&#x950;" horiz-adv-x="1235" d="M828 558q-57 -44 -141 -44t-139 42.5t-55 123.5h94q0 -40 28 -66.5t75 -26.5t73.5 26.5t26.5 66.5h95q0 -78 -57 -122zM633 735q0 24 16.5 41t40.5 17t40.5 -17t16.5 -41t-16.5 -40t-41 -16t-40.5 16t-16 40zM706.5 83.5q-39.5 -34.5 -93 -34.5t-87 23t-49.5 55 q-14 -53 -67.5 -90t-128.5 -37q-103 0 -175 43v93q83 -54 173 -54q53 0 84 27t31 72q0 83 -118 83h-62v80h34q59 0 86.5 26.5t27.5 67.5t-24.5 65t-67.5 24q-75 0 -133 -42v85q57 38 141 38t132 -45t48 -115q0 -47 -21.5 -80t-55.5 -48q65 -4 107 -75q3 -4 12 -20.5 t12.5 -22.5t12.5 -19t15.5 -18.5t15.5 -12.5q18 -14 47 -14t56 30t49 67t42 71.5t28 46.5t27 39.5t32 39t33 26.5q36 27 86 27q82 0 132 -59t50 -153.5t-53 -161t-143 -66.5q-53 0 -94 17v87q36 -23 85.5 -23t79 39.5t29.5 99t-21 96t-57 36.5t-69 -39t-115 -180 q-34 -60 -73.5 -94.5z" />
<glyph unicode="&#x951;" horiz-adv-x="0" d="M-174 933h81v-232h-81v232z" />
<glyph unicode="&#x952;" horiz-adv-x="0" d="M-81 -225h-480v74h480v-74z" />
<glyph unicode="&#x953;" horiz-adv-x="0" d="M-295 881l62 51l149 -178l-62 -51z" />
<glyph unicode="&#x954;" horiz-adv-x="0" d="M-47 932l62 -51l-149 -178l-62 51z" />
<glyph unicode="&#x958;" horiz-adv-x="782" d="M807 570h-367v-133q45 45 121.5 45t128 -51t51.5 -137t-58.5 -139t-146.5 -53q-11 0 -23 2v80q6 -1 19 -1q50 0 81 30.5t31 80t-28.5 80t-73 30.5t-73.5 -29.5t-29 -73.5v-301h-97v137q-47 -45 -122.5 -45t-127.5 51.5t-52 137t58.5 138.5t146.5 53q16 0 23 -2v-80 q-10 2 -19 2q-49 0 -80.5 -31t-31.5 -80.5t29 -80t73 -30.5t73.5 29.5t29.5 73.5v297h-367v80h831v-80zM161 17q25 0 42.5 -17.5t17.5 -42.5t-17.5 -42t-42.5 -17t-42 17t-17 42t17 42.5t42 17.5z" />
<glyph unicode="&#x959;" horiz-adv-x="797" d="M822 650v-80h-111v-570h-98v165q-44 -40 -114 -40t-120 48t-50 125t51 124.5t125 47.5q20 0 42 -4v-76q-9 3 -29 3q-42 0 -69 -27.5t-27 -70.5t26.5 -69t68 -26t69 26.5t27.5 72.5v271h-302v-136q0 -70 -41 -112q-43 -42 -124 -49l214 -273h-117l-211 272v78h70 q113 0 113 91v129h-239v80h846zM81 18q25 0 42.5 -17.5t17.5 -42.5t-17.5 -42t-42.5 -17t-42 16.5t-17 42t17 43t42 17.5z" />
<glyph unicode="&#x95a;" horiz-adv-x="577" d="M-24 650h626v-80h-112v-570h-95v570h-156v-228q0 -66 -35 -100.5t-86.5 -34.5t-87.5 13v82q28 -14 57 -14q56 0 56 61v221h-167v80zM139 87q25 0 42.5 -17.5t17.5 -42.5t-17.5 -42t-42.5 -17t-42 17t-17 42t17 42.5t42 17.5z" />
<glyph unicode="&#x95b;" horiz-adv-x="652" d="M-24 650h701v-80h-111v-570h-97v374h-185q69 -41 69 -128t-55 -136t-145 -49q-68 0 -123 22v86q50 -26 107 -26t89.5 28t32.5 83.5t-43.5 87.5t-121.5 32v81h375v115h-493v80zM160 -25q25 0 42.5 -17.5t17.5 -42.5t-17.5 -42t-43 -17t-42 17t-16.5 42t17 42.5t42 17.5z " />
<glyph unicode="&#x95c;" horiz-adv-x="524" d="M409 570v-152h-184q-75 0 -75 -56q0 -31 29.5 -44t100.5 -15q185 -5 185 -143q0 -71 -57.5 -116t-161 -45t-191.5 46v93q92 -58 198 -58q54 0 84.5 20.5t30.5 56t-28 49.5t-95 16q-191 7 -191 138q0 68 48 103t121 35h90v72h-337v80h573v-80h-140zM247 -75 q25 0 42.5 -17.5t17.5 -42.5t-17.5 -42t-42.5 -17t-42 17t-17 42t17 42.5t42 17.5z" />
<glyph unicode="&#x95d;" horiz-adv-x="558" d="M237 -129q0 25 17 42.5t42 17.5t42.5 -17.5t17.5 -42.5t-17.5 -42t-43 -17t-42 17t-16.5 42zM266 283q41 22 103 22t101 -35t39 -99t-56.5 -109t-159.5 -45t-174.5 64t-71.5 165.5t72.5 163.5t190.5 64q11 0 35 -2v98h-369v80h607v-80h-142v-185q-57 10 -102 10 q-87 0 -140 -40t-53 -107.5t43.5 -109.5t113.5 -42q49 0 81 21t32 59q0 24 -18.5 40t-58.5 16t-73 -24v75z" />
<glyph unicode="&#x95e;" horiz-adv-x="806" d="M831 570h-358v-127q46 46 124 46t127.5 -52t49.5 -138.5t-58.5 -138t-145.5 -51.5q-10 0 -24 2v80q12 -2 19 -2q51 0 82 30t31 80.5t-28 80.5t-72.5 30t-74.5 -29t-30 -75v-306h-97v229q-47 -52 -132.5 -52t-131.5 46t-46 149v198h-90v80h855v-80zM376 380v190h-213v-198 q0 -63 24 -90t73 -27t82.5 33t33.5 92zM142 78q25 0 42.5 -17.5t17.5 -42.5t-17.5 -42t-43 -17t-42 16.5t-16.5 42t17 43t42 17.5z" />
<glyph unicode="&#x95f;" horiz-adv-x="628" d="M97.5 -54.5q-16.5 16.5 -16.5 42t17 43t42 17.5t42.5 -17.5t17.5 -42.5t-17.5 -42t-43 -17t-42 16.5zM205.5 234q38.5 -31 99 -31t100.5 37t40 102v228h-170q23 -37 23 -90q0 -118 -143 -166q12 -49 50.5 -80zM445 187q-47 -68 -150 -68t-170.5 66t-82.5 184 q79 12 119.5 43t40.5 77.5t-30 80.5h-196v80h676v-80h-111v-570h-96v187z" />
<glyph unicode="&#x960;" horiz-adv-x="742" d="M431 570v-225l93 49v80h94v-56q0 -45 14 -79.5t31 -52.5q45 -46 47 -99q1 -73 -42.5 -108.5t-118.5 -35.5q-19 0 -41 3l1 86q18 -5 42 -5t44.5 15.5t20.5 44.5t-30.5 65t-39.5 58l-115 -61v-249h-95v212l-276 -146v101l179 90q-15 60 -45.5 90.5t-85.5 30.5 q-28 0 -55 -10v90q27 7 63 7q159 0 201 -168l19 9v264h-360v80h790v-80h-335z" />
<glyph unicode="&#x961;" horiz-adv-x="797" d="M693 570v-265q0 -64 -39 -109q-17 -19 -34 -36q-40 -38 -40 -67.5t20 -44.5t54 -15h36v-80h-60q-32 0 -49.5 -17.5t-17.5 -45.5t19.5 -48.5t55 -20.5t86.5 21v-85q-41 -16 -89 -16q-75 0 -123 41.5t-48 111.5t65 105q-45 32 -45 89q0 49 40 88l32 34q40 41 40 95v111h-65 q-58 0 -83.5 -28.5t-25.5 -97.5v-60h-96v61q0 127 -89 127q-48 0 -76 -35t-28 -101q0 -176 163 -208l-2 -82q-121 20 -189.5 94t-68.5 197q0 94 52 154t143 60q106 0 144 -80q33 78 152 78h69v75h-615v80h818v-80h-106z" />
<glyph unicode="&#x964;" horiz-adv-x="382" d="M176 0v650h97v-650h-97z" />
<glyph unicode="&#x965;" horiz-adv-x="608" d="M402 0v650h97v-650h-97zM176 0v650h97v-650h-97z" />
<glyph unicode="&#x966;" horiz-adv-x="541" d="M176.5 510q-36.5 -63 -36.5 -180.5t36 -182t95.5 -64.5t95 64t35.5 182.5t-36.5 181t-94.5 62.5t-94.5 -63zM100.5 84q-61.5 92 -61.5 245.5t62 244t169.5 90.5t169.5 -90t62 -244t-60.5 -246t-170 -92t-171 92z" />
<glyph unicode="&#x967;" horiz-adv-x="372" d="M296 654v-654h-98v547l-155 -95v105l163 97h90z" />
<glyph unicode="&#x968;" horiz-adv-x="508" d="M463 85v-85h-420v81q126 92 212.5 190.5t86.5 179.5q0 57 -33 87.5t-91 30.5q-78 0 -157 -60v97q72 55 167.5 55t155.5 -51.5t60 -146.5q0 -177 -265 -378h284z" />
<glyph unicode="&#x969;" horiz-adv-x="492" d="M76 625q60 36 149 36t145 -49.5t56 -124.5q0 -54 -26.5 -94.5t-77.5 -61.5q57 -14 89 -53t32 -98q0 -81 -58.5 -133.5t-160.5 -52.5t-170 34v96q75 -40 162 -40q60 0 93 29t33 76q0 100 -147 100h-40v84h40q55 0 92 27.5t37 75.5t-30.5 72t-91.5 24t-126 -42v95z" />
<glyph unicode="&#x96a;" horiz-adv-x="573" d="M534 238v-85h-92v-153h-97v153h-296v85l235 417h158v-417h92zM345 238v359l-198 -359h198z" />
<glyph unicode="&#x96b;" horiz-adv-x="525" d="M190 570v-172q37 8 68 8q102 0 160 -53.5t58 -148t-64.5 -153t-173.5 -58.5t-176 34v95q64 -39 154 -39q158 0 158 128q0 51 -35.5 79.5t-103.5 28.5t-142 -35v371h339v-85h-242z" />
<glyph unicode="&#x96c;" horiz-adv-x="535" d="M358 581q-85 0 -136.5 -62t-66.5 -157q62 59 149 59t139 -57t52 -153.5t-58 -160t-155 -63.5q-116 0 -175 83t-59 222q0 165 83 272t222 107q50 0 95 -15v-95q-39 20 -90 20zM188.5 124q36.5 -48 91 -48t84.5 38t30 96t-30 91.5t-80 33.5q-81 0 -135 -60 q3 -103 39.5 -151z" />
<glyph unicode="&#x96d;" horiz-adv-x="497" d="M33 654h431v-85l-266 -569h-105l267 569h-327v85z" />
<glyph unicode="&#x96e;" horiz-adv-x="542" d="M494 173q0 -82 -64 -132t-161 -50t-159 48t-62 129q0 117 109 159q-99 42 -99 145q0 89 61.5 140t149.5 51t149 -49t61 -144.5t-97 -140.5q112 -37 112 -156zM352 549.5q-28 29.5 -82 29.5t-83 -30.5t-29 -77.5t31.5 -73t80.5 -26t79.5 27t30.5 74t-28 76.5zM178 103 q31 -28 91.5 -28t92.5 30t32 74t-31.5 73.5t-93.5 30.5q-61 -2 -91.5 -33.5t-30.5 -75t31 -71.5z" />
<glyph unicode="&#x96f;" horiz-adv-x="524" d="M193 83q91 0 136 50.5t55 153.5q-49 -55 -136.5 -55t-144.5 57.5t-57 151t55.5 157.5t152.5 64q113 0 173 -82.5t60 -213.5q0 -179 -72.5 -276.5t-214.5 -97.5q-63 0 -115 19v95q53 -23 108 -23zM268 316q71 0 120 60q-2 90 -34.5 143.5t-89.5 53.5t-87 -36t-30 -95 t32.5 -92.5t88.5 -33.5z" />
<glyph unicode="&#x970;" horiz-adv-x="454" d="M142 308q0 -35 25 -60t60 -25t59.5 25t24.5 59.5t-24.5 59.5t-59.5 25t-60 -24.5t-25 -59.5zM108 189q-49 49 -49 118.5t49 118.5t118.5 49t118.5 -49t49 -118.5t-49 -118.5t-118.5 -49t-118.5 49z" />
<glyph unicode="&#x97d;" horiz-adv-x="576" d="M267 696q89 0 142 -44.5t53 -124.5q0 -68 -58 -135q-25 -28 -50 -57q-59 -68 -59 -148v-187h-95v192q0 49 16.5 92t40 72.5t47.5 55.5q57 60 57 103.5t-26 68.5t-78 25q-76 0 -146 -48v96q26 16 71 27.5t85 11.5z" />
<glyph unicode="&#x1e80;" horiz-adv-x="947" d="M432 664h91l71 -240l91 -317q36 178 128 567h104l-165 -674h-123l-64 213l-87 301q-18 -74 -146 -514h-124l-177 674h107l63 -249l74 -316q42 155 157 555zM420 887l95 -162h-84l-120 162h109z" />
<glyph unicode="&#x1e81;" horiz-adv-x="796" d="M178 0l-159 507h104q99 -353 110 -412q14 68 115 412h95q97 -324 117 -413q12 59 118 413h99l-161 -507h-112q-90 317 -108 400q-13 -62 -107 -400h-111zM339 720l95 -162h-84l-120 162h109z" />
<glyph unicode="&#x1e82;" horiz-adv-x="947" d="M446 725l95 162h109l-120 -162h-84zM432 664h91l71 -240l91 -317q36 178 128 567h104l-165 -674h-123l-64 213l-87 301q-18 -74 -146 -514h-124l-177 674h107l63 -249l74 -316q42 155 157 555z" />
<glyph unicode="&#x1e83;" horiz-adv-x="796" d="M362 558l95 162h109l-120 -162h-84zM178 0l-159 507h104q99 -353 110 -412q14 68 115 412h95q97 -324 117 -413q12 59 118 413h99l-161 -507h-112q-90 317 -108 400q-13 -62 -107 -400h-111z" />
<glyph unicode="&#x1e84;" horiz-adv-x="947" d="M307 806q0 26 17 43t43.5 17t43.5 -17t17 -43t-17 -43t-43.5 -17t-43.5 17t-17 43zM528 806q0 26 17 43t43 17t43.5 -17t17.5 -43t-17.5 -43t-43.5 -17t-43 17t-17 43zM432 664h91l71 -240l91 -317q36 178 128 567h104l-165 -674h-123l-64 213l-87 301q-18 -74 -146 -514 h-124l-177 674h107l63 -249l74 -316q42 155 157 555z" />
<glyph unicode="&#x1e85;" horiz-adv-x="796" d="M225 639q0 26 17 43t43.5 17t43.5 -17.5t17 -42.5t-17 -42.5t-43.5 -17.5t-43.5 17t-17 43zM446 639q0 25 17 42.5t43 17.5t43.5 -17t17.5 -43t-17.5 -43t-43.5 -17t-43 17.5t-17 42.5zM178 0l-159 507h104q99 -353 110 -412q14 68 115 412h95q97 -324 117 -413 q12 59 118 413h99l-161 -507h-112q-90 317 -108 400q-13 -62 -107 -400h-111z" />
<glyph unicode="&#x1ef2;" horiz-adv-x="608" d="M354 0h-103v251l-228 423h118q143 -296 161 -339q9 30 116 240l49 99h118l-231 -423v-251zM355 725h-84l-120 162h109z" />
<glyph unicode="&#x1ef3;" horiz-adv-x="504" d="M85 -181q-27 0 -46 5v84q16 -4 34 -4q97 0 136 107l-202 496h109l63 -165l79 -214q13 42 129 379h104l-183 -493q-73 -195 -223 -195zM203 720l95 -162h-84l-120 162h109z" />
<glyph unicode="&#x200b;" horiz-adv-x="0" />
<glyph unicode="&#x200c;" horiz-adv-x="0" d="M24 -230h-47v1041h47v-1041z" />
<glyph unicode="&#x200d;" horiz-adv-x="0" d="M24 -230h-47v865l-69 -73l-33 33l93 93l-95 95l33 33l95 -95l96 95l32 -32l-96 -96l96 -95l-33 -33l-72 75v-865z" />
<glyph unicode="&#x2013;" horiz-adv-x="544" d="M53 231v78h438v-78h-438z" />
<glyph unicode="&#x2014;" horiz-adv-x="826" d="M53 233v78h720v-78h-720z" />
<glyph unicode="&#x2018;" horiz-adv-x="205" d="M221 695l-89 -235h-116l124 235h81z" />
<glyph unicode="&#x2019;" horiz-adv-x="206" d="M17 460l88 235h117l-125 -235h-80z" />
<glyph unicode="&#x201a;" horiz-adv-x="206" d="M-1 -124l89 234h116l-124 -234h-81z" />
<glyph unicode="&#x201c;" horiz-adv-x="361" d="M377 695l-87 -235h-110l118 235h79zM221 695l-90 -235h-115l127 235h78z" />
<glyph unicode="&#x201d;" horiz-adv-x="361" d="M17 460l86 235h110l-118 -235h-78zM172 460l90 235h115l-126 -235h-79z" />
<glyph unicode="&#x201e;" horiz-adv-x="361" d="M1 -124l87 234h109l-117 -234h-79zM157 -124l90 234h115l-127 -234h-78z" />
<glyph unicode="&#x2020;" horiz-adv-x="534" d="M495 509v-83h-186v-426h-89v426h-182v83h182v165h89v-165h186z" />
<glyph unicode="&#x2021;" horiz-adv-x="547" d="M502 426h-187v-170h187v-84h-187v-172h-89v172h-181v84h181v170h-181v83h181v165h89v-165h187v-83z" />
<glyph unicode="&#x2022;" horiz-adv-x="442" d="M88 356q0 57 37.5 95t94 38t95 -38.5t38.5 -94.5t-38 -94.5t-94.5 -38.5t-94.5 38t-38 95z" />
<glyph unicode="&#x2026;" horiz-adv-x="783" d="M605 60q0 28 19.5 47.5t48 19.5t48 -19.5t19.5 -47.5t-19.5 -48t-48 -20t-48 20t-19.5 48zM324 60q0 28 19.5 47.5t48 19.5t48 -19.5t19.5 -47.5t-19.5 -48t-47.5 -20t-48 20t-20 48zM43 60q0 28 19.5 47.5t48 19.5t48 -19.5t19.5 -47.5t-19.5 -48t-48 -20t-48 20 t-19.5 48z" />
<glyph unicode="&#x2030;" horiz-adv-x="1270" d="M985 160q0 -35 24.5 -60t59.5 -25t60 25t25 60t-25 60t-60 25t-59.5 -25t-24.5 -60zM951 41.5q-49 48.5 -49 118t49 119t118 49.5t118.5 -49.5t49.5 -118.5t-49.5 -118t-118.5 -49t-118 48.5zM581 160q0 -35 25 -60t60 -25t60 25t25 60t-25 60t-60 25t-60 -25t-25 -60z M128 520q0 -35 25 -60t60 -25t59.5 25t24.5 59.5t-24.5 59.5t-59.5 25t-60 -24.5t-25 -59.5zM94 401q-49 49 -49 118.5t49 118.5t118.5 49t118.5 -49t49 -118.5t-49 -118.5t-118.5 -49t-118.5 49zM547 41.5q-49 48.5 -49 118t49 119t118.5 49.5t118.5 -49.5t49 -119 t-49 -118t-118.5 -48.5t-118.5 48.5zM209 -1l364 678h93l-365 -678h-92z" />
<glyph unicode="&#x2039;" horiz-adv-x="320" d="M285 415l-146 -162l146 -162h-106l-151 162l151 162h106z" />
<glyph unicode="&#x203a;" horiz-adv-x="318" d="M141 415l151 -162l-151 -162h-106l146 162l-146 162h106z" />
<glyph unicode="&#x2044;" horiz-adv-x="298" d="M186 399l-67 -86h-13l67 86h13z" />
<glyph unicode="&#x2074;" horiz-adv-x="390" d="M358 551v-63h-60v-96h-70v96h-193v63l154 272h109v-272h60zM228 551v219l-123 -219h123z" />
<glyph unicode="&#x20ac;" horiz-adv-x="600" d="M560 536q-48 31 -116 31t-116 -33t-71 -95h194v-67h-210q-3 -24 -3 -44t2 -46h211v-67h-196q23 -63 71 -97t116 -34t118 33v-98q-52 -27 -144.5 -27t-167 60t-101.5 163h-99v67h88q-2 26 -2 42t2 48h-88v67h100q29 105 104 163.5t165.5 58.5t142.5 -28v-97z" />
<glyph unicode="&#x20b9;" horiz-adv-x="546" d="M500 674v-80h-159q41 -35 55 -91h104v-80h-99q-9 -81 -66.5 -128.5t-154.5 -50.5l199 -244h-124l-192 244v82h95q127 0 143 97h-238v80h233q-27 91 -140 91h-93v80h437z" />
<glyph unicode="&#x2122;" horiz-adv-x="711" d="M4 612v62h241v-62h-84v-282h-70v282h-87zM277 331l28 343h84q79 -219 88 -258q11 36 94 258h85l29 -343h-69l-11 143l-3 119q-9 -39 -39 -120l-52 -136h-66l-48 136l-38 120q2 -41 -12 -262h-70z" />
<glyph unicode="&#x2126;" horiz-adv-x="783" d="M733 86v-86h-296v86q75 15 112.5 85t37.5 179t-51 175t-145 66t-146 -66t-52 -173.5t40 -178.5t114 -87v-86h-296v86h149q-115 84 -115 259q0 154 82 248t224 94t223 -93.5t81 -248.5q0 -176 -112 -259h150z" />
<glyph unicode="&#x2202;" horiz-adv-x="526" d="M480 285q0 -135 -60.5 -214.5t-165.5 -79.5t-160.5 63.5t-55.5 158.5t61.5 153.5t141.5 58.5t132 -49q-26 90 -94.5 169.5t-148.5 128.5h137q86 -59 149.5 -170.5t63.5 -218.5zM169.5 117q30.5 -36 87.5 -36t92 52.5t37 145.5q-50 60 -130 60q-51 0 -84 -35.5t-33 -93 t30.5 -93.5z" />
<glyph unicode="&#x2206;" horiz-adv-x="636" d="M604 0h-572v76l220 598h136l216 -598v-76zM142 85h352l-60 179l-115 333q-78 -222 -177 -512z" />
<glyph unicode="&#x220f;" horiz-adv-x="609" d="M538 674v-854h-103v764h-239v-575q0 -97 -42 -145.5t-120 -48.5q-34 0 -66 12v92q26 -12 52 -12q74 0 74 96v671h444z" />
<glyph unicode="&#x2211;" horiz-adv-x="454" d="M483 674v-86h-341l167 -344l-168 -358h342v-86h-453v86l170 358l-170 344v86h453z" />
<glyph unicode="&#x2212;" horiz-adv-x="564" d="M53 296v88h457v-88h-457z" />
<glyph unicode="&#x2215;" horiz-adv-x="548" d="M318 399l-67 -86h-13l67 86h13z" />
<glyph unicode="&#x2219;" horiz-adv-x="263" d="M64 337q0 29 20 48.5t48 19.5t47.5 -20t19.5 -48t-19.5 -48t-47.5 -20t-48 19.5t-20 48.5z" />
<glyph unicode="&#x221a;" horiz-adv-x="775" d="M238 433l100 -283q66 -190 83 -258q0 11 24 103t44 159l229 746h103l-337 -1096h-128l-200 548h-125l19 81h188z" />
<glyph unicode="&#x221e;" horiz-adv-x="833" d="M671 281q24 24 24 63.5t-24.5 65t-67.5 25.5q-66 0 -130 -92q23 -28 38.5 -43.5t40.5 -29t60 -13.5t59 24zM223 176q-84 0 -129.5 44.5t-45.5 121t49 123.5t131 47q59 0 102.5 -28.5t86.5 -80.5q87 111 193 111q83 0 129.5 -45t46.5 -120t-49.5 -123t-130.5 -48 q-60 0 -103.5 28t-86.5 80q-42 -51 -87 -80.5t-106 -29.5zM137 346q0 -39 25 -65t68 -26q66 0 130 91q-70 87 -130 87q-44 0 -68.5 -24t-24.5 -63z" />
<glyph unicode="&#x2248;" horiz-adv-x="609" d="M420 366q-48 0 -113.5 32.5t-93.5 32.5q-61 0 -108 -64l-63 53q68 94 154 94q54 0 119 -32t93 -32q52 0 91 57l67 -50q-59 -91 -146 -91zM420 164q-48 0 -113.5 33t-93.5 33q-61 0 -108 -64l-63 53q68 94 154 94q54 0 119 -32t93 -32q52 0 91 57l67 -50q-60 -92 -146 -92 z" />
<glyph unicode="&#x2260;" horiz-adv-x="564" d="M510 405h-168l-59 -129h227v-83h-264l-39 -85h-61l38 85h-131v83h169l58 129h-227v82h265l38 85h62l-39 -85h131v-82z" />
<glyph unicode="&#x2264;" horiz-adv-x="559" d="M505 569v-89l-411 -72l411 -72v-89l-457 94v134zM48 109v82h457v-82h-457z" />
<glyph unicode="&#x2265;" horiz-adv-x="559" d="M53 569l457 -94v-134l-457 -94v89l411 72l-411 72v89zM53 109v82h457v-82h-457z" />
<glyph unicode="&#x25ca;" horiz-adv-x="575" d="M342 674l188 -337l-188 -337h-112l-185 337l185 337h112zM387 265l39 72q-117 214 -139 257q-30 -62 -98 -185l-38 -72l136 -257q30 62 100 185z" />
<glyph unicode="&#x25cc;" horiz-adv-x="701" d="M285 571q0 19 12.5 31.5t31.5 12.5t31.5 -12.5t12.5 -31.5t-12.5 -31.5t-31.5 -12.5t-31.5 12.5t-12.5 31.5zM424 525q-13 13 -13 32t12.5 31.5t32 12.5t31.5 -12.5t12 -31.5t-12.5 -32t-31 -13t-31.5 13zM506 488q0 19 12.5 32t31.5 13t31.5 -12.5t12.5 -32t-12.5 -32 t-31.5 -12.5t-31.5 12.5t-12.5 31.5zM556 370q0 20 12 32t31.5 12t32 -12.5t12.5 -31.5t-12.5 -31.5t-32 -12.5t-31.5 12t-12 32zM559 204.5q-13 12.5 -13 32t13 32t31.5 12.5t31 -13t12.5 -32t-12.5 -31.5t-31 -12.5t-31.5 12.5zM473 138q0 19 12.5 31.5t31.5 12.5 t32 -12.5t13 -31.5t-13 -31.5t-32 -12.5t-31.5 12.5t-12.5 31.5zM352 85q0 19 12 31.5t32 12.5t32.5 -12.5t12.5 -31.5t-12.5 -31.5t-32.5 -12.5t-32 12.5t-12 31.5zM238 68q-13 13 -13 32t13 32t32 13t31.5 -13t12.5 -32t-12.5 -32t-31.5 -13t-32 13zM136 144 q-12 12 -12 31.5t12.5 32t31.5 12.5t31.5 -12.5t12.5 -31.5t-12.5 -31.5t-32 -12.5t-31.5 12zM72 292q0 19 12.5 32t31.5 13t31.5 -12.5t12.5 -32t-12.5 -31.5t-31.5 -12t-31.5 12t-12.5 31zM85 418q0 19 13 31.5t32 12.5t32 -12.5t13 -31.5t-13 -31.5t-32 -12.5t-32 12.5 t-13 31.5zM179.5 495.5q-12.5 12.5 -12.5 32t12.5 32t31.5 12.5t31.5 -12.5t12.5 -32t-12.5 -32t-31.5 -12.5t-31.5 12.5z" />
<glyph unicode="&#x25fc;" horiz-adv-x="510" d="M0 510h510v-510h-510v510z" />
<glyph unicode="&#xf6c3;" horiz-adv-x="437" d="M122 -249l81 198h109l-113 -198h-77z" />
<glyph unicode="&#xfb00;" horiz-adv-x="595" d="M543 632q-73 0 -73 -87v-38h107v-76h-107v-431h-98v431h-163v-431h-98v431h-81v76h81v39q0 80 43.5 125t122 45t148.5 -35q41 35 109 35q29 0 56 -8v-86q-23 10 -47 10zM372 507v39q0 36 9 66q-51 20 -93 20q-79 0 -79 -87v-38h163z" />
<glyph unicode="&#xfb01;" horiz-adv-x="532" d="M470 507v-507h-98v431h-163v-431h-98v431h-81v76h81v39q0 80 43 125t123 45t152 -37v-85q-81 38 -144 38q-76 0 -76 -87v-38h261z" />
<glyph unicode="&#xfb02;" horiz-adv-x="534" d="M111 507v39q0 80 43 125t127.5 45t183.5 -53v-663h-98v618q-40 14 -77 14q-81 0 -81 -87v-38h107v-76h-107v-431h-98v431h-81v76h81z" />
<glyph unicode="&#xfb03;" horiz-adv-x="839" d="M731 507v-507h-98v431h-163v-431h-98v431h-163v-431h-98v431h-81v76h81v39q0 80 43.5 125t121.5 45t150 -35q43 35 116.5 35t147.5 -37v-85q-81 38 -144 38q-76 0 -76 -87v-38h261zM372 507v39q0 36 9 66q-51 20 -93 20q-79 0 -79 -87v-38h163z" />
<glyph unicode="&#xfb04;" horiz-adv-x="796" d="M111 507v39q0 80 43.5 125t122.5 45t149 -36q40 36 120 36t181 -53v-663h-99v618q-40 14 -77.5 14t-58.5 -19.5t-21 -67.5v-38h106v-76h-106v-431h-98v431h-164v-431h-98v431h-81v76h81zM373 507v39q0 36 9 66q-51 20 -94 20q-79 0 -79 -87v-38h164z" />
<glyph horiz-adv-x="1686" d="M1357 230v190h201v-190h-201zM1357 460v190h201v-190h-201zM1115 0v650h201v-650h-201zM873 460v190h201v-190h-201zM631 0v650h201v-650h-201zM389 460v190h201v-190h-201zM147 0v650h201v-650h-201z" />
<glyph horiz-adv-x="527" d="M440 570v-133q45 45 121.5 45t128.5 -52l-68 -69q-26 43 -83 43q-41 0 -70 -29.5t-29 -73.5v-301h-97v137q-47 -45 -122.5 -45t-127.5 51.5t-52 137t58.5 138.5t146.5 53q16 0 23 -2v-80q-10 2 -19 2q-49 0 -80.5 -31t-31.5 -80.5t29 -80t73 -30.5t73.5 29.5t29.5 73.5 v297h-367v80h575v-80h-111z" />
<glyph horiz-adv-x="596" d="M485 210q-58 0 -98 37t-40 99t47 105.5t126.5 43.5t133.5 -52t54 -143q0 -112 -84.5 -188.5t-214.5 -76.5t-220 74t-130 193v78h67q45 0 58.5 19t13.5 70v101h-222v80h644v-80h-326v-118q0 -67 -23.5 -103.5t-80.5 -42.5q-12 -3 -19 -3q22 -79 88 -130.5t157 -51.5 t147.5 48.5t56.5 130.5q0 54 -26.5 87t-70 33t-64.5 -21.5t-21 -51.5t17.5 -47t41.5 -17t40 8v-71q-27 -10 -52 -10z" />
<glyph horiz-adv-x="310" d="M334 650v-80h-95v-228q0 -66 -35 -100.5t-86.5 -34.5t-87.5 13v82q28 -14 57 -14q56 0 56 61v221h-167v80h358z" />
<glyph horiz-adv-x="359" d="M260 86q-89 0 -144.5 42.5t-55.5 114.5q0 54 34.5 88t93.5 43q-51 3 -85.5 31.5t-34.5 79t38 85.5h-130v80h407v-80h-170q-48 -29 -48 -80q0 -74 115 -74h46v-83h-56q-52 0 -82.5 -22.5t-30.5 -62.5t32.5 -60.5t79.5 -20.5q105 0 159 74l33 -69q-73 -86 -201 -86z" />
<glyph horiz-adv-x="598" d="M-24 650h646v-80h-213v-152h-184q-75 0 -75 -56q0 -31 29.5 -44t100.5 -15q185 -5 185 -143q0 -71 -57.5 -116t-161 -45t-191.5 46v93q92 -58 198 -58q54 0 84.5 20.5t30.5 56t-28 49.5t-95 16q-191 7 -191 138q0 68 48 103t121 35h90v72h-337v80zM520 410 q25 0 42.5 -17.5t17.5 -42.5t-17 -42t-43 -17t-42.5 16.5t-16.5 42t17 43t42 17.5zM220 -67h99l141 -168h-117z" />
<glyph horiz-adv-x="399" d="M440.5 141.5q-65.5 -44.5 -154 -44.5t-143 42.5t-54.5 122t71 117.5h-134v81h346v-81q-100 0 -144.5 -31t-44.5 -76.5t31.5 -71t88.5 -25.5t108 37t74 90l45 -55q-24 -61 -89.5 -105.5zM423 650v-80h-447v80h447z" />
<glyph horiz-adv-x="633" d="M657 570h-430q-56 -36 -56 -96q0 -38 26.5 -61.5t66.5 -23.5h31v-82h-37q-50 0 -76 -21t-26 -61t40 -65t101 -25q87 0 141 46t54 127q0 48 -26.5 75.5t-75.5 27.5q-25 0 -45 -6v78q20 7 60 7q87 0 136 -48t49 -129q0 -114 -83 -186t-210 -72q-103 0 -170.5 45t-67.5 124 q0 54 33 88t89 39q-44 5 -75 38.5t-31 88.5t41 92h-140v80h681v-80z" />
<glyph horiz-adv-x="421" d="M554 455v-81h-270q69 -41 69 -128t-55 -136t-145 -49q-68 0 -123 22v86q50 -26 107 -26t89.5 28t32.5 83.5t-43.5 87.5t-121.5 32v81h460zM446 650v-80h-470v80h470z" />
<glyph horiz-adv-x="535" d="M660 322v-77h-216q20 -32 20 -77q0 -69 -48 -112.5t-126.5 -43.5t-135.5 43v-104h-95v229h88q17 -40 54.5 -66t78.5 -26t64.5 20.5t23.5 56.5q0 70 -110 76q-88 3 -138 31t-50 95.5t48.5 102t127.5 34.5h78v66h-348v80h584v-80h-140v-146h-169q-84 0 -84 -52 q0 -26 23 -36q21 -10 94 -14h376z" />
<glyph horiz-adv-x="462" d="M578 331v-80h-183q-9 -79 -67 -128t-150 -52q-82 0 -154 36v89q71 -42 139.5 -42t101.5 34t33 86.5t-30.5 84t-79.5 31.5t-85 -16v82q36 15 86 15q82 0 134 -37t67 -103h188zM486 650v-80h-510v80h510z" />
<glyph horiz-adv-x="502" d="M508 -217h-117l-123 168h99zM420 570v-191q-28 6 -78 6q-87 0 -138.5 -38t-51.5 -106.5t47 -104.5t124 -36q38 0 78.5 12t64.5 27v-88q-64 -33 -148 -33q-121 0 -193 59.5t-72 160t69 162.5t182 63h20v107h-348v80h550v-80h-106z" />
<glyph horiz-adv-x="567" d="M592 570h-239v-117q75 -17 120.5 -66t45.5 -131.5t-64.5 -138.5t-170 -56.5t-170.5 55t-65 145.5t60.5 140.5t147.5 57.5v111h-281v80h616v-80zM383 173q37 34 37 90.5t-36.5 87t-96.5 31t-100 -29.5t-40 -87.5t38 -91.5t99.5 -34t98.5 34zM238 -7h99l141 -168h-117z" />
<glyph horiz-adv-x="524" d="M409 570v-152h-184q-75 0 -75 -56q0 -31 29.5 -44t100.5 -15q185 -5 185 -143q0 -71 -57.5 -116t-161 -45t-191.5 46v93q92 -58 198 -58q54 0 84.5 20.5t30.5 56t-28 49.5t-95 16q-191 7 -191 138q0 68 48 103t121 35h90v72h-337v80h573v-80h-140zM214 -67h99l141 -168 h-117z" />
<glyph horiz-adv-x="558" d="M266 283q41 22 103 22t101 -35t39 -99t-56.5 -109t-159.5 -45t-174.5 64t-71.5 165.5t72.5 163.5t190.5 64q11 0 35 -2v98h-369v80h607v-80h-142v-185q-57 10 -102 10q-87 0 -140 -40t-53 -107.5t43.5 -109.5t113.5 -42q49 0 81 21t32 59q0 24 -18.5 40t-58.5 16t-73 -24 v75zM494 -218h-117l-123 168h99z" />
<glyph horiz-adv-x="491" d="M515 650v-80h-101v-219q0 -89 -47 -136t-134 -47q-175 0 -175 182v220h-82v80h539zM318 346v224h-164v-224q0 -96 81 -96q83 0 83 96z" />
<glyph horiz-adv-x="385" d="M-24 570v80h434v-80h-434zM538 377h-215q-166 0 -166 -146q0 -69 33 -108.5t99 -39.5q16 0 21 1v-82q-18 -2 -33 -2q-101 0 -159.5 65t-58.5 167.5t65 164t191 61.5h223v-81z" />
<glyph horiz-adv-x="442" d="M375 507q0 -152 -237 -213q14 -53 59.5 -80.5t107 -27.5t119 30.5t95.5 81.5l48 -68q-112 -127 -264 -127q-111 0 -187.5 61t-89.5 185q134 31 195 66.5t61 92.5q0 30 -15 49.5t-44.5 19.5t-45 -18t-15.5 -43t13 -59h-94q-12 32 -12 65q0 57 41.5 96t112 39t111.5 -42 t41 -108z" />
<glyph horiz-adv-x="558" d="M-24 650h607v-80h-118v-169h-185q-63 0 -100.5 -33.5t-37.5 -92t33 -92.5t87.5 -34t88 30.5t37.5 81.5h93v-271h-95v131q-19 -25 -56.5 -39t-78.5 -14q-95 0 -152.5 59t-57.5 148.5t61 147t171 57.5h95v90h-392v80zM628 -245h-117l-123 168h99z" />
<glyph horiz-adv-x="425" d="M438 105.5q-73 -39.5 -168.5 -39.5t-154.5 44.5t-59 116.5q0 57 37 91t99 40q-60 5 -94 34t-34 82q0 67 57 96h-145v80h314v-80h-1q-61 0 -94.5 -25t-33.5 -66t33.5 -61t88.5 -20h48v-81h-56q-57 0 -89 -22.5t-32 -62t33.5 -62.5t91.5 -23q136 0 233 131l45 -72 q-46 -61 -119 -100.5z" />
<glyph horiz-adv-x="280" d="M119 404h275v-79h-238q-18 0 -25.5 -9.5t-7.5 -36t12 -67.5h-79q-30 51 -30 112q0 37 23 58.5t70 21.5zM-24 570v80h329v-80h-329z" />
<glyph horiz-adv-x="342" d="M249 174q-183 0 -183 201v195h-90v80h390v-80h-203v-198q0 -63 24 -91t73 -28t89 29t60 76l53 -51q-29 -57 -84.5 -95t-128.5 -38z" />
<glyph horiz-adv-x="625" d="M473 570v-127q46 46 121 46q119 0 173 -105l-74 -54q-33 80 -111 80q-47 0 -78 -29t-31 -75v-306h-97v229q-47 -52 -132.5 -52t-131.5 46t-46 149v198h-90v80h674v-80h-177zM163 570v-198q0 -63 24 -90t73 -27t82.5 33t33.5 92v190h-213z" />
<glyph horiz-adv-x="384" d="M274 79q-94 0 -159.5 58.5t-65.5 151t62.5 152t160.5 59.5q40 0 82 -10v-84q-39 12 -76 12t-67 -14l205 -190q19 18 47 58l54 -50q-87 -143 -243 -143zM169 369q-24 -34 -24 -87t38 -89t92 -36t97 23zM408 650v-80h-432v80h432z" />
<glyph horiz-adv-x="335" d="M431 356v-79h-232v-134h-84l-28 62q-27 57 -27 84t12 43t31 20v162q0 60 -46 60q-31 0 -55 -14v78q31 17 74 17q123 0 123 -127v-172h232z" />
<glyph horiz-adv-x="352" d="M466 356v-85h-267v-130h-83l-28 63q-28 63 -28 87.5t12 40t32 20.5v218h-128v80h401v-80h-178v-214h267z" />
<glyph horiz-adv-x="384" d="M409 570h-134q23 -37 23 -90q0 -118 -143 -166q14 -51 53 -81t93.5 -30t97 28t62.5 75l56 -54q-24 -54 -82 -93.5t-149.5 -39.5t-159 64.5t-84.5 185.5q79 12 119.5 43t40.5 77.5t-30 80.5h-196v80h433v-80z" />
<glyph horiz-adv-x="388" d="M32 350h70q113 0 113 91v129h-239v80h436v-80h-101v-137q0 -70 -41 -111.5t-112 -46.5q-2 -1 -12 -1l211 -274h-117l-208 272v78zM356 -235h-117l-123 168h99z" />
<glyph horiz-adv-x="489" d="M-24 570v80h537v-80h-537zM301 0q-115 0 -183.5 74t-68.5 190q0 93 48 150.5t129 57.5q56 0 92 -25t45 -67q25 97 143 97q84 0 135 -61l-51 -58q-27 41 -79 41q-100 0 -100 -119v-70h-97v72q0 110 -78 110q-40 0 -65.5 -33t-25.5 -105.5t42 -122.5t126 -50q20 0 31 2v-79 q-17 -4 -43 -4z" />
<glyph horiz-adv-x="799" d="M-24 570v80h848v-80h-848zM243 169q48 0 73 41q19 32 31 74t16 54q-54 58 -120 58q-48 0 -76 -32.5t-28 -83t28 -81t76 -30.5zM494 374q-12 -12 -19.5 -20t-15 -29t-10.5 -29q-13 -34 -19 -65q53 -62 123 -62q49 0 78 31.5t29 82.5t-29 81.5t-73 30.5t-64 -21zM700 143.5 q-58 -53.5 -152 -53.5t-161 69q-50 -69 -142 -69t-148 52t-56 138.5t56 140t148 53.5t159 -65q52 64 146 64t151 -52.5t57 -138t-58 -139z" />
<glyph horiz-adv-x="346" d="M370 570h-394v80h394v-80zM314 390q-23 9 -65.5 9t-75 -32t-32.5 -83.5t36 -83.5t92 -32q95 0 162 99l47 -59q-33 -52 -88.5 -85.5t-138.5 -33.5t-145.5 52t-62.5 140.5t57 144.5t148 56q36 0 66 -7v-85z" />
<glyph horiz-adv-x="448" d="M163 251h-17l231 -251h-126l-221 247v84h102q82 0 127 37t45 104q0 99 -79 99q-32 0 -48 -20.5t-16 -50t15 -59.5h-93q-15 33 -15 67q0 60 42.5 102.5t118 42.5t123.5 -52t48 -129q0 -105 -71 -163t-166 -58z" />
<glyph horiz-adv-x="358" d="M272 169q-93 0 -147 50.5t-54 152.5v198h-95v80h407v-80h-202l243 -242l12 18l44 -55q-77 -122 -208 -122zM165 372q0 -63 31.5 -94t87 -31t102.5 40l-221 217v-132z" />
<glyph horiz-adv-x="403" d="M511 259h-208q-96 0 -157 9l185 -268h-117l-188 278v73h67q54 0 75 22t21 67v130h-213v80h451v-80h-142v-134q0 -60 -24 -97h250v-80z" />
<glyph horiz-adv-x="476" d="M561 239h-271q-63 0 -96.5 -25.5t-33.5 -69t40 -71.5t110.5 -28t141.5 18v-81q-73 -16 -135 -16q-121 0 -187.5 54t-66.5 128.5t64 123.5q-68 42 -68 113q0 51 36.5 78.5t95.5 27.5h166v79h-381v80h525v-80h-48v-157h-245q-51 0 -51 -40q0 -44 42 -68q41 12 93 12h269 v-78z" />
<glyph horiz-adv-x="544" d="M440 570v-133q45 45 121.5 45t128.5 -52l-68 -69q-26 43 -83 43q-41 0 -70 -29.5t-29 -73.5v-301h-97v137q-47 -45 -122.5 -45t-127.5 51.5t-52 137t58.5 138.5t146.5 53q16 0 23 -2v-80q-10 2 -19 2q-49 0 -80.5 -31t-31.5 -80.5t29 -80t73 -30.5t73.5 29.5t29.5 73.5 v297h-367v80h575v-80h-111zM161 17q25 0 42.5 -17.5t17.5 -42.5t-17.5 -42t-42.5 -17t-42 17t-17 42t17 42.5t42 17.5z" />
<glyph horiz-adv-x="595" d="M485 210q-58 0 -98 37t-40 99t47 105.5t126.5 43.5t133.5 -52t54 -143q0 -112 -84.5 -188.5t-214.5 -76.5t-220 74t-130 193v78h67q45 0 58.5 19t13.5 70v101h-222v80h644v-80h-326v-118q0 -67 -23.5 -103.5t-80.5 -42.5q-12 -3 -19 -3q22 -79 88 -130.5t157 -51.5 t147.5 48.5t56.5 130.5q0 54 -26.5 87t-70 33t-64.5 -21.5t-21 -51.5t17.5 -47t41.5 -17t40 8v-71q-27 -10 -52 -10zM91 43q25 0 42.5 -17.5t17.5 -42.5t-17.5 -42t-42.5 -17t-42 17t-17 42t17 42.5t42 17.5z" />
<glyph horiz-adv-x="320" d="M345 650v-80h-106v-228q0 -66 -35 -100.5t-86.5 -34.5t-87.5 13v82q28 -14 57 -14q56 0 56 61v221h-167v80h369zM139 87q25 0 42.5 -17.5t17.5 -42.5t-17.5 -42t-42.5 -17t-42 17t-17 42t17 42.5t42 17.5z" />
<glyph horiz-adv-x="429" d="M554 455v-81h-270q69 -41 69 -128t-55 -136t-145 -49q-68 0 -123 22v86q50 -26 107 -26t89.5 28t32.5 83.5t-43.5 87.5t-121.5 32v81h460zM160 -25q25 0 42.5 -17.5t17.5 -42.5t-17.5 -42t-43 -17t-42 17t-16.5 42t17 42.5t42 17.5zM446 650v-80h-470v80h470z" />
<glyph horiz-adv-x="280" d="M75 49q0 25 17 42.5t42 17.5t42.5 -17.5t17.5 -42.5t-17.5 -42t-43 -17t-42 17t-16.5 42zM119 404h275v-79h-238q-18 0 -25.5 -9.5t-7.5 -36t12 -67.5h-79q-30 51 -30 112q0 37 23 58.5t70 21.5zM-24 570v80h329v-80h-329z" />
<glyph horiz-adv-x="613" d="M473 570v-127q46 46 121 46q119 0 173 -105l-74 -54q-33 80 -111 80q-47 0 -78 -29t-31 -75v-306h-97v229q-47 -52 -132.5 -52t-131.5 46t-46 149v198h-90v80h674v-80h-177zM163 570v-198q0 -63 24 -90t73 -27t82.5 33t33.5 92v190h-213zM142 78q25 0 42.5 -17.5 t17.5 -42.5t-17.5 -42t-43 -17t-42 16.5t-16.5 42t17 43t42 17.5z" />
<glyph horiz-adv-x="380" d="M97.5 -54.5q-16.5 16.5 -16.5 42t17 43t42 17.5t42.5 -17.5t17.5 -42.5t-17.5 -42t-43 -17t-42 16.5zM409 570h-134q23 -37 23 -90q0 -118 -143 -166q14 -51 53 -81t93.5 -30t97 28t62.5 75l56 -54q-24 -54 -82 -93.5t-149.5 -39.5t-159 64.5t-84.5 185.5q79 12 119.5 43 t40.5 77.5t-30 80.5h-196v80h433v-80z" />
<glyph horiz-adv-x="657" d="M674 461l-225 -145q13 -32 97 -254l-211 173q-17 -13 -113 -92t-98 -81l99 254q-171 110 -228 145l269 -9q33 121 71 254l69 -254q24 2 134 5.5t136 3.5z" />
<glyph horiz-adv-x="517" d="M405 756q0 22 14.5 37t36.5 15t37 -15t15 -37t-15 -36.5t-37 -14.5t-36.5 14.5t-14.5 36.5zM422 570v-150h-181q-30 0 -52 -14.5t-22 -41.5t18 -43t48 -17l86 5q74 -3 112.5 -42.5t38.5 -106.5t-49.5 -111.5t-126.5 -44.5t-132 41v-108h-95v235h88q15 -40 51 -66 t77.5 -26t66.5 23t25 56t-18 51.5t-50 19.5l-86 -7q-65 3 -108.5 41t-43.5 101t48.5 99t120.5 36h88v70h-350v80h328q-51 59 -51 133t49 122t125 48q48 0 85 -17v-89q-31 18 -69 18t-65 -28.5t-27 -70.5q0 -66 52 -116h139v-80h-120z" />
<glyph horiz-adv-x="644" d="M668 570h-340v-131q49 34 105 34q80 0 125 -48t45 -126t-50 -126.5t-126 -48.5q-43 0 -64 10v78q18 -8 55.5 -8t63 25t25.5 69t-23 70t-55 26t-55 -9t-34 -17.5t-35 -31t-31 -28.5v1q-43 -34 -103 -35h-8l210 -274h-116l-208 272v78h70q113 0 113 91v129h-256v80h692v-80 z" />
<glyph horiz-adv-x="658" d="M328 570v-144q47 55 129.5 55t130.5 -52.5t48 -134.5t-50.5 -135.5t-128.5 -53.5q-46 0 -69 9v83q30 -8 54 -8q45 0 71 28.5t26 75.5t-22.5 75t-61 28t-60.5 -23t-22 -63v-53h-84v67q-44 -49 -117 -50h-9l210 -274h-116l-208 272v78h70q113 0 113 91v129h-256v80h707v-80 h-355z" />
<glyph horiz-adv-x="535" d="M453 413h-245q-51 0 -51 -40.5t40 -63.5q44 13 95 13q87 0 133 -40.5t46 -98.5q0 -27 -9 -50h-95q12 17 12 45t-22.5 46t-75.5 18t-87 -27.5t-34 -69t26.5 -68t78.5 -28.5q32 19 74 19q70 0 111 -36.5t41 -99.5t-49 -106t-136 -43q-115 0 -201 56v95q42 -30 98 -51 t101 -21t69 19.5t24 49t-19 44t-49 14.5t-55 -18h-18q-85 5 -139 52t-54 124.5t64 126.5q-68 42 -68 111q0 51 36.5 78.5t95.5 27.5h166v79h-381v80h585v-80h-108v-157z" />
<glyph horiz-adv-x="536" d="M453 413h-245q-51 0 -51 -40q0 -43 40 -66q39 11 87 11q89 0 138.5 -39.5t49.5 -98.5q0 -34 -10 -57h-95q13 21 13 50.5t-25 47.5t-78.5 18t-85 -25.5t-31.5 -65.5t34.5 -67t98 -27.5t113.5 -29.5t75 -76q47 -87 47 -184h-89q-1 90 -39.5 150.5t-112.5 60.5 q-31 0 -50 -16.5t-19 -44.5t21.5 -44.5t48 -16.5t43.5 7v-76q-19 -7 -48 -7q-68 0 -113 36t-45 97t41 99q-48 18 -75.5 56.5t-27.5 86.5q0 73 63 121q-67 42 -67 112q0 51 36.5 78.5t95.5 27.5h166v79h-381v80h585v-80h-108v-157z" />
<glyph horiz-adv-x="484" d="M389 570v-159q-47 18 -121 18q-102 -2 -102 -61q0 -61 108 -61h63v-82h-67q-54 0 -83.5 -19.5t-29.5 -53.5q0 -67 118 -67q90 0 162 51v-89q-65 -40 -160 -40t-156 36.5t-61 103.5q0 51 32 82.5t89 36.5q-53 5 -83.5 33t-30.5 79t46.5 85t126.5 34q28 0 54 -3v76h-318v80 h532v-80h-119z" />
<glyph horiz-adv-x="527" d="M418 413h-213q-50 0 -50 -40t35 -64q47 18 107.5 18t91 -21.5t30.5 -53.5t-33 -70.5t-33 -49.5q0 -20 37 -20q54 0 100 30v-76q-50 -26 -107 -26t-89.5 20t-32.5 58q0 24 32 60.5t32 47.5q0 23 -33 23q-64 0 -104 -37.5t-40 -95.5t53 -100.5t154 -42.5q46 0 79 9v-75 q-41 -10 -86 -10q-127 0 -212 60t-85 166q0 91 72 150q-67 41 -67 112q0 51 37 78.5t95 27.5h134v79h-346v80h575v-80h-133v-157z" />
<glyph d="M-24 650h319v-80h-111v-570h-97v170l-133 -97q-21 -14 -21 -40.5t40 -66.5l-58 -36q-36 20 -61 50t-25 63q0 44 56 83l202 142v302h-111v80z" />
<glyph horiz-adv-x="621" d="M644 650v-80h-120v-570h-96v122q-45 -68 -142 -68t-158.5 56.5t-75.5 168.5q146 28 146 95q0 23 -23.5 35.5t-64.5 12.5t-101.5 -14.5t-103.5 -36.5v85q42 19 102.5 30.5t104.5 11.5q95 0 138.5 -34t43.5 -87t-36.5 -91t-92.5 -56q11 -43 44 -67t89.5 -24t93 39.5 t36.5 103.5v288h-452v80h668z" />
<glyph d="M-24 650h319v-80h-111v-570h-97v164l-186 -164h-129l315 270v300h-111v80z" />
<glyph horiz-adv-x="0" d="M-203 0h134l144 -175h-117l-94 124l-95 -124h-116z" />
<glyph horiz-adv-x="194" d="M218 570h-242v80h242v-80zM9 382q51 -34 124.5 -34t151.5 45l23 -80q-80 -43 -163.5 -43t-135.5 27v85z" />
<glyph horiz-adv-x="0" d="M14 790q-36 17 -69.5 17t-54 -20t-20.5 -54q0 -52 46 -94h-101q-15 12 -29 40.5t-14 66.5q0 65 43.5 106t103.5 41t95 -17v-86z" />
<glyph horiz-adv-x="0" d="M-93 756q0 22 14.5 37t36.5 15t37 -15t15 -37t-15 -36.5t-37 -14.5t-36.5 14.5t-14.5 36.5zM-55 865q-38 0 -65 -28.5t-27 -71.5t24 -79.5t43 -46.5h-104q-62 62 -62 140t49 126t125 48q49 0 86 -17v-89q-31 18 -69 18z" />
<glyph d="M295 650v-80h-111v-570h-97v570h-111v80h102q-32 38 -32 99.5t43.5 102.5t103.5 41t95 -17v-86q-36 17 -69.5 17t-54 -20t-20.5 -58t35 -79h116z" />
<glyph d="M178 756q0 22 14.5 37t36.5 15t37 -15t15 -37t-15 -36.5t-37 -14.5t-36.5 14.5t-14.5 36.5zM295 650v-80h-111v-570h-97v570h-111v80h101q-52 60 -52 133.5t49 121.5t125 48q49 0 86 -17v-89q-31 18 -69 18t-65 -28.5t-27 -70.5q0 -66 52 -116h119z" />
<glyph horiz-adv-x="0" d="M-89 824q0 68 39.5 110.5t100 42.5t96.5 -16v-89q-35 20 -72 20q-75 0 -75 -83v-62l-89 23v54z" />
<glyph horiz-adv-x="0" d="M-56 871q0 26 17.5 44.5t44 18.5t44.5 -18.5t18 -44.5t-18 -43.5t-44.5 -17.5t-44 17.5t-17.5 43.5z" />
<glyph horiz-adv-x="0" d="M65 750q-13 13 -13 32.5t13 33t33 13.5t33.5 -13.5t13.5 -33t-13.5 -32.5t-33.5 -13t-33 13zM147 872q-35 20 -72 20q-75 0 -75 -83v-62l-89 22v55q0 68 39.5 110.5t100 42.5t96.5 -16v-89z" />
<glyph d="M333 809q-36 17 -71 17t-57.5 -27t-22.5 -75v-74h113v-80h-112v-570h-96v570h-111v80h109v89q0 46 -24.5 70t-65 24t-63.5 -23.5t-23 -70.5v-32h-97v35q0 87 52 130.5t131 43.5q104 0 151 -72q37 68 116 68q42 0 71 -17v-86z" />
<glyph d="M253.5 843.5q17.5 18.5 44 18.5t44.5 -18.5t18 -44.5t-18 -43.5t-44.5 -17.5t-44 17.5t-17.5 43.5t17.5 44.5zM182 731v-81h112v-80h-111v-570h-96v570h-111v80h109v78q0 45 -24.5 69t-65 24t-63.5 -23t-23 -70v-21h-97v23q0 87 52 131t131.5 44t133 -44t53.5 -130z" />
<glyph d="M-188 707v35q0 86 48.5 130t124.5 44q105 0 148 -68q15 49 52.5 77t81 28t75.5 -17v-89q-32 18 -70.5 18t-64 -31t-25.5 -83v-101h113v-80h-112v-570h-96v570h-111v80h109v89q0 46 -24.5 70t-65 24t-63.5 -23.5t-23 -70.5v-32h-97zM286 808q22 0 37.5 -15t15.5 -37 t-15 -36.5t-37.5 -14.5t-37 14.5t-14.5 36.5t14.5 37t36.5 15z" />
<glyph d="M182 650h112v-80h-111v-570h-96v570h-111v80h110v32q0 139 -231 139q-101 0 -150 -30t-49 -81v-9h-96v12q0 90 80.5 141t227 51t230.5 -57.5t84 -166.5v-31z" />
<glyph d="M331 809q-36 17 -71 17t-57.5 -27t-22.5 -75v-74h114v-80h-111v-570h-96v570h-111v80h110v32q0 139 -231 139q-101 0 -150 -30t-49 -81v-9h-96v12q0 90 80.5 141t214.5 51q200 0 277 -91q32 98 128 98q42 0 71 -17v-86z" />
<glyph d="M253.5 843.5q17.5 18.5 44 18.5t44.5 -18.5t18 -44.5t-18 -43.5t-44.5 -17.5t-44 17.5t-17.5 43.5t17.5 44.5zM182 681v-31h112v-80h-111v-570h-96v570h-111v80h110v32q0 139 -231 139q-101 0 -150 -30t-49 -81v-9h-96v12q0 90 80.5 141t227 51t230.5 -57.5t84 -166.5z " />
<glyph d="M-440 701v12q0 90 80.5 141t214.5 51q203 0 273 -100q5 67 45 107.5t103 40.5q35 0 69 -17v-89q-34 18 -71.5 18t-63 -31t-25.5 -83v-101h109v-80h-111v-570h-96v570h-111v80h110v32q0 139 -231 139q-101 0 -150 -30t-49 -81v-9h-96zM289 808q22 0 37 -15t15 -37 t-15 -36.5t-37 -14.5t-36.5 14.5t-14.5 36.5t14.5 37t36.5 15z" />
<glyph horiz-adv-x="0" d="M-140 858q37 30 86.5 30t77.5 -15v-89q-36 20 -71.5 19.5t-54.5 -21t-19 -51.5t12.5 -58t25.5 -38h-61l-5 8h-40l-82 124q-33 50 -87 50q-30 0 -54 -8v83q36 6 60 6q52 0 86 -21t65 -69l17 -27q7 47 44 77z" />
<glyph horiz-adv-x="0" d="M-111 802q0 26 18 44.5t44 18.5t44.5 -18.5t18.5 -44.5t-18.5 -44t-44.5 -18t-44 18t-18 44zM-349 898q53 0 90.5 -21.5t68.5 -68.5l108 -165h-104l-83 124q-32 50 -87 50q-30 0 -54 -8v83q36 6 61 6z" />
<glyph horiz-adv-x="0" d="M-352 898q86 0 141 -71q13 55 54 90t94 35t88 -16v-89q-31 18 -69 18t-65 -28.5t-27 -71.5t24 -79.5t43 -46.5h-88l-3 4h-29l-82 124q-33 50 -87 50q-30 0 -54 -8v83q36 6 60 6zM-31 808q22 0 37.5 -15t15.5 -37t-15 -36.5t-37.5 -14.5t-37 14.5t-14.5 36.5t14.5 37 t36.5 15z" />
<glyph horiz-adv-x="0" d="M-133 866.5q34 27.5 81.5 27.5t76.5 -18v-86q-36 17 -69.5 17t-53.5 -20t-20 -54q0 -52 46 -94h-58l-4 4h-69q-54 38 -94 56.5t-78.5 18.5t-62.5 -8v79q28 8 64.5 8t74.5 -19t99 -73l38 -34l-92 116q-48 59 -122 59q-38 0 -62 -8v79q25 7 68 7q112 0 177 -103l16 -25 q10 43 44 70.5z" />
<glyph horiz-adv-x="0" d="M-45 856q26 0 44.5 -18.5t18.5 -44.5t-18.5 -43.5t-44.5 -17.5t-44 17.5t-18 43.5t18 44.5t44 18.5zM-370 924q112 0 177 -103l112 -178h-122q-54 38 -94 56.5t-78.5 18.5t-62.5 -8v79q28 8 64.5 8t74.5 -19t99 -73l38 -34l-92 116q-48 59 -122 59q-38 0 -62 -8v79 q25 7 68 7z" />
<glyph horiz-adv-x="0" d="M-193 821q8 56 47 94t91.5 38t83.5 -17v-89q-31 18 -69 18t-65 -28.5t-27 -68t19 -74.5q28 -45 48 -55h-60l-4 4h-74q-54 38 -94 56.5t-78.5 18.5t-62.5 -8v79q28 8 64.5 8t74.5 -19t99 -73l38 -34l-92 116q-48 59 -122 59q-38 0 -62 -8v79q25 7 68 7q112 0 177 -103z M-27 808q22 0 37 -15t15 -37t-15 -36.5t-37 -14.5t-36.5 14.5t-14.5 36.5t14.5 37t36.5 15z" />
<glyph d="M209.5 863.5q17.5 18.5 44 18.5t44.5 -18.5t18 -44.5t-18 -43.5t-44.5 -17.5t-44 17.5t-17.5 43.5t17.5 44.5zM-23 814h45q160 0 161 -164h112v-80h-111v-570h-97v570h-111v80h110q0 41 -15.5 62.5t-54.5 21.5h-48q-79 0 -125.5 35.5t-46.5 130.5h97q0 -49 19 -67.5 t65 -18.5z" />
<glyph d="M173 782.5q-19 -20.5 -19 -57.5t25 -75h116v-80h-111v-570h-97v570h-111v80h105l-77 117q-33 50 -87 50q-30 0 -54 -8v83q36 6 60 6q52 0 86 -21t65 -69l17 -27q7 47 44 77t86.5 30t77.5 -15v-89q-36 20 -71.5 19.5t-54.5 -21z" />
<glyph d="M295 650v-80h-111v-570h-97v570h-111v80h102l-78 117q-32 50 -86 50q-30 0 -54 -8v83q33 6 73 6q86 0 147 -90l102 -158h113zM265 758q-18 -18 -44.5 -18t-44 18t-17.5 44t17.5 44.5t44 18.5t44.5 -18.5t18 -44.5t-18 -44z" />
<glyph d="M187 756q0 22 14.5 37t36.5 15t37.5 -15t15.5 -37t-15 -36.5t-37.5 -14.5t-37 14.5t-14.5 36.5zM295 650v-80h-111v-570h-97v570h-111v80h99l-77 117q-33 50 -87 50q-30 0 -54 -8v83q36 6 60 6q86 0 141 -71q13 55 54 90t94 35t88 -16v-89q-31 18 -69 18t-65 -28.5 t-27 -70.5q0 -66 52 -116h110z" />
<glyph d="M297 790q-36 17 -69.5 17t-53.5 -20t-20 -58t35 -79h106v-80h-111v-570h-97v570h-111v80h83q-96 68 -168 68q-33 0 -57 -8v79q28 8 64.5 8t74.5 -19t99 -73l38 -34l-92 116q-48 59 -122 59q-38 0 -62 -8v79q24 7 68 7q112 0 177 -103l16 -25q10 43 44 70.5t81.5 27.5 t76.5 -18v-86z" />
<glyph d="M295 650v-80h-111v-570h-97v570h-111v80h82q-96 68 -168 68q-33 0 -57 -8v79q28 8 64.5 8t74.5 -19t99 -73l38 -34l-92 116q-48 59 -122 59q-38 0 -62 -8v79q25 7 68 7q112 0 177 -103l108 -171h109zM226 732q-26 0 -44 17.5t-18 43.5t18 44.5t44 18.5t44.5 -18.5 t18.5 -44.5t-18.5 -43.5t-44.5 -17.5z" />
<glyph d="M191 756q0 22 14 37t36 15t37.5 -15t15.5 -37t-15 -36.5t-37.5 -14.5t-36.5 14.5t-14 36.5zM297 847q-31 18 -69 18t-64.5 -28.5t-26.5 -70.5q0 -66 52 -116h106v-80h-111v-570h-97v570h-111v80h80q-96 68 -168 68q-30 0 -58 -8v79q28 8 65 8t75 -19q40 -21 136 -106 l-92 115q-47 59 -121 59q-41 0 -62 -8v79q21 7 67 7q112 0 177 -103l1 -2q7 57 46 95.5t91.5 38.5t83.5 -17v-89z" />
<glyph horiz-adv-x="764" d="M581 650h209v-80h-111v-570h-98v321h-239q-44 0 -83 9q-53 -19 -85.5 -49.5t-32.5 -71t27 -64t72.5 -23.5t81 30t46.5 82h91v-234h-95v105q-15 -27 -54.5 -45t-84.5 -18q-83 0 -133 44.5t-50 117.5q0 111 126 164q-69 49 -69 134q0 63 48 109t125 46t125.5 -42 t48.5 -109.5t-54 -107.5h189v252zM330.5 555q-23.5 23 -58 23t-57.5 -22.5t-23 -55.5q0 -76 88 -95q74 30 74 97q0 30 -23.5 53z" />
<glyph horiz-adv-x="541" d="M657 321h-315q-44 0 -83 9q-53 -19 -85.5 -49.5t-32.5 -71t27 -64t72.5 -23.5t81 30t46.5 82h91v-234h-95v105q-15 -27 -54.5 -45t-84.5 -18q-83 0 -133 44.5t-50 117.5q0 111 126 164q-69 49 -69 134q0 63 48 109t125 46t125.5 -42t48.5 -109.5t-54 -107.5h265v-77z M330.5 555q-23.5 23 -58 23t-57.5 -22.5t-23 -55.5q0 -76 88 -95q74 30 74 97q0 30 -23.5 53z" />
<glyph horiz-adv-x="1096" d="M496 650h624v-80h-111v-570h-95v274h-195v-132h-83l-28 64q-28 63 -28 83t5 32h-243q-44 0 -83 9q-53 -19 -85.5 -49.5t-32.5 -71t27 -64t72.5 -23.5t81 30t46.5 82h91v-234h-95v105q-15 -27 -54.5 -45t-84.5 -18q-83 0 -133 44.5t-50 117.5q0 111 126 164 q-69 49 -69 134q0 63 48 109t125 46t125.5 -42t48.5 -109.5t-54 -107.5h232v172h-128v80zM330.5 555q-23.5 23 -58 23t-57.5 -22.5t-23 -55.5q0 -76 88 -95q74 30 74 97q0 30 -23.5 53zM914 354v216h-195v-216h195z" />
<glyph horiz-adv-x="866" d="M1120 570h-401v-214h239v-85h-239v-130h-83l-28 63q-28 63 -28 84t6 33h-244q-44 0 -83 9q-53 -19 -85.5 -49.5t-32.5 -71t27 -64t72.5 -23.5t81 30t46.5 82h91v-234h-95v105q-15 -27 -54.5 -45t-84.5 -18q-83 0 -133 44.5t-50 117.5q0 111 126 164q-69 49 -69 134 q0 63 48 109t125 46t125.5 -42t48.5 -109.5t-54 -107.5h231v172h-128v80h625v-80zM330.5 555q-23.5 23 -58 23t-57.5 -22.5t-23 -55.5q0 -76 88 -95q74 30 74 97q0 30 -23.5 53z" />
<glyph horiz-adv-x="1465" d="M1490 650v-80h-111v-570h-96v187q-47 -68 -158 -68q-72 0 -130.5 39.5t-89.5 112.5h-194v-130h-83l-28 63q-28 63 -28 84t6 33h-236q-44 0 -83 9q-53 -19 -85.5 -49.5t-32.5 -71t27 -64t72.5 -23.5t81 30t46.5 82h91v-234h-95v105q-15 -27 -54.5 -45t-84.5 -18 q-83 0 -133 44.5t-50 117.5q0 111 126 164q-69 49 -69 134q0 63 48 109t125 46t125.5 -42t48.5 -109.5t-54 -107.5h224v172h-128v80h1002zM330.5 555q-23.5 23 -58 23t-57.5 -22.5t-23 -55.5q0 -76 88 -95q74 30 74 97q0 30 -23.5 53zM711 356h171l-2 13q79 12 119.5 43 t40.5 77.5t-30 80.5h-299v-214zM1283 342v228h-170q23 -37 23 -90q0 -118 -143 -166q12 -49 50.5 -80t99 -31t100.5 37t40 102z" />
<glyph horiz-adv-x="1110" d="M509 650h625v-80h-111v-570h-96v187q-47 -68 -158 -68q-84 0 -148 53t-88 149h-191q-44 0 -83 9q-53 -19 -85.5 -49.5t-32.5 -71t27 -64t72.5 -23.5t81 30t46.5 82h91v-234h-95v105q-15 -27 -54.5 -45t-84.5 -18q-83 0 -133 44.5t-50 117.5q0 111 126 164q-69 49 -69 134 q0 63 48 109t125 46t125.5 -42t48.5 -109.5t-54 -107.5h229q63 32 63 85t-30 87h-145v80zM330.5 555q-23.5 23 -58 23t-57.5 -22.5t-23 -55.5q0 -76 88 -95q74 30 74 97q0 30 -23.5 53zM927 342v228h-170q23 -37 23 -90q0 -118 -143 -166q12 -49 50.5 -80t99 -31t100.5 37 t40 102z" />
<glyph horiz-adv-x="1090" d="M1114 650v-80h-111v-570h-97v155q-54 -66 -154 -66q-83 0 -142 52.5t-59 143.5q0 18 3 36h-212q-44 0 -83 9q-53 -19 -85.5 -49.5t-32.5 -71t27 -64t72.5 -23.5t81 30t46.5 82h91v-234h-95v105q-15 -27 -54.5 -45t-84.5 -18q-83 0 -133 44.5t-50 117.5q0 111 126 164 q-69 49 -69 134q0 63 48 109t125 46t125.5 -42t48.5 -109.5t-54 -107.5h193q58 84 171 84q34 0 66 -7v-85q-27 9 -67.5 9t-73 -31t-32.5 -83.5t33 -84.5t89.5 -32t95.5 41t39 98v263h-393v80h601zM330.5 555q-23.5 23 -58 23t-57.5 -22.5t-23 -55.5q0 -76 88 -95 q74 30 74 97q0 30 -23.5 53z" />
<glyph horiz-adv-x="732" d="M-30 650h820v-80h-123v-570h-97v415h-317q-81 0 -81 -50q0 -27 25 -39.5t100.5 -13.5t123.5 -36.5t48 -106t-52 -113.5t-129.5 -43t-133.5 45v-107h-95v231h88q16 -40 54 -67t80 -27t66.5 22t24.5 59t-30 52t-87 15q-89 0 -135.5 32.5t-46.5 96t49.5 97t126.5 33.5h321 v75h-600v80z" />
<glyph horiz-adv-x="522" d="M704 397h-451q-81 0 -81 -48q0 -25 23.5 -34t90.5 -10q183 -3 183 -141q0 -69 -51.5 -110t-129.5 -41t-134 45v-107h-95v231h88q16 -40 54 -67t80 -27t66.5 20t24.5 56.5t-29 50t-88 13.5q-182 0 -182 119q0 64 49.5 97t126.5 33h455v-80zM546 650v-80h-576v80h576z" />
<glyph horiz-adv-x="1124" d="M1148 650v-80h-111v-570h-96v187q-47 -68 -158 -68q-91 0 -158 61.5t-85 171.5q-21 25 -56.5 35t-97.5 10h-133q-81 0 -81 -48q0 -25 23.5 -34t90.5 -10q183 -3 183 -141q0 -69 -51.5 -110t-129.5 -41t-134 45v-107h-95v231h88q16 -40 54 -67t80 -27t66.5 20t24.5 56.5 t-29 50t-88 13.5q-182 0 -182 119q0 64 49.5 97t126.5 33h153q158 0 226 -82q70 33 70 87t-30 88h-698v80h1178zM941 342v228h-170q23 -37 23 -90q0 -118 -143 -166q12 -49 50.5 -80t99 -31t100.5 37t40 102z" />
<glyph horiz-adv-x="795" d="M819 570h-367v-134q46 46 122 46t128 -51t52 -137t-58.5 -139t-146.5 -53q-11 0 -23 2v80q5 -1 19 -1q50 0 81 30.5t31 80t-29 80t-73 30.5t-73.5 -29.5t-29.5 -73.5v-301h-97v141q-9 -9 -20 -17l-147 -108q-16 -13 -16 -27q0 -27 57 -79l-56 -43q-39 19 -71 52.5 t-32 71.5t47 69l64 44q-59 16 -93.5 62.5t-34.5 112.5q0 88 59 140.5t147 52.5q16 0 23 -2v-80q-12 2 -19 2q-50 0 -81 -30.5t-31 -79.5t28.5 -78t73 -29t73.5 29t29 74v292h-379v80h843v-80z" />
<glyph horiz-adv-x="647" d="M672 650v-80h-112v-570h-96v182q-21 -33 -58 -54l-168 -111q-19 -12 -19 -31q0 -33 47 -80l-59 -39q-36 21 -62.5 54t-26.5 73t49 69l68 38q-64 12 -102.5 54t-38.5 104q0 83 72 120h-135v81h347v-81q-100 0 -145 -31t-45 -78t30.5 -71t80.5 -24q77 0 121 47.5t44 103.5 v244h-488v80h696z" />
<glyph horiz-adv-x="641" d="M665 570h-151v-107q76 -47 76 -155.5t-84 -181.5v-381h-93v165h-129q-18 0 -25.5 -9.5t-7.5 -36t12 -67.5h-79q-30 51 -30 97q0 91 93 91h166v89q-51 -19 -116 -19q-103 0 -170.5 45t-67.5 124q0 54 33 88t89 39q-44 5 -75 38.5t-31 88.5t41 92h-140v80h689v-80zM424 570 h-197q-56 -36 -56 -96q0 -38 26.5 -61.5t66.5 -23.5h31v-82h-37q-50 0 -76 -21t-26 -61t40 -65t101 -25q87 0 141 46t54 127q0 48 -26.5 75.5t-75.5 27.5q-25 0 -45 -6v78q20 7 46.5 7t32.5 -1v81z" />
<glyph horiz-adv-x="513" d="M425 570v-191q-37 7 -84 7t-91.5 -10.5t-78.5 -40t-34 -76.5q0 -117 191 -117q40 0 83 11.5t69 27.5v-88q-25 -13 -63 -22v-304h-93v138h-120q-18 0 -25.5 -9t-7.5 -32t11 -67h-79q-30 55 -30 97q0 86 94 86h157v79h-2q-126 0 -205 51.5t-79 146.5t77.5 149.5t193.5 56.5 h19v107h-352v80h561v-80h-112z" />
<glyph horiz-adv-x="595" d="M329 76l-29 -1q-110 0 -182 53.5t-72 140.5t64 137.5t157 57.5v106h-291v80h644v-80h-257v-111q83 -16 135 -65t52 -114.5t-34.5 -111t-93.5 -70.5v-311h-93v138h-120q-18 0 -25.5 -9.5t-7.5 -32.5t11 -67h-79q-30 55 -30 98q0 86 94 86h157v76zM409.5 184.5 q41.5 31.5 41.5 87.5t-43.5 85.5t-111 29.5t-110 -30.5t-42.5 -85.5t44 -86.5t112 -31.5t109.5 31.5z" />
<glyph horiz-adv-x="568" d="M475 401h-185q-63 0 -100.5 -33.5t-37.5 -92t33 -92.5t87.5 -34t88 30.5t37.5 81.5h93v-271h-95v131q-11 -14 -26 -23v-1l-165 -115q-22 -15 -22 -42t42 -65l-59 -37q-38 22 -62 53.5t-24 63.5q0 46 58 81l66 39q-71 16 -112 70.5t-41 128.5q0 91 61 148.5t171 57.5h95 v90h-402v80h617v-80h-118v-169z" />
<glyph horiz-adv-x="531" d="M-24 650h580v-80h-111v-570h-98v204l-154 -31q-42 -9 -42 -52q0 -19 16 -65l-65 -15q-19 22 -36 56.5t-17 65.5q0 64 78 78l209 39l-124 85q-20 14 -37 14q-42 0 -69 -71l-55 35q6 56 33.5 99t67 43t77.5 -28l118 -87v200h-371v80z" />
<glyph horiz-adv-x="820" d="M845 570h-367v-122q46 46 124 46t127.5 -52t49.5 -138t-58.5 -137.5t-145.5 -51.5q-17 0 -24 2v80q12 -2 19 -2q51 0 82 30t31 80.5t-28 80.5t-72.5 30t-74.5 -29.5t-30 -75.5v-311h-97v240q-10 -12 -21 -20l-145 -122q-21 -16 -21 -41t39 -68l-58 -36q-37 21 -61 50.5 t-24 68t56 77.5l59 41q-134 26 -134 196v184h-95v80h869v-80zM381 391v179h-213v-186q0 -64 24 -92t73 -28t82.5 34t33.5 93z" />
<glyph horiz-adv-x="626" d="M650 650v-80h-111v-570h-97v152q-15 -16 -34 -31l-157 -118q-19 -15 -19 -40t41 -66l-59 -36q-34 19 -59.5 50.5t-25.5 66.5q0 49 57 80l44 25q-75 13 -125 69t-50 142.5t62 146t161 59.5q40 0 82 -10v-84q-39 12 -76 12t-67 -14l198 -185q27 38 27 83v268h-466v80h674z M175 369q-24 -33 -24 -86.5t36.5 -89.5t92 -36t94.5 25z" />
<glyph horiz-adv-x="719" d="M535 650h209v-80h-111v-570h-98v213l-190 -132q-20 -12 -20 -38t49 -63l-59 -38q-94 48 -94 114q0 41 48 73l160 108q-89 23 -152 49l-198 -122l-75 58l186 111q-101 71 -101 171q0 63 48.5 108t128 45t129 -45t49.5 -112q0 -90 -88 -153q69 -25 179 -49v352z M325.5 553.5q-22.5 24.5 -60 24.5t-58.5 -22.5t-21 -56.5q0 -66 87 -114q75 45 75 113q0 31 -22.5 55.5z" />
<glyph horiz-adv-x="781" d="M805 650v-80h-111v-570h-96v250l-138 -53q-31 -13 -31 -43t31 -71l-67 -23q-28 24 -47 56.5t-19 61.5q0 59 71 83l168 55q-71 55 -150 55t-165 -54q-35 -32 -94 -38h-11l176 -279h-113l-175 278v73h68q54 0 75 22t21 67v130h-222v80h829zM294 570v-145q59 27 127 27 q107 0 177 -64v182h-304z" />
<glyph horiz-adv-x="622" d="M504 413h-290q-50 0 -50 -40q0 -45 47 -73q54 18 126 18q118 0 182 -55.5t64 -136.5q0 -49 -10 -76h-90q11 31 11 63t-12 56l-114 -52q-21 -9 -21 -32.5t40 -70.5l-63 -29q-26 20 -50 51.5t-24 61.5q0 44 55 69l118 55q-37 17 -91 17q-88 0 -134.5 -42t-46.5 -108.5 t58 -114.5t155 -48q50 0 83 9v-77q-37 -8 -90 -8q-126 0 -214.5 67t-88.5 177.5t86 170.5q-75 50 -75 120q0 51 37 78.5t95 27.5h211v79h-432v80h670v-80h-142v-157z" />
<glyph horiz-adv-x="792" d="M816 570h-366v-133q45 45 121 45t128 -51t52 -137t-58.5 -139t-146.5 -53q-11 0 -23 2v80q5 -1 19 -1q50 0 81 30.5t31 80t-28.5 80t-73 30.5t-73.5 -29.5t-29 -73.5v-301h-98v138l-166 -183h-116l134 142q-69 10 -111 58.5t-42 129.5t58.5 134t146.5 53q16 0 23 -2v-80 q-12 2 -19 2q-49 0 -80.5 -31t-31.5 -80.5t28.5 -80t73 -30.5t73.5 29.5t29 73.5v297h-376v80h840v-80z" />
<glyph horiz-adv-x="795" d="M819 650v-80h-111v-570h-97v132q-41 -42 -156 -131l-142 -110h-144l199 157q-115 8 -194.5 75.5t-120.5 183.5v78h67q45 0 58 18t13 68v99h-215v80h843zM611 570h-324v-115q0 -71 -25 -106q-25 -36 -97 -42q22 -78 86.5 -128t154.5 -50t150.5 46.5t60.5 126.5 q0 54 -28 86t-71 32t-65 -20.5t-22 -49.5t17 -46t41 -17t41 8v-70q-27 -11 -53 -11q-58 0 -98 37t-40 98.5t47 103.5t113 42t112 -33v108z" />
<glyph horiz-adv-x="587" d="M-24 650h635v-80h-111v-570h-96v175l-230 -195h-133l363 314v276h-156v-228q0 -66 -34.5 -100.5t-96.5 -34.5q-41 0 -78 13v82q28 -14 58 -14q55 0 55 61v221h-176v80z" />
<glyph horiz-adv-x="646" d="M671 650v-80h-112v-570h-95v170l-243 -215h-130l154 136q-75 1 -127.5 41t-52.5 111q0 54 34.5 88t94.5 43q-51 3 -85.5 31.5t-34.5 79t38 85.5h-136v80h695zM464 333v237h-245q-48 -29 -48 -80q0 -74 115 -74h46v-83h-56q-53 0 -83.5 -22.5t-30.5 -62.5t33 -60.5 t80 -20.5q80 0 134.5 47.5t54.5 118.5z" />
<glyph horiz-adv-x="594" d="M-24 650h642v-80h-207v-152h-184q-75 0 -75 -56q0 -31 29.5 -44t100.5 -15q186 -5 186 -143q-1 -52 -33 -91.5t-90 -57.5l119 -153h-117l-90 128l-90 -128h-117l115 150q-58 11 -108 37v93q92 -58 198 -58q54 0 84.5 20.5t30.5 56t-28 49.5t-95 16q-191 7 -191 138 q0 68 48 103t121 35h90v72h-339v80zM479 394q18 18 44.5 18t44.5 -18t18 -44t-18 -44t-44.5 -18t-44.5 18t-18 44t18 44z" />
<glyph horiz-adv-x="644" d="M669 650v-80h-111v-570h-97v174l-249 -219h-131l165 146q-70 8 -112.5 50.5t-42.5 107.5q0 82 72 120h-135v81h347v-81q-100 0 -145 -31t-45 -78t30.5 -71t80.5 -24q72 0 118.5 43.5t46.5 97.5v254h-485v80h693z" />
<glyph horiz-adv-x="644" d="M668 570h-149v-107q76 -47 76 -143t-51.5 -160.5t-138.5 -90.5l121 -156h-117l-89 128l-91 -128h-117l115 149q-74 15 -118.5 57t-44.5 100.5t33 92.5t89 39q-44 5 -75 38.5t-31 88.5t41 92h-145v80h692v-80zM429 570h-197q-56 -36 -56 -96q0 -38 26.5 -61.5t66.5 -23.5 h32v-82h-38q-50 0 -76 -21t-26 -61t40 -65t101 -25q87 0 141 46t54 127q0 48 -26.5 75.5t-75.5 27.5q-25 0 -45 -6v78q20 7 46.5 7t32.5 -1v81z" />
<glyph horiz-adv-x="657" d="M-24 650h706v-80h-111v-570h-97v100l-234 -200h-129l363 310v164h-182q66 -38 66 -113.5t-55.5 -122.5t-134.5 -47t-132 22v86q50 -26 107 -26t89 24t32 70q0 107 -165 107v81h375v115h-498v80z" />
<glyph horiz-adv-x="854" d="M879 650v-80h-112v-570h-97v93l-223 -217h-130l353 324v46h-221q21 -33 21 -78q0 -69 -48 -112.5t-126.5 -43.5t-135.5 43v-104h-95v231h88v-3q18 -40 55.5 -65.5t78.5 -25.5t64 20.5t23 56.5q0 70 -109 76q-89 3 -139 31t-50 95.5t48.5 102.5t127.5 35h83v65h-359v80 h903zM670 323v247h-239v-145l-5 1v-1h-168q-84 0 -84 -53q0 -26 23.5 -36.5t76.5 -12.5h396z" />
<glyph horiz-adv-x="694" d="M718 650v-80h-111v-570h-97v106l-230 -206h-132l362 314v52h-115q-11 -74 -70 -122.5t-148.5 -48.5t-150.5 36v90q69 -42 138.5 -42t102.5 32t33 84t-30.5 81.5t-80 29.5t-85.5 -16v82q33 14 86 14q82 0 134.5 -36.5t67.5 -102.5h118v223h-534v80h742z" />
<glyph horiz-adv-x="504" d="M420 570v-191q-32 6 -77 6q-87 0 -138.5 -38t-51.5 -106.5t46.5 -104.5t123.5 -36t143 40v-88q-34 -19 -88 -29l114 -147h-116l-89 129l-92 -129h-116l123 160q-70 24 -109.5 77t-39.5 129q0 96 69 158t182 63h20v107h-348v80h553v-80h-109z" />
<glyph horiz-adv-x="567" d="M592 570h-239v-117q75 -17 120.5 -66t45.5 -121t-38 -121t-105 -71l120 -155h-117l-90 128l-90 -128h-117l117 152q-69 20 -109.5 70.5t-40.5 121.5q0 88 60.5 138.5t147.5 57.5v111h-281v80h616v-80zM383 173q37 34 37 90.5t-36.5 87t-96.5 31t-100 -29.5t-40 -87.5 t38 -91.5t99.5 -34t98.5 34z" />
<glyph horiz-adv-x="527" d="M288 222l-62 -4q-71 1 -120.5 36.5t-49.5 104.5t48 104t121 35h90v72h-339v80h575v-80h-140v-152h-184q-75 0 -75 -56q0 -60 99 -62l63 3q77 -3 115.5 -42t38 -96t-32.5 -96.5t-90 -56.5l119 -154h-117l-90 128l-90 -128h-117l115 150q-58 11 -108 37v93q92 -58 198 -58 q54 0 84.5 20.5t30.5 56.5q0 63 -82 65z" />
<glyph horiz-adv-x="560" d="M441 570v-185q-57 10 -102 10q-87 0 -140 -40t-53 -107.5t43.5 -109.5t113.5 -42q49 0 81 21t32 59q0 24 -18.5 40t-58.5 16t-73 -24v75q41 22 103 22t101 -35t39 -90t-33 -95t-92 -57l118 -152h-117l-90 128l-91 -128h-116l119 155q-73 23 -116.5 80t-43.5 135 q0 102 72.5 164t190.5 64q11 0 35 -2v98h-369v80h608v-80h-143z" />
<glyph horiz-adv-x="756" d="M781 650v-80h-112v-570h-96v175l-230 -198h-141l371 316v277h-149v-206q0 -89 -47 -136t-134 -47q-175 0 -175 183v206h-92v80h805zM328 359v211h-164v-211q0 -96 81 -96q83 0 83 96z" />
<glyph horiz-adv-x="586" d="M610 650v-80h-111v-570h-97v215l-275 -171l-51 73l294 181q-57 90 -160 91q-78 0 -153 -43v89q62 38 156 38q118 0 189 -85v182h-426v80h634z" />
<glyph horiz-adv-x="652" d="M378 507q0 -152 -237 -213q28 -104 151 -104q71 0 124 46t53 135v279h208v-80h-112v-570h-96v185l-252 -230h-133l173 157q-92 9 -155.5 69.5t-73.5 167.5q135 31 196 66.5t61 92.5q0 30 -15 49.5t-45 19.5t-45 -18t-15 -40.5t12 -61.5h-93q-12 32 -12 65q0 56 41.5 95.5 t111.5 39.5t111.5 -42t41.5 -108z" />
<glyph horiz-adv-x="563" d="M-24 650h612v-80h-118v-169h-185q-63 0 -100.5 -33.5t-37.5 -92t33 -92.5t87.5 -34t88 30.5t37.5 81.5h93v-271h-95v131l-184 -177h-125l135 130q-79 12 -125 67t-46 139.5t61 142t171 57.5h95v90h-397v80z" />
<glyph horiz-adv-x="642" d="M667 650v-80h-112v-570h-95v160l-237 -205h-134l151 129q-81 7 -129.5 47t-48.5 99t38 93.5t98 39.5q-129 10 -129 111q0 66 57 96h-150v80h319v-80h-1q-61 0 -94.5 -25t-33.5 -66q0 -76 123 -76h47v-81h-56q-53 0 -86.5 -22t-33.5 -59.5t31.5 -58t88.5 -20.5 q81 0 130.5 47.5t49.5 114.5v326h207z" />
<glyph horiz-adv-x="520" d="M-24 650h568v-80h-111v-570h-97v252l-177 -192h-119l296 314h-188q-18 0 -25 -9t-7 -38t11 -65h-79q-30 53 -30 101t23.5 69.5t70.5 21.5h224v116h-360v80z" />
<glyph horiz-adv-x="565" d="M590 650v-80h-112v-570h-97v246l-225 -246h-124l178 196q-139 21 -139 195v179h-95v80h614zM381 396v174h-213v-182q0 -63 24 -91.5t73 -28.5t82.5 34t33.5 94z" />
<glyph horiz-adv-x="818" d="M842 570h-364v-126q46 46 124 46t127.5 -52t49.5 -138t-58.5 -138t-145.5 -52q-10 0 -24 2v80q6 -1 19 -1q51 0 82 29.5t31 80t-28 81t-72.5 30.5t-74.5 -29.5t-30 -75.5v-307h-97v246l-225 -246h-124l178 196q-139 21 -139 195v179h-95v80h866v-80zM381 396v174h-213 v-182q0 -63 24 -91.5t73 -28.5t82.5 34t33.5 94z" />
<glyph horiz-adv-x="626" d="M651 650v-80h-112v-570h-96v153l-235 -218h-133l163 151q-77 9 -130 64.5t-53 143t62 147t161 59.5q40 0 82 -10v-84q-39 12 -76 12t-67 -14l198 -184q27 37 27 82l1 -2v270h-467v80h675zM175 369q-24 -33 -24 -86.5t36.5 -89.5t92 -36t95.5 26z" />
<glyph horiz-adv-x="577" d="M601 650v-80h-111v-570h-95v146l-211 -186h-134l345 303v60h-184v-134h-85l-28 62q-27 61 -27 86q0 49 44 60v117q0 60 -46 60q-30 0 -56 -14v78q32 17 75 17q123 0 123 -127v-126h184l-1 248h207z" />
<glyph horiz-adv-x="587" d="M-24 650h635v-80h-111v-570h-95v153l-214 -193h-137l351 313v44h-195v-130h-83l-28 63q-28 63 -28 90q0 47 44 57v173h-139v80zM210 402h195v168h-195v-168z" />
<glyph horiz-adv-x="634" d="M214 237.5q39 -29.5 98.5 -29.5t99 36.5t39.5 102.5v223h-170q24 -36 24 -90q0 -118 -144 -163q14 -50 53 -79.5zM48 371q161 26 161 119q0 46 -30 80h-203v80h683v-80h-111v-570h-97v188l-252 -233h-138l191 177q-80 12 -135.5 73.5t-68.5 165.5z" />
<glyph horiz-adv-x="592" d="M616 650v-80h-111v-570h-97v154l-222 -219h-133l165 159q-71 10 -118 60.5t-47 133t57 138.5t148 56q34 0 66 -7v-85q-27 9 -67.5 9t-73 -31t-32.5 -83.5t33 -84.5t89.5 -32t95.5 41t39 98v263h-432v80h640z" />
<glyph horiz-adv-x="716" d="M532 650h209v-80h-112v-570h-97v206l-253 -213l-76 55l227 186q-83 25 -144 52l-180 -129l-77 58l172 118q-103 72 -103 169q0 63 47 109t126 46t127 -45t48 -113q0 -86 -88 -150q68 -27 174 -54v355zM328.5 553.5q-21.5 24.5 -56.5 24.5t-56.5 -22.5t-21.5 -55.5 q0 -63 82 -112q74 46 74 109q0 32 -21.5 56.5z" />
<glyph horiz-adv-x="764" d="M788 650v-80h-111v-570h-96v274l-147 -156h-121l218 215q-54 38 -120.5 38t-151.5 -54q-35 -32 -94 -38h-10l175 -279h-112l-176 278v73h68q54 0 75 22t21 67v130h-230v80h812zM302 570v-145q56 27 116 27q99 0 163 -64v182h-279z" />
<glyph horiz-adv-x="619" d="M513 413h-292q-50 0 -50 -40q0 -44 40 -67q51 18 118 18q111 0 178 -55.5t67 -153.5q0 -42 -11 -75h-89q11 27 11 72.5t-21 76.5l-122 -153h-111l168 199q-30 10 -75 10q-78 0 -122 -41.5t-44 -109.5t55.5 -115.5t158.5 -47.5q56 0 93 12v-77q-45 -10 -100 -10 q-130 0 -216.5 66.5t-86.5 177t81 170.5q-70 43 -70 115q0 51 36.5 78.5t94.5 27.5h214v79h-442v80h667v-80h-130v-157z" />
<glyph horiz-adv-x="792" d="M816 570h-366v-133q45 45 121 45t128 -51t52 -137t-58.5 -139t-146.5 -53q-11 0 -23 2v80q5 -1 19 -1q50 0 81 30.5t31 80t-28.5 80t-73 30.5t-73.5 -29.5t-29 -73.5v-301h-98v138l-166 -183h-116l134 142q-69 10 -111 58.5t-42 129.5t58.5 134t146.5 53q16 0 23 -2v-80 q-12 2 -19 2q-49 0 -80.5 -31t-31.5 -80.5t28.5 -80t73 -30.5t73.5 29.5t29 73.5v297h-376v80h840v-80zM293 -34q25 0 42.5 -17.5t17.5 -42.5t-17.5 -42t-42.5 -17t-42 16.5t-17 42t17 43t42 17.5z" />
<glyph horiz-adv-x="795" d="M819 650v-80h-111v-570h-97v132q-41 -42 -156 -131l-142 -110h-144l199 157q-115 8 -194.5 75.5t-120.5 183.5v78h67q45 0 58 18t13 68v99h-215v80h843zM611 570h-324v-115q0 -71 -25 -106q-25 -36 -97 -42q22 -78 86.5 -128t154.5 -50t150.5 46.5t60.5 126.5 q0 54 -28 86t-71 32t-65 -20.5t-22 -49.5t17 -46t41 -17t41 8v-70q-27 -11 -53 -11q-58 0 -98 37t-40 98.5t47 103.5t113 42t112 -33v108zM530 -35q25 0 42.5 -17.5t17.5 -42.5t-17.5 -42t-43 -17t-42 17t-16.5 42t17 42.5t42 17.5z" />
<glyph horiz-adv-x="587" d="M-24 650h635v-80h-111v-570h-96v175l-230 -195h-133l363 314v276h-156v-228q0 -66 -34.5 -100.5t-96.5 -34.5q-41 0 -78 13v82q28 -14 58 -14q55 0 55 61v221h-176v80zM311 -25q25 0 42.5 -17.5t17.5 -42.5t-17.5 -42t-42.5 -17t-42 17t-17 42t17 42.5t42 17.5z" />
<glyph horiz-adv-x="646" d="M671 650v-80h-112v-570h-95v170l-243 -215h-130l154 136q-75 1 -127.5 41t-52.5 111q0 54 34.5 88t94.5 43q-51 3 -85.5 31.5t-34.5 79t38 85.5h-136v80h695zM464 333v237h-245q-48 -29 -48 -80q0 -74 115 -74h46v-83h-56q-53 0 -83.5 -22.5t-30.5 -62.5t33 -60.5 t80 -20.5q80 0 134.5 47.5t54.5 118.5zM380 -24q25 0 42.5 -17.5t17.5 -42.5t-17.5 -42t-43 -17t-42 16.5t-16.5 42t17 43t42 17.5z" />
<glyph horiz-adv-x="640" d="M-24 650h688v-80h-207v-152h-184q-75 0 -75 -56q0 -31 29.5 -44t100.5 -15q186 -5 186 -143q-1 -52 -33 -91t-89 -57l118 -154h-117l-90 128l-90 -128h-117l115 150q-56 11 -107 37v93q90 -58 197 -58q54 0 84.5 20.5t30.5 56t-27.5 49.5t-94.5 16q-191 7 -191 138 q0 68 48 103t120 35h90v72h-385v80zM525.5 394q17.5 18 44 18t44.5 -18t18 -44t-18 -44t-44.5 -18t-44 18t-17.5 44t17.5 44zM19 21q25 0 42.5 -17.5t17.5 -42.5t-17.5 -42t-42.5 -17t-42 17t-17 42t17 42.5t42 17.5z" />
<glyph horiz-adv-x="644" d="M669 650v-80h-111v-570h-97v174l-249 -219h-131l165 146q-70 8 -112.5 50.5t-42.5 107.5q0 82 72 120h-135v81h347v-81q-100 0 -145 -31t-45 -78t30.5 -71t80.5 -24q72 0 118.5 43.5t46.5 97.5v254h-485v80h693zM362 -35q25 0 42.5 -17.5t17.5 -42.5t-17.5 -42t-43 -17 t-42 17t-16.5 42t17 42.5t42 17.5z" />
<glyph horiz-adv-x="668" d="M692 570h-149v-107q76 -47 76 -143t-51.5 -160.5t-138.5 -90.5l121 -156h-117l-89 128l-91 -128h-117l116 149q-75 15 -119.5 57t-44.5 100.5t33 92.5t89 39q-44 5 -75 38.5t-31 88.5t41 92h-165v80h712v-80zM453 570h-197q-55 -36 -55 -96q0 -38 26 -61.5t66 -23.5h32 v-82h-38q-49 0 -75.5 -21.5t-26.5 -61t40 -64.5t101 -25q87 0 141 46t54 127q0 48 -26.5 75.5t-75.5 27.5q-25 0 -45 -6v78q20 7 46.5 7t32.5 -1v81zM54 75q25 0 42.5 -17.5t17.5 -42.5t-17.5 -42t-43 -17t-42 17t-16.5 42t17 42.5t42 17.5z" />
<glyph horiz-adv-x="657" d="M-24 650h706v-80h-111v-570h-97v100l-234 -200h-129l363 310v164h-182q66 -38 66 -113.5t-55.5 -122.5t-134.5 -47t-132 22v86q50 -26 107 -26t89 24t32 70q0 107 -165 107v81h375v115h-498v80zM409 -63q25 0 42.5 -17.5t17.5 -42.5t-17.5 -42t-42.5 -17t-42 17t-17 42 t17 42.5t42 17.5z" />
<glyph horiz-adv-x="854" d="M879 650v-80h-112v-570h-97v93l-223 -217h-130l353 324v46h-221q21 -33 21 -78q0 -69 -48 -112.5t-126.5 -43.5t-135.5 43v-104h-95v231h88v-3q18 -40 55.5 -65.5t78.5 -25.5t64 20.5t23 56.5q0 70 -109 76q-89 3 -139 31t-50 95.5t48.5 102.5t127.5 35h83v65h-359v80 h903zM670 323v247h-239v-145l-5 1v-1h-168q-84 0 -84 -53q0 -26 23.5 -36.5t76.5 -12.5h396zM624 -58q25 0 42.5 -17.5t17.5 -42.5t-17.5 -42t-43 -17t-42 16.5t-16.5 42t17 43t42 17.5z" />
<glyph horiz-adv-x="694" d="M718 650v-80h-111v-570h-97v106l-230 -206h-132l362 314v52h-115q-11 -74 -70 -122.5t-148.5 -48.5t-150.5 36v90q69 -42 138.5 -42t102.5 32t33 84t-30.5 81.5t-80 29.5t-85.5 -16v82q33 14 86 14q82 0 134.5 -36.5t67.5 -102.5h118v223h-534v80h742zM451 -58 q25 0 42.5 -17.5t17.5 -42.5t-17.5 -42t-42.5 -17t-42 16.5t-17 42t17 43t42 17.5z" />
<glyph horiz-adv-x="528" d="M445 570v-191q-33 6 -78 6q-87 0 -138.5 -38t-51.5 -106.5t47 -104.5t124 -36t143 40v-88q-37 -19 -88 -29l114 -147h-117l-89 129l-91 -129h-117l123 160q-70 24 -109 77t-39 129q0 96 68.5 158t181.5 63h20v107h-368v80h573v-80h-108zM33 70q25 0 42.5 -17.5 t17.5 -42.5t-17.5 -42t-42.5 -17t-42 16.5t-17 42t17 43t42 17.5z" />
<glyph horiz-adv-x="596" d="M620 570h-238v-117q74 -17 119.5 -66t45.5 -121t-38 -121.5t-104 -70.5l120 -155h-117l-90 128l-91 -128h-116l117 152q-69 20 -109.5 70.5t-40.5 121.5q0 89 60.5 139t147.5 57v111h-311v80h645v-80zM411.5 172.5q37.5 33.5 37.5 90.5t-37 87.5t-96.5 31t-99.5 -29 t-40 -87.5t37.5 -92t99 -34t99 33.5zM35 101q25 0 42.5 -17.5t17.5 -42.5t-17.5 -42t-42.5 -17t-42 17t-17 42t17 42.5t42 17.5z" />
<glyph horiz-adv-x="571" d="M332 222l-62 -4q-71 1 -120.5 36.5t-49.5 104.5t48 104t121 35h90v72h-383v80h619v-80h-140v-152h-184q-75 0 -75 -56q0 -60 99 -62l63 3q77 -3 115.5 -42t38 -96t-32.5 -96.5t-90 -56.5l119 -154h-117l-90 128l-90 -128h-117l115 150q-58 11 -108 37v93q92 -58 198 -58 q54 0 84.5 20.5t30.5 56.5q0 63 -82 65zM15 25q25 0 42.5 -17.5t17.5 -42.5t-17.5 -42t-42.5 -17t-42 17t-17 42t17 42.5t42 17.5z" />
<glyph horiz-adv-x="591" d="M472 570v-185q-58 10 -102 10q-87 0 -140.5 -40.5t-53.5 -107t44 -109t113 -42.5q49 0 81.5 21t32.5 59q0 24 -19 40t-58.5 16t-72.5 -24v75q41 22 103 22t101 -35t39 -90t-33 -95t-92 -57l117 -152h-116l-90 128l-91 -128h-117l120 155q-73 23 -116.5 80t-43.5 135 q0 102 72 164t190 64q12 0 36 -2v98h-401v80h640v-80h-143zM38 66q25 0 42.5 -17.5t17.5 -42.5t-17.5 -42t-43 -17t-42 16.5t-16.5 42t17 43t42 17.5z" />
<glyph horiz-adv-x="756" d="M781 650v-80h-112v-570h-96v175l-230 -198h-141l371 316v277h-149v-206q0 -89 -47 -136t-134 -47q-175 0 -175 183v206h-92v80h805zM328 359v211h-164v-211q0 -96 81 -96q83 0 83 96zM467 -47q25 0 42.5 -17.5t17.5 -42.5t-17.5 -42t-42.5 -17t-42 17t-17 42t17 42.5 t42 17.5z" />
<glyph horiz-adv-x="586" d="M610 650v-80h-111v-570h-97v215l-275 -171l-51 73l294 181q-57 90 -160 91q-78 0 -153 -43v89q62 38 156 38q118 0 189 -85v182h-426v80h634zM259 -2q25 0 42.5 -17.5t17.5 -42.5t-17.5 -42t-42.5 -17t-42 16.5t-17 42t17 43t42 17.5z" />
<glyph horiz-adv-x="652" d="M307 -93q0 25 17 42.5t42 17.5t42.5 -17.5t17.5 -42.5t-17.5 -42t-43 -17t-42 17t-16.5 42zM378 507q0 -152 -237 -213q28 -104 151 -104q71 0 124 46t53 135v279h208v-80h-112v-570h-96v185l-252 -230h-133l173 157q-92 9 -155.5 69.5t-73.5 167.5q135 31 196 66.5 t61 92.5q0 30 -15 49.5t-45 19.5t-45 -18t-15 -40.5t12 -61.5h-93q-12 32 -12 65q0 56 41.5 95.5t111.5 39.5t111.5 -42t41.5 -108z" />
<glyph horiz-adv-x="563" d="M279.5 -160.5q-16.5 16.5 -16.5 42t17 43t42 17.5t42.5 -17.5t17.5 -42.5t-17.5 -42t-43 -17t-42 16.5zM-24 650h612v-80h-118v-169h-185q-63 0 -100.5 -33.5t-37.5 -92t33 -92.5t87.5 -34t88 30.5t37.5 81.5h93v-271h-95v131l-184 -177h-125l135 130q-79 12 -125 67 t-46 139.5t61 142t171 57.5h95v90h-397v80z" />
<glyph horiz-adv-x="642" d="M667 650v-80h-112v-570h-95v160l-237 -205h-134l151 129q-81 7 -129.5 47t-48.5 99t38 93.5t98 39.5q-129 10 -129 111q0 66 57 96h-150v80h319v-80h-1q-61 0 -94.5 -25t-33.5 -66q0 -76 123 -76h47v-81h-56q-53 0 -86.5 -22t-33.5 -59.5t31.5 -58t88.5 -20.5 q81 0 130.5 47.5t49.5 114.5v326h207zM362 -47q25 0 42.5 -17.5t17.5 -42.5t-17.5 -42t-43 -17t-42 17t-16.5 42t17 42.5t42 17.5z" />
<glyph horiz-adv-x="520" d="M-24 650h568v-80h-111v-570h-97v252l-177 -192h-119l296 314h-188q-18 0 -25 -9t-7 -38t11 -65h-79q-30 53 -30 101t23.5 69.5t70.5 21.5h224v116h-360v80zM215 -5q25 0 42.5 -17.5t17.5 -42.5t-17.5 -42t-42.5 -17t-42 17t-17 42t17 42.5t42 17.5z" />
<glyph horiz-adv-x="565" d="M590 650v-80h-112v-570h-97v246l-225 -246h-124l178 196q-139 21 -139 195v179h-95v80h614zM381 396v174h-213v-182q0 -63 24 -91.5t73 -28.5t82.5 34t33.5 94zM267 -24q25 0 42.5 -17.5t17.5 -42.5t-17.5 -42t-42.5 -17t-42 16.5t-17 42t17 43t42 17.5z" />
<glyph horiz-adv-x="818" d="M842 570h-364v-126q46 46 124 46t127.5 -52t49.5 -138t-58.5 -138t-145.5 -52q-10 0 -24 2v80q6 -1 19 -1q51 0 82 29.5t31 80t-28 81t-72.5 30.5t-74.5 -29.5t-30 -75.5v-307h-97v246l-225 -246h-124l178 196q-139 21 -139 195v179h-95v80h866v-80zM381 396v174h-213 v-182q0 -63 24 -91.5t73 -28.5t82.5 34t33.5 94zM267 -24q25 0 42.5 -17.5t17.5 -42.5t-17.5 -42t-42.5 -17t-42 16.5t-17 42t17 43t42 17.5z" />
<glyph horiz-adv-x="626" d="M651 650v-80h-112v-570h-96v153l-235 -218h-133l163 151q-77 9 -130 64.5t-53 143t62 147t161 59.5q40 0 82 -10v-84q-39 12 -76 12t-67 -14l198 -184q27 37 27 82l1 -2v270h-467v80h675zM175 369q-24 -33 -24 -86.5t36.5 -89.5t92 -36t95.5 26zM353 -41q25 0 42.5 -17.5 t17.5 -42.5t-17.5 -42t-42.5 -17t-42 17t-17 42t17 42.5t42 17.5z" />
<glyph horiz-adv-x="577" d="M601 650v-80h-111v-570h-95v146l-211 -186h-134l345 303v60h-184v-134h-85l-28 62q-27 61 -27 86q0 49 44 60v117q0 60 -46 60q-30 0 -56 -14v78q32 17 75 17q123 0 123 -127v-126h184l-1 248h207zM309 -30q25 0 42.5 -17.5t17.5 -42.5t-17.5 -42t-42.5 -17t-42 16.5 t-17 42t17 43t42 17.5z" />
<glyph horiz-adv-x="587" d="M-24 650h635v-80h-111v-570h-95v153l-214 -193h-137l351 313v44h-195v-130h-83l-28 63q-28 63 -28 90q0 47 44 57v173h-139v80zM210 402h195v168h-195v-168zM318 -30q25 0 42.5 -17.5t17.5 -42.5t-17.5 -42t-43 -17t-42 16.5t-16.5 42t17 43t42 17.5z" />
<glyph horiz-adv-x="634" d="M278 -95q0 25 17 42.5t42 17.5t42.5 -17.5t17.5 -42.5t-17.5 -42t-42.5 -17t-42 17t-17 42zM214 237.5q39 -29.5 98.5 -29.5t99 36.5t39.5 102.5v223h-170q24 -36 24 -90q0 -118 -144 -163q14 -50 53 -79.5zM48 371q161 26 161 119q0 46 -30 80h-203v80h683v-80h-111 v-570h-97v188l-252 -233h-138l191 177q-80 12 -135.5 73.5t-68.5 165.5z" />
<glyph horiz-adv-x="592" d="M616 650v-80h-111v-570h-97v154l-222 -219h-133l165 159q-71 10 -118 60.5t-47 133t57 138.5t148 56q34 0 66 -7v-85q-27 9 -67.5 9t-73 -31t-32.5 -83.5t33 -84.5t89.5 -32t95.5 41t39 98v263h-432v80h640zM331 -41q25 0 42.5 -17.5t17.5 -42.5t-17.5 -42t-42.5 -17 t-42 17t-17 42t17 42.5t42 17.5z" />
<glyph horiz-adv-x="548" d="M450 570v-133q45 45 121.5 45t128.5 -52l-68 -69q-28 43 -83 43q-41 0 -70 -29.5t-29 -73.5v-301h-98v138l-166 -183h-116l134 142q-69 10 -111 58.5t-42 129.5t58.5 134t146.5 53q16 0 23 -2v-80q-12 2 -19 2q-49 0 -80.5 -31t-31.5 -80.5t28.5 -80t73 -30.5t73.5 29.5 t29 73.5v297h-376v80h596v-80h-122z" />
<glyph horiz-adv-x="578" d="M477 214q-58 0 -98 37t-40 98.5t47 103.5t116 42q93 0 145.5 -51.5t52.5 -133.5q0 -114 -116 -207l-266 -212h-145l199 157q-119 7 -198.5 74.5t-120.5 184.5v78h67q45 0 58 18t13 68v99h-215v80h626v-80h-315v-115q0 -71 -25 -106q-25 -36 -97 -42q22 -78 86.5 -128 t154 -50t148 46.5t58.5 126.5q0 55 -25.5 86.5t-68.5 31.5t-65 -20.5t-22 -49.5t17 -46t41 -17t41 8v-70q-27 -11 -53 -11z" />
<glyph horiz-adv-x="377" d="M457 341l45 -81l-328 -280h-133zM97 288q55 0 55 61v221h-176v80h426v-80h-154v-228q0 -66 -34.5 -100.5t-96.5 -34.5q-41 0 -78 13v82q28 -14 58 -14z" />
<glyph horiz-adv-x="401" d="M65 243q0 54 34.5 88t94.5 43q-51 3 -85.5 31.5t-34.5 79t38 85.5h-136v80h449v-80h-206q-48 -29 -48 -80q0 -74 115 -74h46v-83h-56q-53 0 -83.5 -22.5t-30.5 -62.5t33 -60.5t80 -20.5q73 0 130.5 48.5t86.5 110.5l51 -95l-320 -276h-132l154 136q-75 1 -127.5 41 t-52.5 111z" />
<glyph horiz-adv-x="417" d="M91 259q0 82 72 120h-135v81h347v-81q-100 0 -145 -31t-45 -78t30.5 -71t84.5 -24t106 39t87 99l47 -75l-322 -283h-132l164 146q-69 5 -114 48t-45 110zM442 650v-80h-466v80h466z" />
<glyph horiz-adv-x="477" d="M99 455h538v-81h-345q66 -38 66 -113.5t-55.5 -122.5t-134.5 -47t-132 22v86q50 -26 107 -26t89 24t32 70q0 107 -165 107v81zM111 -100l426 365l53 -64l-350 -301h-129zM501 650v-80h-525v80h525z" />
<glyph horiz-adv-x="613" d="M712 239l54 -69l-319 -294h-130zM718 246h-269q21 -33 21 -78q0 -69 -48 -112.5t-126.5 -43.5t-135.5 43v-104h-95v231h88v-3q18 -40 55.5 -65.5t78.5 -25.5t64 20.5t23 56.5q0 70 -109 76q-89 3 -139 31t-50 95.5t48.5 102.5t127.5 35h83v65h-359v80h662v-80h-207v-145 l-5 1v-1h-168q-84 0 -84 -53q0 -26 23.5 -36.5t76.5 -12.5h444v-77z" />
<glyph horiz-adv-x="509" d="M574 265l47 -65l-341 -300h-132zM575 266h-180q-11 -74 -70 -122.5t-148.5 -48.5t-150.5 36v90q69 -42 138.5 -42t102.5 32t33 84t-30.5 81.5t-80 29.5t-85.5 -16v82q33 14 86 14q82 0 134.5 -36.5t67.5 -102.5h183v-81zM534 650v-80h-558v80h558z" />
<glyph horiz-adv-x="504" d="M420 570v-191q-32 6 -77 6q-87 0 -138.5 -38t-51.5 -106.5t46.5 -104.5t123.5 -36t143 40v-88q-34 -19 -88 -29l114 -147h-116l-89 129l-92 -129h-116l123 160q-70 24 -109.5 77t-39.5 129q0 96 69 158t182 63h20v107h-348v80h553v-80h-109zM240 -191h99l141 -168h-117z " />
<glyph horiz-adv-x="567" d="M592 570h-239v-117q75 -17 120.5 -66t45.5 -121t-38 -121t-105 -71l120 -155h-117l-90 128l-90 -128h-117l117 152q-69 20 -109.5 70.5t-40.5 121.5q0 88 60.5 138.5t147.5 57.5v111h-281v80h616v-80zM383 173q37 34 37 90.5t-36.5 87t-96.5 31t-100 -29.5t-40 -87.5 t38 -91.5t99.5 -34t98.5 34zM245 -148h99l141 -168h-117z" />
<glyph horiz-adv-x="527" d="M288 222l-62 -4q-71 1 -120.5 36.5t-49.5 104.5t48 104t121 35h90v72h-339v80h575v-80h-140v-152h-184q-75 0 -75 -56q0 -60 99 -62l63 3q77 -3 115.5 -42t38 -96t-32.5 -96.5t-90 -56.5l119 -154h-117l-90 128l-90 -128h-117l115 150q-58 11 -108 37v93q92 -58 198 -58 q54 0 84.5 20.5t30.5 56.5q0 63 -82 65zM208 -209h99l141 -168h-117z" />
<glyph horiz-adv-x="560" d="M441 570v-185q-57 10 -102 10q-87 0 -140 -40t-53 -107.5t43.5 -109.5t113.5 -42q49 0 81 21t32 59q0 24 -18.5 40t-58.5 16t-73 -24v75q41 22 103 22t101 -35t39 -90t-33 -95t-92 -57l118 -152h-117l-90 128l-91 -128h-116l119 155q-73 23 -116.5 80t-43.5 135 q0 102 72.5 164t190.5 64q11 0 35 -2v98h-369v80h608v-80h-143zM249 -191h99l141 -168h-117z" />
<glyph horiz-adv-x="497" d="M597 322l37 -87l-301 -258h-141zM414 570v-206q0 -89 -47 -136t-134 -47q-175 0 -175 183v206h-92v80h556v-80h-108zM154 570v-211q0 -96 81 -96q83 0 83 96v211h-164z" />
<glyph horiz-adv-x="375" d="M213 473q94 0 161 -56.5t87 -157.5l3 -6l-337 -209l-51 73l291 178q-55 93 -157 94q-78 0 -153 -43v89q62 38 156 38zM400 650v-80h-424v80h424z" />
<glyph horiz-adv-x="444" d="M378 507q0 -152 -237 -213q28 -104 155.5 -104t213.5 141l62 -67l-349 -309h-130l174 157q-94 5 -161.5 66.5t-77.5 170.5q135 31 196 66.5t61 92.5q0 30 -15 49.5t-45 19.5t-45 -18t-15 -40.5t12 -61.5h-93q-12 32 -12 65q0 56 41.5 95.5t111.5 39.5t111.5 -42 t41.5 -108z" />
<glyph horiz-adv-x="563" d="M-24 650h612v-80h-118v-169h-185q-63 0 -100.5 -33.5t-37.5 -92t33 -92.5t87.5 -34t88 30.5t37.5 81.5h93v-271h-95v131l-184 -177h-125l135 130q-79 12 -125 67t-46 139.5t61 142t171 57.5h95v90h-397v80zM514 -291h-117l-123 168h99z" />
<glyph horiz-adv-x="445" d="M115 127q-53 41 -53 101.5t38 95t98 39.5q-129 10 -129 111q0 66 57 96h-150v80h319v-80h-1q-61 0 -94.5 -25t-33.5 -66q0 -76 123 -76h47v-81h-56q-53 0 -86.5 -22t-33.5 -59.5t31.5 -58t88.5 -20.5q131 0 231 152l63 -61l-340 -298h-136l155 129q-85 2 -138 43z" />
<glyph horiz-adv-x="298" d="M148 374q-18 0 -25 -9t-7 -38t11 -65h-79q-30 53 -30 101t23.5 69.5t70.5 21.5h335v-69l15 -21l-303 -304h-119l317 314h-209zM322 650v-80h-346v80h346z" />
<glyph horiz-adv-x="331" d="M71 391v179h-95v80h380v-80h-188v-182q0 -63 24 -91.5t73 -28.5q82 0 145 114l47 -57l-301 -325h-124l180 196q-141 17 -141 195z" />
<glyph horiz-adv-x="607" d="M478 570v-126q46 46 121 46q119 0 173 -105l-74 -53q-33 80 -111 80q-47 0 -78 -29t-31 -76v-307h-97v246l-225 -246h-124l178 196q-139 21 -139 195v179h-95v80h655v-80h-153zM168 570v-182q0 -63 24 -91.5t73 -28.5t82.5 34t33.5 94v174h-213z" />
<glyph horiz-adv-x="375" d="M108.5 150q-53.5 56 -53.5 143.5t62 147t161 59.5q40 0 82 -10v-84q-39 12 -76 12t-67 -14l198 -184q22 27 40 61l53 -70l-300 -276h-133l165 151q-78 8 -131.5 64zM175 369q-24 -33 -24 -86.5t36.5 -89.5t91.5 -36t95 26zM399 650v-80h-423v80h423z" />
<glyph horiz-adv-x="378" d="M211 402h309v-79l-323 -363h-130l341 363h-197v-134h-85l-28 62q-27 61 -27 86q0 49 44 60v117q0 60 -46 60q-30 0 -56 -14v78q32 17 75 17q123 0 123 -127v-126z" />
<glyph horiz-adv-x="396" d="M210 402h317v-85l-314 -357h-132l328 357h-199v-130h-83l-28 63q-28 63 -28 90q0 47 44 57v173h-139v80h445v-80h-211v-168z" />
<glyph horiz-adv-x="385" d="M409 570h-128q24 -36 24 -90q0 -118 -144 -163q14 -50 53 -79.5t92 -29.5q93 0 166 108l46 -65l-319 -296h-138l191 177q-80 12 -135.5 73.5t-68.5 165.5q80 13 120.5 42.5t40.5 76t-30 80.5h-203v80h433v-80z" />
<glyph horiz-adv-x="364" d="M389 570h-413v80h413v-80zM324 390q-27 9 -67.5 9t-73 -31t-32.5 -83.5t33 -84.5t85.5 -32t94.5 31.5t83 93.5l52 -65l-305 -293h-132l166 159q-75 6 -125 57.5t-50 135t57 139.5t148 56q34 0 66 -7v-85z" />
<glyph horiz-adv-x="537" d="M302 570v-145q56 27 116 27q135 0 217 -125l-48 -54l-3 4l-150 -159h-121l217 214q-51 39 -118.5 39t-152.5 -54q-35 -32 -94 -38h-10l175 -279h-112l-176 278v73h68q54 0 75 22t21 67v130h-230v80h812v-80h-486z" />
<glyph horiz-adv-x="548" d="M450 570v-133q45 45 121.5 45t128.5 -52l-68 -69q-28 43 -83 43q-41 0 -70 -29.5t-29 -73.5v-301h-98v138l-166 -183h-116l134 142q-69 10 -111 58.5t-42 129.5t58.5 134t146.5 53q16 0 23 -2v-80q-12 2 -19 2q-49 0 -80.5 -31t-31.5 -80.5t28.5 -80t73 -30.5t73.5 29.5 t29 73.5v297h-376v80h596v-80h-122zM296 -69q25 0 42.5 -17.5t17.5 -42.5t-17.5 -42t-43 -17t-42 17t-16.5 42t17 42.5t42 17.5z" />
<glyph horiz-adv-x="578" d="M477 214q-58 0 -98 37t-40 98.5t47 103.5t116 42q93 0 145.5 -51.5t52.5 -133.5q0 -114 -116 -207l-266 -212h-145l199 157q-119 7 -198.5 74.5t-120.5 184.5v78h67q45 0 58 18t13 68v99h-215v80h626v-80h-315v-115q0 -71 -25 -106q-25 -36 -97 -42q22 -78 86.5 -128 t154 -50t148 46.5t58.5 126.5q0 55 -25.5 86.5t-68.5 31.5t-65 -20.5t-22 -49.5t17 -46t41 -17t41 8v-70q-27 -11 -53 -11zM547 -60q25 0 42.5 -17.5t17.5 -42.5t-17.5 -42t-42.5 -17t-42 16.5t-17 42t17 43t42 17.5z" />
<glyph horiz-adv-x="377" d="M399 33q25 0 42.5 -17.5t17.5 -42.5t-17.5 -42t-42.5 -17t-42 17t-17 42t17 42.5t42 17.5zM457 341l45 -81l-328 -280h-133zM97 288q55 0 55 61v221h-176v80h426v-80h-154v-228q0 -66 -34.5 -100.5t-96.5 -34.5q-41 0 -78 13v82q28 -14 58 -14z" />
<glyph horiz-adv-x="401" d="M446 7q25 0 42.5 -17.5t17.5 -42.5t-17.5 -42t-43 -17t-42 17t-16.5 42t17 42.5t42 17.5zM65 243q0 54 34.5 88t94.5 43q-51 3 -85.5 31.5t-34.5 79t38 85.5h-136v80h449v-80h-206q-48 -29 -48 -80q0 -74 115 -74h46v-83h-56q-53 0 -83.5 -22.5t-30.5 -62.5t33 -60.5 t80 -20.5q73 0 130.5 48.5t86.5 110.5l51 -95l-320 -276h-132l154 136q-75 1 -127.5 41t-52.5 111z" />
<glyph horiz-adv-x="598" d="M-24 650h646v-80h-213v-152h-184q-75 0 -75 -56q0 -31 29.5 -44t100.5 -15q185 -5 185 -143q0 -54 -34 -94t-95 -56l143 -174h-117l-94 124l-95 -124h-116l137 167q-78 10 -139 42v93q92 -58 198 -58q54 0 84.5 20.5t30.5 56t-28 49.5t-95 16q-191 7 -191 138 q0 68 48 103t121 35h90v72h-337v80zM520 410q25 0 42.5 -17.5t17.5 -42.5t-17 -42t-43 -17t-42.5 16.5t-16.5 42t17 43t42 17.5zM265 -201h99l141 -168h-117zM173 -195q25 0 42.5 -17.5t17.5 -42.5t-17.5 -42t-42.5 -17t-42 17t-17 42t17 42.5t42 17.5z" />
<glyph horiz-adv-x="417" d="M446 17q25 0 42.5 -17.5t17.5 -42.5t-17.5 -42t-43 -17t-42 17t-16.5 42t17 42.5t42 17.5zM91 259q0 82 72 120h-135v81h347v-81q-100 0 -145 -31t-45 -78t30.5 -71t84.5 -24t106 39t87 99l47 -75l-322 -283h-132l164 146q-69 5 -114 48t-45 110zM442 650v-80h-466v80 h466z" />
<glyph horiz-adv-x="639" d="M663 570h-149v-107q76 -47 76 -143.5t-53.5 -162t-142.5 -89.5l143 -174h-117l-94 124l-95 -124h-116l135 164q-85 10 -138 53.5t-53 112.5q0 54 33 88t89 39q-44 5 -75 38.5t-31 88.5t41 92h-140v80h687v-80zM424 570h-197q-56 -36 -56 -96q0 -38 26.5 -61.5t66.5 -23.5 h31v-82h-37q-50 0 -76 -21t-26 -61t40 -65t101 -25q87 0 141 46t54 127q0 48 -26.5 75.5t-75.5 27.5q-25 0 -45 -6v78q20 7 46.5 7t32.5 -1v81zM330 -143h99l141 -168h-117zM242 -140q25 0 42.5 -17.5t17.5 -42.5t-17.5 -42t-43 -17t-42 16.5t-16.5 42t17 43t42 17.5z" />
<glyph horiz-adv-x="477" d="M99 455h538v-81h-345q66 -38 66 -113.5t-55.5 -122.5t-134.5 -47t-132 22v86q50 -26 107 -26t89 24t32 70q0 107 -165 107v81zM111 -100l426 365l53 -64l-350 -301h-129zM516 -3q25 0 42.5 -17.5t17.5 -42.5t-17.5 -42t-43 -17t-42 17t-16.5 42t17 42.5t42 17.5zM501 650 v-80h-525v80h525z" />
<glyph horiz-adv-x="613" d="M697 -39q25 0 42.5 -17.5t17.5 -42.5t-17.5 -42t-42.5 -17t-42 17t-17 42t17 42.5t42 17.5zM712 239l54 -69l-319 -294h-130zM718 246h-269q21 -33 21 -78q0 -69 -48 -112.5t-126.5 -43.5t-135.5 43v-104h-95v231h88v-3q18 -40 55.5 -65.5t78.5 -25.5t64 20.5t23 56.5 q0 70 -109 76q-89 3 -139 31t-50 95.5t48.5 102.5t127.5 35h83v65h-359v80h662v-80h-207v-145l-5 1v-1h-168q-84 0 -84 -53q0 -26 23.5 -36.5t76.5 -12.5h444v-77z" />
<glyph horiz-adv-x="509" d="M538 -3q25 0 42.5 -17.5t17.5 -42.5t-17.5 -42t-43 -17t-42 17t-16.5 42t17 42.5t42 17.5zM574 265l47 -65l-341 -300h-132zM575 266h-180q-11 -74 -70 -122.5t-148.5 -48.5t-150.5 36v90q69 -42 138.5 -42t102.5 32t33 84t-30.5 81.5t-80 29.5t-85.5 -16v82q33 14 86 14 q82 0 134.5 -36.5t67.5 -102.5h183v-81zM534 650v-80h-558v80h558z" />
<glyph horiz-adv-x="537" d="M453 570v-191q-31 6 -77 6q-87 0 -138.5 -38t-51.5 -106.5t46.5 -104.5t123.5 -36t143 40v-88q-34 -19 -88 -29l114 -147h-116l-89 129l-92 -129h-116l123 160q-70 24 -109.5 77t-39.5 129q0 96 69 158t182 63h20v107h-381v80h586v-80h-109zM273 -191h99l141 -168h-117z M33 65q25 0 42.5 -17.5t17.5 -42.5t-17.5 -42t-42.5 -17t-42 17t-17 42t17 42.5t42 17.5z" />
<glyph horiz-adv-x="613" d="M638 570h-238v-117q74 -17 119.5 -66t45.5 -121t-38 -121.5t-105 -70.5l120 -155h-117l-90 128l-90 -128h-117l118 152q-70 20 -110.5 70.5t-40.5 121.5q0 88 60.5 138.5t147.5 57.5v111h-327v80h662v-80zM429 172.5q37 33.5 37 90.5t-36.5 87.5t-96.5 31t-99.5 -29.5 t-39.5 -87.5t37.5 -91.5t99 -34t98.5 33.5zM291 -148h99l141 -168h-117zM37 95q25 0 42.5 -17.5t17.5 -42.5t-17.5 -42t-42.5 -17t-42 17t-17 42t17 42.5t42 17.5z" />
<glyph horiz-adv-x="579" d="M340 222l-62 -4q-70 1 -119.5 37t-49.5 104.5t48 103.5t121 35h90v72h-392v80h628v-80h-140v-152h-184q-75 0 -75 -56q0 -60 99 -62l63 3q77 -3 115 -42t37.5 -96t-32.5 -96t-89 -57l119 -154h-117l-90 128l-91 -128h-116l115 150q-58 11 -108 37v93q92 -58 198 -58 q54 0 84.5 20.5t30.5 56.5q0 63 -83 65zM261 -209h99l141 -168h-117zM15 24q25 0 42.5 -17.5t17.5 -42.5t-17.5 -42t-42.5 -17t-42 16.5t-17 42t17 43t42 17.5z" />
<glyph horiz-adv-x="609" d="M489 570v-185q-57 10 -101 10q-87 0 -140.5 -40t-53.5 -107t44 -109.5t113 -42.5q49 0 81 21t32 59q0 24 -18.5 40t-57.5 16t-74 -24v75q42 22 103.5 22t101 -35t39.5 -90t-33 -95t-92 -57l117 -152h-117l-90 128l-90 -128h-117l119 155q-73 23 -116.5 80t-43.5 135 q0 102 72.5 164t190.5 64q11 0 35 -2v98h-417v80h657v-80h-144zM297 -191h99l141 -168h-117zM49 64q25 0 42.5 -17.5t17.5 -42.5t-17.5 -42t-42.5 -17t-42 16.5t-17 42t17 43t42 17.5z" />
<glyph horiz-adv-x="497" d="M552 12q25 0 42.5 -17.5t17.5 -42.5t-17.5 -42t-43 -17t-42 16.5t-16.5 42t17 43t42 17.5zM597 322l37 -87l-301 -258h-141zM414 570v-206q0 -89 -47 -136t-134 -47q-175 0 -175 183v206h-92v80h556v-80h-108zM154 570v-211q0 -96 81 -96q83 0 83 96v211h-164z" />
<glyph horiz-adv-x="375" d="M374 62q25 0 42.5 -17.5t17.5 -42.5t-17.5 -42t-43 -17t-42 16.5t-16.5 42t17 43t42 17.5zM213 473q94 0 161 -56.5t87 -157.5l3 -6l-337 -209l-51 73l291 178q-55 93 -157 94q-78 0 -153 -43v89q62 38 156 38zM400 650v-80h-424v80h424z" />
<glyph horiz-adv-x="444" d="M420 -45q0 25 17 42.5t42 17.5t42.5 -17.5t17.5 -42.5t-17.5 -42t-42.5 -17t-42 17t-17 42zM378 507q0 -152 -237 -213q28 -104 155.5 -104t213.5 141l62 -67l-349 -309h-130l174 157q-94 5 -161.5 66.5t-77.5 170.5q135 31 196 66.5t61 92.5q0 30 -15 49.5t-45 19.5 t-45 -18t-15 -40.5t12 -61.5h-93q-12 32 -12 65q0 56 41.5 95.5t111.5 39.5t111.5 -42t41.5 -108z" />
<glyph horiz-adv-x="563" d="M115 -191q0 25 17 42.5t42 17.5t42.5 -17.5t17.5 -42.5t-17.5 -42t-43 -17t-42 17t-16.5 42zM-24 650h612v-80h-118v-169h-185q-63 0 -100.5 -33.5t-37.5 -92t33 -92.5t87.5 -34t88 30.5t37.5 81.5h93v-271h-95v131l-184 -177h-125l135 130q-79 12 -125 67t-46 139.5 t61 142t171 57.5h95v90h-397v80zM524 -291h-117l-123 168h99z" />
<glyph horiz-adv-x="608" d="M489 570v-185q-57 10 -101 10q-87 0 -140.5 -40t-53.5 -107t44 -109.5t113 -42.5q49 0 81 21t32 59q0 24 -18.5 40t-57.5 16t-74 -24v75q42 22 103.5 22t101 -35t39.5 -90t-33 -95t-92 -57l117 -152h-117l-90 128l-90 -128h-117l119 155q-73 23 -116.5 80t-43.5 135 q0 102 72.5 164t190.5 64q11 0 35 -2v98h-417v80h657v-80h-144zM297 -191h99l141 -168h-117zM39 68q25 0 42.5 -17.5t17.5 -42.5t-17.5 -42t-42.5 -17t-42 16.5t-17 42t17 43t42 17.5z" />
<glyph horiz-adv-x="298" d="M313 42q25 0 42.5 -17.5t17.5 -42.5t-17.5 -42t-42.5 -17t-42 16.5t-17 42t17 43t42 17.5zM148 374q-18 0 -25 -9t-7 -38t11 -65h-79q-30 53 -30 101t23.5 69.5t70.5 21.5h335v-69l15 -21l-303 -304h-119l317 314h-209zM322 650v-80h-346v80h346z" />
<glyph horiz-adv-x="331" d="M355 47q25 0 42.5 -17.5t17.5 -42.5t-17.5 -42t-42.5 -17t-42 17t-17 42t17 42.5t42 17.5zM71 391v179h-95v80h380v-80h-188v-182q0 -63 24 -91.5t73 -28.5q82 0 145 114l47 -57l-301 -325h-124l180 196q-141 17 -141 195z" />
<glyph horiz-adv-x="607" d="M478 570v-126q46 46 121 46q119 0 173 -105l-74 -53q-33 80 -111 80q-47 0 -78 -29t-31 -76v-307h-97v246l-225 -246h-124l178 196q-139 21 -139 195v179h-95v80h655v-80h-153zM168 570v-182q0 -63 24 -91.5t73 -28.5t82.5 34t33.5 94v174h-213zM263 -54q25 0 42.5 -17.5 t17.5 -42.5t-17.5 -42t-42.5 -17t-42 16.5t-17 42t17 43t42 17.5z" />
<glyph horiz-adv-x="375" d="M437 -13q25 0 42.5 -17.5t17.5 -42.5t-17.5 -42t-42.5 -17t-42 17t-17 42t17 42.5t42 17.5zM108.5 150q-53.5 56 -53.5 143.5t62 147t161 59.5q40 0 82 -10v-84q-39 12 -76 12t-67 -14l198 -184q22 27 40 61l53 -70l-300 -276h-133l165 151q-78 8 -131.5 64zM175 369 q-24 -33 -24 -86.5t36.5 -89.5t91.5 -36t95 26zM399 650v-80h-423v80h423z" />
<glyph horiz-adv-x="378" d="M211 402h309v-79l-323 -363h-130l341 363h-197v-134h-85l-28 62q-27 61 -27 86q0 49 44 60v117q0 60 -46 60q-30 0 -56 -14v78q32 17 75 17q123 0 123 -127v-126zM413 17q25 0 42.5 -17.5t17.5 -42.5t-17.5 -42t-42.5 -17t-42 17t-17 42t17 42.5t42 17.5z" />
<glyph horiz-adv-x="396" d="M210 402h317v-85l-314 -357h-132l328 357h-199v-130h-83l-28 63q-28 63 -28 90q0 47 44 57v173h-139v80h445v-80h-211v-168zM436 21q25 0 42.5 -17.5t17.5 -42.5t-17.5 -42t-43 -17t-42 17t-16.5 42t17 42.5t42 17.5z" />
<glyph horiz-adv-x="385" d="M393.5 -88.5q-16.5 16.5 -16.5 42t17 43t42 17.5t42.5 -17.5t17.5 -42.5t-17.5 -42t-43 -17t-42 16.5zM409 570h-128q24 -36 24 -90q0 -118 -144 -163q14 -50 53 -79.5t92 -29.5q93 0 166 108l46 -65l-319 -296h-138l191 177q-80 12 -135.5 73.5t-68.5 165.5 q80 13 120.5 42.5t40.5 76t-30 80.5h-203v80h433v-80z" />
<glyph horiz-adv-x="364" d="M365 -49q0 25 17 42.5t42 17.5t42.5 -17.5t17.5 -42.5t-17.5 -42t-43 -17t-42 17t-16.5 42zM389 570h-413v80h413v-80zM324 390q-27 9 -67.5 9t-73 -31t-32.5 -83.5t33 -84.5t85.5 -32t94.5 31.5t83 93.5l52 -65l-305 -293h-132l166 159q-75 6 -125 57.5t-50 135 t57 139.5t148 56q34 0 66 -7v-85z" />
<glyph horiz-adv-x="1302" d="M1327 570h-367v-133q45 45 121.5 45t128 -51t51.5 -137t-58.5 -139t-146.5 -53q-11 0 -23 2v80q6 -1 19 -1q50 0 81 30.5t31 80t-28.5 80t-73 30.5t-73.5 -29.5t-29 -73.5v-301h-97v137q-47 -45 -122.5 -45t-127.5 51.5t-52 125t33 120.5q-22 15 -59 15t-66 -29.5 t-29 -73.5v-301h-97v137q-47 -45 -122.5 -45t-127.5 51.5t-52 137t58.5 138.5t146.5 53q16 0 23 -2v-80q-10 2 -19 2q-49 0 -80.5 -31t-31.5 -80.5t29 -80t73 -30.5t73.5 29.5t29.5 73.5v297h-367v80h1351v-80zM863 273v297h-423v-133q45 45 112 45t113 -32q47 22 101 22 q16 0 23 -2v-80q-10 2 -19 2q-49 0 -80.5 -31t-31.5 -80.5t29 -80t73 -30.5t73.5 29.5t29.5 73.5z" />
<glyph horiz-adv-x="1379" d="M1404 650v-80h-111v-570h-98v165q-44 -40 -114 -40t-120 48t-50 125t51 124.5t125 47.5q20 0 42 -4v-76q-9 3 -29 3q-42 0 -69 -27.5t-27 -70.5t26.5 -69t68 -26t69 26.5t27.5 72.5v271h-302v-136q0 -70 -41 -112q-43 -42 -124 -49l214 -273h-117l-211 272v52 q-1 35 -22 57.5t-59 22.5t-65.5 -29t-27.5 -74v-301h-97v137q-47 -45 -122.5 -45t-127.5 51.5t-52 137t58.5 138.5t146.5 53q16 0 23 -2v-80q-10 2 -19 2q-49 0 -80.5 -31t-31.5 -80.5t29 -80t73 -30.5t73.5 29.5t29.5 73.5v297h-367v80h1428zM797 441v129h-357v-131 q43 43 104 43t103.5 -35.5t52.5 -95.5q97 6 97 90z" />
<glyph horiz-adv-x="1169" d="M1194 650v-80h-112v-570h-96v172q-24 -37 -70 -60.5t-120.5 -24t-127 44.5t-52.5 122.5t70 114.5h-89q-30 35 -71 35t-63.5 -28.5t-22.5 -74.5v-301h-97v137q-47 -45 -122.5 -45t-127.5 51.5t-52 137t58.5 138.5t146.5 53q16 0 23 -2v-80q-10 2 -19 2q-49 0 -80.5 -31 t-31.5 -80.5t29 -80t73 -30.5t73.5 29.5t29.5 73.5v297h-367v80h1218zM986 316v254h-546v-127q37 39 99 39t104 -32h257v-81q-100 0 -145 -30.5t-45 -77.5t30.5 -71t80.5 -24q77 0 121 47t44 103z" />
<glyph horiz-adv-x="1169" d="M1194 650v-80h-111v-570h-97v374h-185q69 -41 69 -128t-55 -136t-145 -49q-68 0 -123 22v86q50 -26 107 -26t89.5 28t32.5 81.5t-37 84.5t-105 36l-12 -12q-4 7 -10 13h-1v1q-27 29 -70 29t-72 -29.5t-29 -73.5v-301h-97v137q-47 -45 -122.5 -45t-127.5 51.5t-52 137 t58.5 138.5t146.5 53q16 0 23 -2v-80q-10 2 -19 2q-49 0 -80.5 -31t-31.5 -80.5t29 -80t73 -30.5t73.5 29.5t29.5 73.5v297h-367v80h1218zM986 455v115h-546v-133q45 45 108.5 45t109.5 -27h328z" />
<glyph horiz-adv-x="1033" d="M951 570v-191q-28 6 -78 6q-87 0 -138.5 -38t-51.5 -106.5t47 -104.5t124 -36q38 0 78.5 12t64.5 27v-88q-64 -33 -148 -33q-121 0 -193 59.5t-72 164.5q0 69 38 123q-28 39 -76 39t-77 -29.5t-29 -73.5v-301h-97v137q-47 -45 -122.5 -45t-127.5 51.5t-52 137t58.5 138.5 t146.5 53q16 0 23 -2v-80q-10 2 -19 2q-49 0 -80.5 -31t-31.5 -80.5t29 -80t73 -30.5t73.5 29.5t29.5 73.5v297h-367v80h1081v-80h-106zM440 570v-133q45 45 113 45q89 0 139 -55q61 35 143 36h20v107h-415z" />
<glyph horiz-adv-x="1307" d="M1332 650v-80h-112v-570h-96v570h-149v-219q0 -89 -47 -136t-134 -47q-175 0 -175 182v16q-26 38 -73.5 38t-76.5 -29.5t-29 -73.5v-301h-97v137q-47 -45 -122.5 -45t-127.5 51.5t-52 137t58.5 138.5t146.5 53q16 0 23 -2v-80q-10 2 -19 2q-49 0 -80.5 -31t-31.5 -80.5 t29 -80t73 -30.5t73.5 29.5t29.5 73.5v297h-367v80h1356zM440 570v-133q45 45 113 45q37 0 66 -10v98h-179zM879 346v224h-164v-224q0 -96 81 -96q83 0 83 96z" />
<glyph horiz-adv-x="918" d="M942 570h-398v-164q47 47 133.5 47t144 -58.5t57.5 -154.5t-58.5 -156t-151.5 -60q-21 0 -31 3v80q14 -2 27 -2q54 0 85.5 35.5t31.5 100t-35 99.5t-85.5 35t-84 -31t-33.5 -77v-267h-97v375h-70q-172 0 -172 -151q0 -65 34 -102t98 -37q11 0 21 2v-83q-16 -2 -32 -2 q-98 0 -158.5 59t-60.5 159t64 154h-105v81h381v115h-471v80h966v-80z" />
<glyph horiz-adv-x="1237" d="M1054 650h203v-80h-107v-570h-96v189q-20 -33 -71 -59.5t-113 -26.5q-98 0 -170 61t-86 174q-17 66 -80 66q-41 0 -67.5 -29t-26.5 -74v-301h-97v137q-47 -45 -122.5 -45t-127.5 51.5t-52 137t58.5 138.5t146.5 53q16 0 23 -2v-80q-10 2 -19 2q-49 0 -80.5 -31 t-31.5 -80.5t29 -80t73 -30.5t73.5 29.5t29.5 73.5v297h-367v80h597v-80h-133v-131q43 43 102.5 43t98 -30.5t55.5 -81.5q90 26 132 58.5t42 79.5q0 30 -15 49.5t-45 19.5t-45 -18t-15 -41.5t8 -47.5h-93q-9 30 -9 52q0 56 42 95.5t112 39.5t111 -42t41 -108 q0 -152 -237 -213q15 -53 54.5 -80.5t104 -27.5t117.5 45t53 133v286z" />
<glyph horiz-adv-x="1071" d="M955 570v-152h-184q-75 0 -75 -56q0 -31 29.5 -44t100.5 -15q185 -5 185 -143q0 -71 -57.5 -116t-161 -45t-191.5 46v93q92 -58 198 -58q54 0 84.5 20.5t30.5 56t-28 49.5t-95 16q-191 7 -191 138q0 8 2 24q-27 20 -65.5 20t-67.5 -29.5t-29 -73.5v-301h-97v137 q-47 -45 -122.5 -45t-127.5 51.5t-52 137t58.5 138.5t146.5 53q16 0 23 -2v-80q-10 2 -19 2q-49 0 -80.5 -31t-31.5 -80.5t29 -80t73 -30.5t73.5 29.5t29.5 73.5v297h-367v80h1119v-80h-140zM769 498h90v72h-419v-133q45 45 105.5 45t100.5 -21q47 37 123 37z" />
<glyph horiz-adv-x="1107" d="M1132 650v-80h-112v-570h-97v228q-48 -53 -128 -54q-181 0 -182 199q-28 31 -71.5 31t-72.5 -29.5t-29 -73.5v-301h-97v137q-47 -45 -122.5 -45t-127.5 51.5t-52 137t58.5 138.5t146.5 53q16 0 23 -2v-80q-10 2 -19 2q-49 0 -80.5 -31t-31.5 -80.5t29 -80t73 -30.5 t73.5 29.5t29.5 73.5v297h-367v80h1156zM440 570v-133q45 45 113 45q30 0 60 -8v96h-173zM923 380v190h-213v-198q0 -63 24 -91t73 -28t82.5 34t33.5 93z" />
<glyph horiz-adv-x="1354" d="M1378 570h-358v-127q46 46 124 46t127.5 -52t49.5 -138.5t-58.5 -138t-145.5 -51.5q-10 0 -24 2v80q12 -2 19 -2q51 0 82 30t31 80.5t-28 80.5t-72.5 30t-74.5 -29t-30 -75v-306h-97v229q-47 -52 -132.5 -52t-131.5 46t-46 149v1q-28 31 -71.5 31t-72.5 -29.5t-29 -73.5 v-301h-97v137q-47 -45 -122.5 -45t-127.5 51.5t-52 137t58.5 138.5t146.5 53q16 0 23 -2v-80q-10 2 -19 2q-49 0 -80.5 -31t-31.5 -80.5t29 -80t73 -30.5t73.5 29.5t29.5 73.5v297h-367v80h1402v-80zM440 570v-133q45 45 113 45q30 0 60 -8v96h-173zM923 380v190h-213v-198 q0 -63 24 -90t73 -27t82.5 33t33.5 92z" />
<glyph horiz-adv-x="1112" d="M1136 650v-80h-111v-570h-95v274h-195v-132h-83l-28 64q-28 63 -28 90q0 43 44 54v29l-18 -18q-26 43 -83 43q-41 0 -70 -29.5t-29 -73.5v-301h-97v137q-47 -45 -122.5 -45t-127.5 51.5t-52 137t58.5 138.5t146.5 53q16 0 23 -2v-80q-10 2 -19 2q-49 0 -80.5 -31 t-31.5 -80.5t29 -80t73 -30.5t73.5 29.5t29.5 73.5v297h-367v80h1160zM440 570v-133q45 45 113 45q48 0 87 -18v106h-200zM930 354v216h-195v-216h195z" />
<glyph horiz-adv-x="1193" d="M1218 650v-80h-111v-570h-96v187q-47 -68 -158 -68q-83 0 -146.5 51.5t-88.5 145.5v1q-3 10 -7 32q-20 55 -77 55q-41 0 -67.5 -29t-26.5 -74v-301h-97v137q-47 -45 -122.5 -45t-127.5 51.5t-52 137t58.5 138.5t146.5 53q16 0 23 -2v-80q-10 2 -19 2q-49 0 -80.5 -31 t-31.5 -80.5t29 -80t73 -30.5t73.5 29.5t29.5 73.5v297h-367v80h1242zM440 570v-131q43 43 107 43q99 0 141 -92q80 34 80 90t-30 90h-298zM1011 342v228h-170q23 -37 23 -90q0 -118 -143 -166q12 -49 50.5 -80t99 -31t100.5 37t40 102z" />
<glyph horiz-adv-x="1287" d="M1311 650v-80h-111v-570h-97v392q-23 7 -44 7q-103 0 -103 -119v-70h-97v72q0 110 -78 110q-40 0 -65.5 -33t-25.5 -105.5t42 -122.5t126 -50q20 0 31 2v-79q-17 -4 -43 -4q-115 0 -183.5 74t-68.5 190q0 60 21 107q-28 33 -72.5 33t-73.5 -29.5t-29 -73.5v-301h-97v137 q-47 -45 -122.5 -45t-127.5 51.5t-52 137t58.5 138.5t146.5 53q16 0 23 -2v-80q-10 2 -19 2q-49 0 -80.5 -31t-31.5 -80.5t29 -80t73 -30.5t73.5 29.5t29.5 73.5v297h-367v80h1335zM1103 570h-663v-133q45 45 114 45t120 -38q42 28 97.5 28t91.5 -25t45 -67q25 97 144 97 q27 0 51 -8v101z" />
<glyph horiz-adv-x="1109" d="M1134 650v-80h-112v-570h-96v155q-54 -66 -146 -66t-151 52.5t-59 143.5q0 57 28 104q-25 15 -61 15t-65 -29.5t-29 -73.5v-301h-97v137q-47 -45 -122.5 -45t-127.5 51.5t-52 137t58.5 138.5t146.5 53q16 0 23 -2v-80q-10 2 -19 2q-49 0 -80.5 -31t-31.5 -80.5t29 -80 t73 -30.5t73.5 29.5t29.5 73.5v297h-367v80h1155zM926 307v263h-483v-133q45 45 110.5 45t109.5 -29q49 29 112 29q36 0 66 -7v-85q-27 9 -67 9t-73 -31t-33 -83.5t33 -84.5t89.5 -32t96 41t39.5 98z" />
<glyph horiz-adv-x="1249" d="M1065 650h208v-80h-111v-570h-97v650zM440 570v-133q45 45 113 45q49 0 87 -18q-6 23 -6 44q0 60 42.5 102.5t118 42.5t123.5 -52t48 -129q0 -105 -71 -163t-166 -58h-17l231 -251h-126l-221 247v84h102q82 0 127 37t45 104q0 99 -79 99q-32 0 -48 -20.5t-16 -50 t15 -59.5h-64q4 -3 12 -11l-68 -69q-26 43 -83 43q-41 0 -70 -29.5t-29 -73.5v-301h-97v137q-47 -45 -122.5 -45t-127.5 51.5t-52 137t58.5 138.5t146.5 53q16 0 23 -2v-80q-10 2 -19 2q-49 0 -80.5 -31t-31.5 -80.5t29 -80t73 -30.5t73.5 29.5t29.5 73.5v297h-367v80h575 v-80h-111z" />
<glyph horiz-adv-x="1249" d="M1273 650v-80h-111v-570h-96v259h-163q-96 0 -157 9l185 -268h-117l-188 278v51h-1q-4 37 -28.5 56t-63.5 19t-66 -28.5t-27 -74.5v-301h-97v137q-47 -45 -122.5 -45t-127.5 51.5t-52 137t58.5 138.5t146.5 53q16 0 23 -2v-80q-10 2 -19 2q-49 0 -80.5 -31t-31.5 -80.5 t29 -80t73 -30.5t73.5 29.5t29.5 73.5v297h-367v80h1297zM440 570v-131q43 43 107 43q134 0 169 -130q41 5 57 26.5t16 61.5v130h-349zM1066 339v231h-181v-134q0 -60 -24 -97h205z" />
<glyph horiz-adv-x="1370" d="M1394 650v-80h-111v-570h-97v123q-81 -88 -218 -88q-179 0 -286 154q-34 -70 -107 -112t-169 -42q-127 0 -217 74t-130 193v78h67q45 0 58.5 19t13.5 70v101h-222v80h1418zM485 210q-58 0 -98 37t-40 99t47 105.5t116 43.5t116.5 -30t68.5 -85q44 0 57.5 19.5t13.5 69.5 v101h-472v-118q0 -67 -23.5 -103.5t-80.5 -42.5q-12 -3 -19 -3q22 -79 88 -130.5t157 -51.5t147.5 48.5t56.5 130.5q0 54 -26.5 87t-70 33t-64.5 -21.5t-21 -51.5t17.5 -47t41.5 -17t40 8v-71q-27 -10 -52 -10zM1186 570h-324v-118q0 -70 -25 -106t-85 -42q-2 0 -13 -1 q21 -79 86.5 -130.5t155 -51.5t150.5 50t61 131q0 54 -28 86t-71.5 32t-65 -21.5t-21.5 -51.5t17.5 -47t41 -17t40.5 8v-71q-28 -10 -53 -10q-58 0 -98 37t-40 99t47 105.5t114 43.5t111 -32v107z" />
<glyph horiz-adv-x="1157" d="M1181 650v-80h-111v-570h-97v377h-87q-166 0 -166 -146q0 -69 33 -108.5t99 -39.5q16 0 21 1v-82q-18 -2 -33 -2q-73 0 -124 34.5t-75 94.5q-88 -94 -235 -94q-127 0 -217 74t-130 193v78h67q45 0 58.5 19t13.5 70v101h-222v80h1205zM973 458v112h-679v-118 q0 -67 -23.5 -103.5t-80.5 -42.5q-12 -3 -19 -3q22 -79 88 -130.5t157 -51.5t147.5 48.5t56.5 130.5q0 54 -26.5 87t-70 33t-64.5 -21.5t-21 -51.5t17.5 -47t41.5 -17t40 8v-71q-27 -10 -52 -10q-58 0 -98 37t-40 99t47 105.5t113 43.5t112 -25.5t68 -72.5q69 61 191 61h95z " />
<glyph horiz-adv-x="1170" d="M1194 650v-80h-111v-570h-95v274h-195v-132h-83l-24 55q-33 -73 -107 -117.5t-173 -44.5q-127 0 -217 74t-130 193v78h67q45 0 58.5 19t13.5 70v101h-222v80h1218zM485 210q-58 0 -98 37t-40 99t47 105.5t117 43.5t119 -33t68 -92v200h-404v-118q0 -67 -23.5 -103.5 t-80.5 -42.5q-12 -3 -19 -3q22 -79 88 -130.5t157 -51.5t147.5 48.5t56.5 130.5q0 54 -26.5 87t-70 33t-64.5 -21.5t-21 -51.5t17.5 -47t41.5 -17t40 8v-71q-27 -10 -52 -10zM988 354v216h-195v-216h195z" />
<glyph horiz-adv-x="1200" d="M1224 650v-80h-111v-570h-96v187q-47 -68 -154.5 -68t-176.5 77q-33 -73 -107 -117t-173 -44q-127 0 -217 74t-130 193v78h67q45 0 58.5 19t13.5 70v101h-222v80h1248zM294 570v-118q0 -67 -23.5 -103.5t-80.5 -42.5q-12 -3 -19 -3q22 -79 88 -130.5t157 -51.5 t147.5 48.5t56.5 130.5q0 54 -26.5 87t-70 33t-64.5 -21.5t-21 -51.5t17.5 -47t41.5 -17t40 8v-71q-27 -10 -52 -10q-58 0 -98 37t-40 99t47 105.5t114.5 43.5t114 -27.5t68.5 -78.5q83 33 83 95q0 52 -30 86h-450zM1017 342v228h-170q23 -37 23 -90q0 -118 -143 -166 q12 -49 50.5 -80t99 -31t100.5 37t40 102z" />
<glyph horiz-adv-x="1159" d="M1184 650v-80h-112v-570h-96v155q-54 -66 -154 -66t-158 69q-39 -57 -106.5 -90t-151.5 -33q-127 0 -217 74t-130 193v78h67q45 0 58.5 19t13.5 70v101h-222v80h1208zM976 307v263h-682v-118q0 -67 -23.5 -103.5t-80.5 -42.5q-12 -3 -19 -3q22 -79 88 -130.5t157 -51.5 t147.5 48.5t56.5 130.5q0 54 -26.5 87t-70 33t-64.5 -21.5t-21 -51.5t17.5 -47t41.5 -17t40 8v-71q-27 -10 -52 -10q-58 0 -98 37t-40 99t47 105.5t119 43.5q108 0 160 -74q58 61 152 61q36 0 66 -7v-85q-27 9 -67 9t-73 -31t-33 -83.5t33 -84.5t89.5 -32t96 41t39.5 98z " />
<glyph horiz-adv-x="1318" d="M1134 650h208v-80h-111v-570h-97v650zM703 508q0 60 42.5 102.5t118 42.5t123.5 -52t48 -129q0 -105 -71 -163t-166 -58h-17l231 -251h-126l-193 215q-28 -80 -105 -130t-182 -50q-127 0 -217 74t-130 193v78h67q45 0 58.5 19t13.5 70v101h-222v80h644v-80h-326v-118 q0 -67 -23.5 -103.5t-80.5 -42.5q-12 -3 -19 -3q22 -79 88 -130.5t157 -51.5t147.5 48.5t56.5 130.5q0 54 -26.5 87t-70 33t-64.5 -21.5t-21 -51.5t17.5 -47t41.5 -17t40 8v-71q-27 -10 -52 -10q-58 0 -98 37t-40 99t47 105.5t122.5 43.5t128 -43.5t61.5 -120.5h61 q82 0 127 37t45 104q0 99 -79 99q-32 0 -48 -20.5t-16 -50t15 -59.5h-93q-15 33 -15 67z" />
<glyph horiz-adv-x="886" d="M911 650v-80h-112v-570h-95v570h-156v-228q0 -66 -35 -100.5t-86.5 -34.5t-87.5 13v82q28 -14 57 -14q56 0 56 61v221h-213v-228q0 -66 -35 -100.5t-86.5 -34.5t-87.5 13v82q28 -14 57 -14q56 0 56 61v221h-167v80h935z" />
<glyph horiz-adv-x="943" d="M967 650v-80h-111v-570h-96v172q-28 -38 -81.5 -62t-116.5 -24q-89 0 -144.5 42.5t-55.5 114.5q0 54 34.5 88t93.5 43q-51 3 -85.5 31.5t-34.5 79t38 85.5h-169v-228q0 -66 -35 -100.5t-86.5 -34.5t-87.5 13v82q28 -14 57 -14q56 0 56 61v221h-167v80h991zM760 333v237 h-245q-48 -29 -48 -80q0 -74 115 -74h46v-83h-56q-52 0 -82.5 -22.5t-30.5 -62.5t32.5 -60.5t79.5 -20.5q81 0 135 47.5t54 118.5z" />
<glyph horiz-adv-x="967" d="M991 650v-80h-111v-570h-97v374h-185q69 -41 69 -128t-55 -136t-145 -49q-68 0 -123 22v86q50 -26 107 -26t89.5 28t32.5 83.5t-43.5 87.5t-121.5 32v81h375v115h-544v-228q0 -66 -35 -100.5t-86.5 -34.5t-87.5 13v82q28 -14 57 -14q56 0 56 61v221h-167v80h1015z" />
<glyph horiz-adv-x="1070" d="M1095 650v-80h-112v-570h-96v570h-149v-219q0 -89 -47 -136t-134 -47q-175 0 -175 182v220h-143v-228q0 -66 -35 -100.5t-86.5 -34.5t-87.5 13v82q28 -14 57 -14q56 0 56 61v221h-167v80h1119zM642 346v224h-164v-224q0 -96 81 -96q83 0 83 96z" />
<glyph horiz-adv-x="871" d="M778 401h-185q-63 0 -100.5 -33.5t-37.5 -92t33 -92.5t87.5 -34t88 30.5t37.5 81.5h93v-271h-95v131q-19 -25 -56.5 -39t-78.5 -14q-95 0 -152.5 59t-57.5 148.5t61 147t171 57.5h95v90h-442v-228q0 -66 -35 -100.5t-86.5 -34.5t-87.5 13v82q28 -14 57 -14q56 0 56 61 v221h-167v80h920v-80h-118v-169z" />
<glyph horiz-adv-x="929" d="M953 650v-80h-111v-570h-96v151q-26 -38 -75.5 -61.5t-111.5 -23.5q-95 0 -153 44.5t-58 116.5q0 57 37 91t99 40q-60 5 -94 34t-34 82q0 67 57 96h-174v-228q0 -66 -35 -100.5t-86.5 -34.5t-87.5 13v82q28 -14 57 -14q56 0 56 61v221h-167v80h606v-80h-1 q-61 0 -94.5 -25t-33.5 -66t33.5 -61t88.5 -20h48v-81h-56q-57 0 -89 -22.5t-32 -62t32.5 -62.5t87.5 -23q81 0 130.5 47t49.5 114v342h207z" />
<glyph horiz-adv-x="921" d="M946 650v-80h-112v-570h-96v153q-64 -74 -172 -74q-89 0 -152.5 59t-63.5 151t62.5 151.5t160.5 59.5q40 0 82 -10v-84q-39 12 -76 12t-67 -14l199 -184q27 37 27 82v268h-499v-228q0 -66 -35 -100.5t-86.5 -34.5t-87.5 13v82q28 -14 57 -14q56 0 56 61v221h-167v80h970z M470 369q-24 -34 -24 -87t36.5 -89t92 -36t95.5 26z" />
<glyph horiz-adv-x="867" d="M685 650h207v-80h-112v-570h-95v277h-184v-134h-84l-28 62q-27 57 -27 84t12 43t31 20v162q0 60 -46 60q-13 0 -25 -3v-1h-5q-12 -3 -25 -10v10h-65v-228q0 -66 -35 -100.5t-86.5 -34.5t-87.5 13v82q28 -14 57 -14q56 0 56 61v221h-167v80h358v-1q21 6 44 6 q123 0 123 -127v-172h184v294z" />
<glyph horiz-adv-x="874" d="M898 650v-80h-111v-570h-95v274h-195v-132h-83l-28 64q-28 63 -28 90q0 43 44 54v220h-163v-228q0 -66 -35 -100.5t-86.5 -34.5t-87.5 13v82q28 -14 57 -14q56 0 56 61v221h-167v80h922zM692 354v216h-195v-216h195z" />
<glyph horiz-adv-x="950" d="M974 650v-80h-111v-570h-96v187q-47 -68 -150 -68t-170.5 66t-82.5 184q79 12 119.5 43t40.5 77.5t-30 80.5h-255v-228q0 -66 -35 -100.5t-86.5 -34.5t-87.5 13v82q28 -14 57 -14q56 0 56 61v221h-167v80h998zM767 342v228h-170q23 -37 23 -90q0 -118 -143 -166 q12 -49 50.5 -80t99 -31t100.5 37t40 102z" />
<glyph horiz-adv-x="1050" d="M1074 650v-80h-111v-570h-97v392q-23 7 -44 7q-103 0 -103 -119v-70h-97v72q0 110 -78 110q-40 0 -65.5 -33t-25.5 -105.5t42 -122.5t126 -50q20 0 31 2v-79q-17 -4 -43 -4q-115 0 -183.5 74t-68.5 190q0 93 48 150.5t129 57.5q56 0 92 -25t45 -67q25 97 144 97 q27 0 51 -8v101h-627v-228q0 -66 -35 -100.5t-86.5 -34.5t-87.5 13v82q28 -14 57 -14q56 0 56 61v221h-167v80h1098z" />
<glyph horiz-adv-x="895" d="M920 650v-80h-112v-570h-96v155q-54 -66 -146 -66t-151 52.5t-59 140.5t57 144t148 56q36 0 66 -7v-85q-27 9 -67 9t-73 -31t-33 -83.5t33 -84.5t89.5 -32t96 41t39.5 98v263h-473v-228q0 -66 -35 -100.5t-86.5 -34.5t-87.5 13v82q28 -14 57 -14q56 0 56 61v221h-167v80 h944z" />
<glyph horiz-adv-x="982" d="M1006 650v-80h-111v-570h-96v259h-163q-96 0 -157 9l185 -268h-117l-188 278v73h67q54 0 75 22t21 67v130h-283v-228q0 -66 -35 -100.5t-86.5 -34.5t-87.5 13v82q28 -14 57 -14q56 0 56 61v221h-167v80h1030zM799 339v231h-181v-134q0 -60 -24 -97h205z" />
<glyph horiz-adv-x="920" d="M944 650v-80h-111v-570h-95v274h-195v-132h-83l-9 19q-73 -75 -191 -75q-89 0 -144.5 42.5t-55.5 114.5q0 54 34.5 88t93.5 43q-51 3 -85.5 31.5t-34.5 79t38 85.5h-130v80h968zM326 333h-56q-52 0 -82.5 -22.5t-30.5 -62.5t32.5 -60.5t79.5 -20.5q98 0 152 65 q-17 41 -17 64q0 43 44 54v220h-235q-48 -29 -48 -80q0 -74 115 -74h46v-83zM738 354v216h-195v-216h195z" />
<glyph horiz-adv-x="987" d="M1011 650v-80h-111v-570h-96v187q-47 -68 -152 -68t-172 70q-86 -103 -220 -103q-89 0 -144.5 42.5t-55.5 114.5q0 54 34.5 88t93.5 43q-51 3 -85.5 31.5t-34.5 79t38 85.5h-130v80h1035zM326 333h-56q-52 0 -82.5 -22.5t-30.5 -62.5t32.5 -60.5t79.5 -20.5q103 0 168 82 q-27 51 -36 120q79 12 119.5 43t40.5 77.5t-30 80.5h-318q-48 -29 -48 -80q0 -74 115 -74h46v-83zM804 342v228h-170q23 -37 23 -90q0 -118 -143 -166q12 -49 50.5 -80t99 -31t100.5 37t40 102z" />
<glyph horiz-adv-x="1010" d="M1035 650v-80h-111v-570h-97v182q-24 -37 -70 -60.5t-112 -24.5q-114 0 -164 77q-79 -77 -194 -77q-89 0 -143.5 42.5t-54.5 122t71 117.5h-134v81h346v-81q-100 0 -144.5 -31t-44.5 -76.5t31.5 -71t81.5 -25.5q98 0 161 81v3q0 82 72 120h-105v81h317v-81 q-100 0 -145 -31t-45 -78t30.5 -71t80.5 -24q77 0 121 47.5t44 103.5v244h-851v80h1059z" />
<glyph horiz-adv-x="1036" d="M1060 570h-149v-107q76 -47 76 -155.5t-83 -180.5t-210 -72q-80 0 -140.5 28t-84.5 80q-76 -66 -173.5 -66t-152 42.5t-54.5 122t71 117.5h-134v81h346v-81q-100 0 -144.5 -31t-44.5 -76.5t31.5 -71t82 -25.5t94 24.5t70.5 61.5q10 39 40.5 62t76.5 28q-44 5 -75 38.5 t-31 88.5t41 92h-537v80h1084v-80zM821 570h-197q-56 -36 -56 -96q0 -38 26.5 -61.5t66.5 -23.5h31v-82h-37q-50 0 -76 -21t-26 -61t40 -65t101 -25q87 0 141 46t54 127q0 48 -26.5 75.5t-75.5 27.5q-25 0 -45 -6v78q20 7 46.5 7t32.5 -1v81z" />
<glyph horiz-adv-x="967" d="M991 650v-80h-111v-570h-95v274h-195v-132h-83l-18 41q-79 -86 -202 -86q-89 0 -143.5 42.5t-54.5 122t71 117.5h-134v81h346v-81q-100 0 -144.5 -31t-44.5 -76.5t31.5 -71t81 -25.5t92 22.5t70.5 59.5q-7 26 -7 39q0 43 44 54v220h-519v80h1015zM785 354v216h-195v-216 h195z" />
<glyph horiz-adv-x="1024" d="M1048 650v-80h-111v-570h-96v187q-47 -68 -157 -68t-179 83q-34 -46 -91 -75.5t-136.5 -29.5t-134 42.5t-54.5 122t71 117.5h-134v81h346v-81q-100 0 -144.5 -31t-44.5 -76.5t31.5 -71t82.5 -25.5t95.5 25.5t72.5 66.5q-19 45 -27 102q79 12 119.5 43t40.5 77.5t-30 80.5 h-592v80h1072zM841 342v228h-170q23 -37 23 -90q0 -118 -143 -166q12 -49 50.5 -80t99 -31t100.5 37t40 102z" />
<glyph horiz-adv-x="1216" d="M1249 650v-80h-120v-570h-96v122q-45 -68 -142 -68t-158.5 56.5t-75.5 168.5q146 28 146 95q0 23 -23.5 35.5t-74.5 12.5t-132 -26q17 -37 17 -83q0 -114 -83 -186t-210 -72q-103 0 -170.5 45t-67.5 124q0 54 33 88t89 39q-44 5 -75 38.5t-31 88.5t41 92h-140v80h1273z M295 307h-37q-50 0 -76 -21t-26 -61t40 -65t101 -25q87 0 141 46t54 127q0 48 -26.5 75.5t-75.5 27.5q-25 0 -45 -6v78q20 7 46.5 7t32.5 -1v81h-197q-56 -36 -56 -96q0 -38 26.5 -61.5t66.5 -23.5h31v-82zM1033 282v288h-519v-107l5 -3q42 17 99.5 27.5t98.5 10.5 q95 0 138.5 -34t43.5 -87t-36.5 -91t-92.5 -56q11 -43 44 -67t89.5 -24t93 39.5t36.5 103.5z" />
<glyph horiz-adv-x="661" d="M685 570h-138v-107q76 -45 76 -145.5t-76 -170.5v-456h-95v156q-50 -72 -154 -72q-84 0 -142.5 49.5t-58.5 135t71 135.5q-107 48 -107 141q0 51 34.5 83.5t87.5 37.5q-44 5 -75 37t-31 85.5t41 90.5h-142v80h709v-80zM452 -7v96q-58 -24 -129 -24h-8q-55 0 -88 -27.5 t-33 -78t32.5 -78.5t89.5 -28t96.5 41.5t39.5 98.5zM457 570h-229q-54 -34 -54 -93q0 -38 25.5 -59t66.5 -21h32v-82h-38q-47 0 -74.5 -20t-27.5 -52q0 -46 45.5 -71.5t126.5 -25.5t138 45.5t57 118.5q0 48 -26.5 74.5t-75.5 26.5q-25 0 -45 -6v78q20 7 46.5 7t32.5 -1v81z " />
<glyph horiz-adv-x="1213" d="M1238 570h-367v-133q45 45 121.5 45t128 -51t51.5 -137t-58.5 -139t-146.5 -53q-11 0 -23 2v80q6 -1 19 -1q50 0 81 30.5t31 80t-28.5 80t-73 30.5t-73.5 -29.5t-29 -73.5v-301h-97v137q-47 -45 -122.5 -45t-127.5 51.5t-52 133.5q0 56 23 97h-211q69 -41 69 -128 t-55 -136t-145 -49q-68 0 -123 22v86q50 -26 107 -26t89.5 28t32.5 83.5t-43.5 87.5t-121.5 32v81h460v-18q52 35 123 35q16 0 23 -2v-80q-10 2 -19 2q-49 0 -80.5 -31t-31.5 -80.5t29 -80t73 -30.5t73.5 29.5t29.5 73.5v297h-798v80h1262v-80z" />
<glyph horiz-adv-x="1052" d="M1077 650v-80h-111v-570h-97v374h-185q69 -41 69 -128t-55 -136t-145 -49q-68 0 -123 22v86q50 -26 107 -26t89.5 28t32.5 83.5t-43.5 87.5t-121.5 32h-210q69 -41 69 -128t-55 -136t-145 -49q-68 0 -123 22v86q50 -26 107 -26t89.5 28t32.5 83.5t-43.5 87.5t-121.5 32 v81h775v115h-893v80h1101z" />
<glyph horiz-adv-x="1187" d="M1212 650v-80h-111v-570h-98v245h-137q20 -32 20 -77q0 -69 -48 -112.5t-126.5 -43.5t-135.5 43v-104h-95v229h88q17 -40 54.5 -66t78.5 -26t64.5 20.5t23.5 56.5q0 70 -110 76q-88 3 -138 31t-50 96v6h-208q69 -41 69 -128t-55 -136t-145 -49q-68 0 -123 22v86 q50 -26 107 -26t89.5 28t32.5 83.5t-43.5 87.5t-121.5 32v81h430q48 49 144 49h78v66h-770v80h1236zM1003 322v248h-161v-146h-169q-84 0 -84 -52q0 -26 23 -36q21 -10 94 -14h297z" />
<glyph horiz-adv-x="916" d="M834 570v-191q-28 6 -78 6q-87 0 -138.5 -38t-51.5 -106.5t47 -104.5t124 -36q38 0 78.5 12t64.5 27v-88q-64 -33 -148 -33q-121 0 -193 59.5t-72 164.5q0 76 45 132h-228q69 -41 69 -128t-55 -136t-145 -49q-68 0 -123 22v86q50 -26 107 -26t89.5 28t32.5 83.5 t-43.5 87.5t-121.5 32v81h554q35 8 70 8h20v107h-762v80h964v-80h-106z" />
<glyph horiz-adv-x="955" d="M840 570v-152h-184q-75 0 -75 -56q0 -31 29.5 -44t100.5 -15q185 -5 185 -143q0 -71 -57.5 -116t-161 -45t-191.5 46v93q92 -58 198 -58q54 0 84.5 20.5t30.5 56t-28 49.5t-95 16q-191 7 -191 138q0 9 1 14h-202q69 -41 69 -128t-55 -136t-145 -49q-68 0 -123 22v86 q50 -26 107 -26t89.5 28t32.5 83.5t-43.5 87.5t-121.5 32v81h430q47 43 130 43h90v72h-768v80h1004v-80h-140z" />
<glyph horiz-adv-x="1018" d="M1042 650v-80h-111v-570h-97v377h-87q-166 0 -166 -146q0 -69 33 -108.5t99 -39.5q16 0 21 1v-82q-18 -2 -33 -2q-101 0 -159.5 65t-58.5 160.5t47 151.5h-244q67 -41 67 -127.5t-55 -135.5t-145 -49q-65 0 -123 23v86q52 -27 108 -27t88.5 28.5t32.5 84t-43.5 86.5 t-121.5 31v81h740v112h-858v80h1066z" />
<glyph horiz-adv-x="984" d="M891 401h-185q-63 0 -100.5 -33.5t-37.5 -92t33 -92.5t87.5 -34t88 30.5t37.5 81.5h93v-271h-95v131q-19 -25 -56.5 -39t-78.5 -14q-95 0 -152.5 59t-57.5 147q0 56 24 100h-201q69 -41 69 -128t-55 -136t-145 -49q-68 0 -123 22v86q50 -26 107 -26t89.5 28t32.5 83.5 t-43.5 87.5t-121.5 32v81h460v-9q56 34 139 34h95v90h-812v80h1027v-80h-118v-169z" />
</font>
</defs>
</svg>
