<?xml version="1.0" standalone="no"?>
<!DOCTYPE svg PUBLIC "-//W3C//DTD SVG 1.1//EN" "http://www.w3.org/Graphics/SVG/1.1/DTD/svg11.dtd" >
<svg xmlns="http://www.w3.org/2000/svg" xmlns:xlink="http://www.w3.org/1999/xlink" version="1.1">
<metadata></metadata>
<defs>
<font id="nunitobold" horiz-adv-x="1299" >
<font-face units-per-em="2048" ascent="1638" descent="-410" />
<missing-glyph horiz-adv-x="649" />
<glyph unicode="&#xd;" horiz-adv-x="682" />
<glyph unicode=" "  horiz-adv-x="649" />
<glyph unicode="&#x09;" horiz-adv-x="649" />
<glyph unicode="&#xa0;" horiz-adv-x="649" />
<glyph unicode="!" horiz-adv-x="776" d="M386 255q38 0 70 -10t55 -27.5t36 -40.5t13 -49q0 -28 -13 -51.5t-36.5 -40.5t-55.5 -26.5t-69 -9.5q-40 0 -72 10t-55 27t-35.5 40.5t-12.5 50.5q0 25 12 48t34.5 40.5t55 28t73.5 10.5zM386 394q-38 0 -65 17t-45 47t-27 71t-11 89l-33 705q-1 5 -1 17q0 33 15 58.5 t40 43.5t58 27.5t68 9.5t68 -9.5t58 -27.5t40 -43.5t15 -58.5q0 -12 -1 -17l-33 -705q-2 -48 -11 -89t-26 -71t-44 -47t-65 -17z" />
<glyph unicode="&#x22;" horiz-adv-x="908" d="M517 1363q-1 4 -1 13q0 23 10 41.5t26.5 31.5t39 20t47.5 7q23 0 44.5 -6.5t38.5 -19.5t27.5 -33t10.5 -47l-2 -22q0 -5 -0.5 -11.5t-0.5 -11.5l-29 -284q-15 -116 -91 -116q-30 0 -56 24t-31 73zM143 1363q-1 4 -1 13q0 23 10 41.5t26.5 31.5t39 20t47.5 7q23 0 45 -6 t39 -19t27.5 -33t10.5 -48l-2 -22q-1 -5 -1.5 -11.5t-0.5 -11.5l-29 -284q-6 -57 -29.5 -86.5t-60.5 -29.5q-30 0 -56.5 24t-31.5 73z" />
<glyph unicode="#" d="M715 429h-206l-48 -339q-4 -25 -10.5 -47t-18.5 -38t-31 -25t-47 -9q-38 2 -63 29.5t-25 72.5l4 27q1 7 1.5 14t2.5 15l43 300h-66q-24 0 -44.5 4.5t-36 16t-24 30.5t-8.5 49q2 38 27.5 60.5t73.5 22.5h103l34 240h-67q-21 0 -41.5 4t-36.5 14.5t-26 28t-10 45.5 q0 44 28.5 67.5t85.5 23.5h93l46 324q7 49 30.5 79t76.5 30q35 -3 60.5 -27t25.5 -69v-6l-3 -29q-1 -8 -2.5 -15t-2.5 -14q-10 -69 -19 -136.5t-20 -136.5h205l47 324q8 59 33.5 84t73.5 25q35 -3 61 -27t26 -65q0 -11 -1.5 -22t-2.5 -21l-44 -298h54q22 0 42.5 -4.5t37 -15 t26.5 -28t10 -44.5q0 -48 -30 -69.5t-86 -21.5h-79l-34 -240h55q21 0 42 -4t37.5 -14.5t26.5 -28.5t10 -45q0 -48 -30 -69.5t-86 -21.5h-80l-51 -352q-3 -21 -9 -40t-17.5 -34t-28 -23.5t-40.5 -8.5q-41 0 -69 26.5t-28 74.5l4 28q1 7 1.5 14t2.5 15zM535 612h205l34 240 h-206z" />
<glyph unicode="$" horiz-adv-x="1371" d="M597 -39q-80 3 -160.5 16.5t-148 34.5t-114.5 47t-61 54q-16 30 -16 59q0 24 8.5 46.5t23.5 40t37 28.5t49 11q30 0 61 -11.5t69 -22.5q63 -19 142 -32t169 -13q44 0 89 9t81 28.5t58.5 50.5t22.5 75q0 39 -17 67.5t-45.5 49.5t-67.5 37t-82 30l-59 17q-20 6 -41 12 t-43 13l-85 25q-35 11 -66 22t-50 18q-134 48 -202 137t-68 227q0 85 34.5 158.5t100.5 129.5t162 91t219 44v76q0 39 19 58.5t48 19.5q26 0 46.5 -17.5t20.5 -49.5v-86q78 -4 159 -13.5t147.5 -31.5t108.5 -58t42 -93q0 -46 -32.5 -77.5t-85.5 -31.5h-10.5t-10.5 1 q-28 5 -54 10.5t-57 11.5t-71.5 12t-97.5 12q-24 2 -47.5 4t-46.5 2q-44 0 -88 -8.5t-78.5 -25.5t-56 -43.5t-21.5 -63.5q0 -44 22.5 -75t59.5 -53.5t83.5 -38t93.5 -28.5l101 -28q103 -32 189.5 -65.5t149.5 -81t98 -115t35 -165.5q0 -100 -37.5 -180.5t-107 -139 t-168 -93.5t-219.5 -43v-84q0 -16 -3 -32t-10.5 -28.5t-20.5 -20.5t-34 -8q-26 0 -46 16.5t-20 50.5v105z" />
<glyph unicode="%" horiz-adv-x="2109" d="M516 1288q-73 0 -106 -64.5t-33 -198.5t31.5 -199t107.5 -65q75 0 107.5 64.5t32.5 199.5q0 134 -32.5 198.5t-107.5 64.5zM1348 1436q14 25 31.5 35.5t37.5 10.5q14 0 27.5 -6t23.5 -16t16 -23t6 -28q0 -21 -12.5 -46.5t-24.5 -49.5l-701 -1283q-9 -16 -18.5 -32.5 t-21 -29.5t-24 -21.5t-27.5 -8.5q-16 0 -30.5 6t-25 16.5t-17 24t-6.5 28.5q0 8 3.5 18.5t9 22.5t12 24t12.5 22zM516 1457q75 0 132.5 -19t99 -51.5t69.5 -75.5t45 -91t24 -98t7 -97q0 -98 -27.5 -178t-77 -136.5t-119 -87.5t-153.5 -31q-87 0 -157 27.5t-118.5 82.5 t-74.5 135.5t-26 187.5q0 95 26.5 174.5t75 136.5t118 89t156.5 32zM1592 831q76 0 133 -19.5t99 -52t69.5 -76t44 -91.5t23.5 -98t7 -96q0 -95 -26 -174.5t-75 -137t-118.5 -89.5t-156.5 -32q-88 0 -157.5 28t-118 82.5t-74.5 135.5t-26 187q0 96 26.5 175.5t75 136.5 t118 89t156.5 32zM1592 662q-75 0 -107 -65t-32 -199q0 -133 31 -198t108 -65q69 0 104 61t35 202q0 129 -31 196.5t-108 67.5z" />
<glyph unicode="&#x26;" horiz-adv-x="1659" d="M1232 581q12 22 23 51t22 60t21.5 61.5t20.5 56t20.5 42.5t21.5 21q8 3 17 4t18 1q26 0 49.5 -7.5t41.5 -22.5t28.5 -37.5t10.5 -53.5q0 -42 -12.5 -99.5t-34 -118.5t-51 -121t-63.5 -106l44 -46q18 -18 34.5 -38.5t29 -42t20.5 -42.5t8 -41q0 -26 -11 -49.5t-29 -41.5 t-42 -28.5t-50 -10.5q-33 0 -74.5 26t-78.5 64l-74 77q-82 -75 -201.5 -117.5t-264.5 -42.5q-75 0 -149 11t-141 33.5t-124.5 57t-99.5 82.5t-66 109t-24 136q0 72 27 133.5t76 113.5t118 96t153 82q-44 36 -83.5 76.5t-69 85t-47 91.5t-17.5 96q0 82 38 143.5t101.5 102.5 t147 62t175.5 21q82 0 165 -18.5t149 -57.5t107.5 -99.5t41.5 -144.5q0 -53 -21 -104.5t-58.5 -99.5t-88.5 -93t-112 -86q64 -66 127 -131t126 -131q31 7 56.5 17t48.5 18zM629 664q-39 -18 -79.5 -46.5t-73.5 -62t-54 -69.5t-21 -70q0 -56 22 -99t60.5 -72.5t89.5 -44.5 t108 -15q85 0 156.5 30.5t139.5 84.5zM537 1193q0 -30 13 -61t34 -61t47.5 -57t52.5 -49q32 26 62.5 53t54 55.5t38 58t14.5 61.5q0 31 -13.5 54t-35 38t-49.5 22.5t-58 7.5q-29 0 -58 -6.5t-51.5 -21.5t-36.5 -38t-14 -56z" />
<glyph unicode="'" horiz-adv-x="649" d="M202 1363q-1 4 -1 13q0 23 10 41.5t26.5 31.5t39 20t47.5 7q23 0 45 -6.5t39 -19t27 -32.5t10 -47l-1 -23q-1 -5 -1 -11.5t-1 -11.5l-28 -284q-15 -116 -91 -116q-30 0 -56.5 24t-30.5 73z" />
<glyph unicode="(" horiz-adv-x="689" d="M336 -172q-85 199 -136 389.5t-51 383.5q0 90 11.5 179.5t32.5 179t49.5 180t63.5 182.5q13 36 30 66.5t37 53t43 35.5t50 13q25 0 47 -8.5t38.5 -25t26 -39.5t9.5 -52q0 -20 -6 -44t-14 -47q-55 -168 -85 -334.5t-30 -335.5q0 -161 28 -321t82 -325q8 -24 14.5 -47.5 t6.5 -44.5q0 -28 -9 -51t-25 -39.5t-38 -25.5t-47 -9q-17 0 -35.5 4.5t-35.5 14.5t-32 26.5t-25 41.5z" />
<glyph unicode=")" horiz-adv-x="689" d="M360 -172q-10 -25 -25.5 -42t-33.5 -27t-37 -14.5t-36 -4.5q-25 0 -46 9t-36.5 25.5t-24 39.5t-8.5 50q0 22 7 45.5t15 47.5q54 160 82 322.5t28 326.5q0 166 -30 332.5t-85 335.5q-8 23 -14 46t-6 46q0 26 9.5 49t26 39.5t38.5 26t48 9.5t49 -13t42.5 -35.5t36 -53 t30.5 -66.5q69 -185 113.5 -364.5t44.5 -357.5q0 -97 -13.5 -193t-38.5 -192t-59.5 -192.5t-76.5 -194.5z" />
<glyph unicode="*" horiz-adv-x="958" d="M600 1183q45 1 88 3t88 2q29 0 50.5 -20.5t21.5 -51.5q0 -30 -21 -50.5t-51 -20.5q-45 0 -88.5 2t-88.5 2l67 -109q12 -20 22 -41t10 -37q0 -28 -21 -49t-51 -21q-27 0 -43.5 16.5t-29.5 39.5l-76 137l-74 -137q-12 -23 -29.5 -39.5t-45.5 -16.5q-29 0 -50 21t-21 50 q-1 14 5.5 28.5t15.5 28.5l79 129q-45 -1 -88 -2.5t-87 -1.5q-29 0 -51 21t-22 50q0 31 21 51.5t52 20.5q43 0 86 -2.5t87 -2.5l-73 120q-10 15 -19 31t-9 34q0 28 20 50.5t53 22.5q22 0 39.5 -12.5t29.5 -34.5l81 -151l77 141q11 23 29 39.5t47 16.5t49 -21t20 -50 q0 -14 -6 -29t-14 -27z" />
<glyph unicode="+" horiz-adv-x="1287" d="M746 608h280q21 0 44.5 -4.5t43 -15.5t32.5 -31t13 -50q0 -27 -11 -46.5t-29.5 -32t-42.5 -18t-50 -5.5h-280v-271q0 -21 -4.5 -44.5t-15.5 -43t-31.5 -32t-51.5 -12.5q-54 0 -78.5 37t-24.5 95v271h-279q-22 0 -45.5 4.5t-43 15.5t-32 31t-12.5 51q0 26 10.5 45 t28.5 31.5t42 18.5t52 6h279v272q0 21 4 44.5t15 43t31.5 32.5t52.5 13q28 0 47.5 -11t32 -30t18 -43t5.5 -49v-272z" />
<glyph unicode="," horiz-adv-x="649" d="M341 -223h-273l116 521h330z" />
<glyph unicode="-" horiz-adv-x="709" d="M166 417q-24 0 -46.5 9t-39 25t-26.5 37.5t-10 47.5q0 58 40.5 89t104.5 31h331q22 0 47.5 -5.5t47 -19t36 -36.5t14.5 -59q0 -32 -12.5 -54.5t-32.5 -36.5t-46 -21t-54 -7h-354z" />
<glyph unicode="." horiz-adv-x="649" d="M155 158q0 33 12.5 62.5t35 52t53.5 36t68 13.5q33 0 63.5 -12t54 -33.5t37.5 -51.5t14 -67q0 -33 -13 -63t-35.5 -52.5t-53.5 -35.5t-67 -13q-35 0 -65.5 12.5t-53.5 34.5t-36.5 52t-13.5 65z" />
<glyph unicode="/" horiz-adv-x="669" d="M199 -40q-13 -38 -39.5 -53t-54.5 -15q-18 0 -36.5 6t-34 18t-25 29t-9.5 40q0 20 8.5 45.5t16.5 50.5q106 318 212 631.5t212 631.5q8 25 18.5 47.5t24.5 40t31.5 27.5t40.5 10q20 0 38.5 -6t33 -18.5t23 -31t8.5 -43.5q0 -20 -7.5 -44.5t-15.5 -46.5 q-112 -332 -222.5 -659.5t-222.5 -659.5z" />
<glyph unicode="0" d="M649 1212q-69 0 -112 -36.5t-66.5 -103t-32 -158.5t-8.5 -203t8.5 -203t32 -158t66.5 -102t112 -36q68 0 111 36t67 101t33 157t9 205q0 110 -8.5 202t-32.5 158.5t-67 103.5t-112 37zM649 1457q158 0 268 -58.5t178.5 -159.5t99.5 -237t31 -291q0 -102 -13 -196.5 t-41.5 -177.5t-73.5 -151.5t-109 -117.5t-148.5 -76t-191.5 -27q-160 0 -270 58.5t-178.5 160t-98.5 237t-30 290.5q0 100 12.5 194t40.5 177t72.5 152t108.5 118.5t149 77t194 27.5z" />
<glyph unicode="1" d="M353 999q-32 -17 -62 -17q-26 0 -48 10.5t-38 27.5t-25 39.5t-9 46.5q0 36 19.5 62t61.5 52l332 189q29 17 61 31t67 14q89 0 130.5 -63.5t41.5 -182.5v-967q0 -49 -8 -92.5t-28.5 -76.5t-55.5 -52t-89 -19q-94 0 -136 66t-42 197v840z" />
<glyph unicode="2" d="M601 1196q-37 0 -75 -6.5t-74.5 -16.5t-71.5 -23t-66 -25q-26 -10 -49 -10q-26 0 -47.5 10t-37 27.5t-24.5 40.5t-9 49q0 36 21 70t70 55q50 21 103.5 38.5t107.5 30t106.5 19.5t100.5 7q108 0 199 -25.5t157 -74t103.5 -120t37.5 -164.5q0 -105 -52 -214t-138.5 -214.5 t-198.5 -204.5t-232 -186h435q39 0 74.5 -6.5t62.5 -21.5t43.5 -39.5t16.5 -60.5q0 -65 -37 -98t-106 -33h-744q-36 0 -68 7t-55.5 23.5t-37 44t-13.5 67.5q0 101 91 178l146 124q30 26 59 50.5t50 44.5l40 38q72 66 131 130.5t101 124.5t65 113t23 97q0 39 -17 67.5 t-45.5 48t-66.5 29t-79 9.5z" />
<glyph unicode="3" d="M566 847q51 0 95 11t76.5 34.5t51.5 59t19 83.5q0 43 -18 75.5t-49 54.5t-72.5 32.5t-87.5 10.5q-39 0 -82 -5.5t-83 -13.5l-58 -11q-23 -5 -35.5 -7.5t-25.5 -2.5q-56 0 -91.5 33t-35.5 84q0 85 109 136.5t335 51.5q130 0 231 -28.5t170.5 -80.5t105.5 -125t36 -161 q0 -62 -20.5 -116.5t-55 -97.5t-81 -72t-98.5 -39v-4q69 -11 122.5 -41.5t90 -76t55 -105.5t18.5 -129q0 -109 -44 -188t-120 -130t-178.5 -75t-220.5 -24q-38 0 -80 4.5t-86.5 12.5t-88.5 20.5t-84 27.5q-55 20 -87 53t-32 81q0 24 9.5 46t26.5 38t42 25.5t55 9.5h9 q22 -6 52.5 -15t67 -18t77 -15.5t81.5 -6.5q51 0 94.5 9.5t76 30.5t51 55t18.5 83q0 97 -69 150t-195 53h-71q-52 0 -80 32.5t-28 77.5q0 21 7 41.5t20.5 36t33.5 25.5t47 10h74z" />
<glyph unicode="4" d="M505 1279q28 54 60.5 90t70.5 57.5t81 30t92 8.5q64 0 110 -18t76 -56.5t44 -99.5t14 -147v-593h46q31 0 59 -6t50 -20.5t35 -38t13 -58.5q0 -61 -40 -92t-117 -31h-47v-120q-1 -36 -9.5 -71t-27.5 -62t-51 -43.5t-80 -16.5q-88 0 -128.5 58.5t-42.5 170.5v84h-504 q-40 0 -73 7.5t-56.5 23t-36.5 40.5t-13 60q0 20 5.5 42.5t19.5 45.5zM338 551h375v645z" />
<glyph unicode="5" d="M160 1288q0 52 13 84t40 50t69 24.5t100 6.5h643q26 0 49 -7t40.5 -21.5t27.5 -37t10 -54.5q0 -62 -38 -91t-108 -29h-548l-10 -389q130 123 324 123q95 0 175.5 -34t139 -97.5t91.5 -154t33 -204.5t-45.5 -203.5t-124 -151.5t-184.5 -95t-226 -33q-72 0 -147.5 13 t-140 39.5t-111.5 66.5t-61 95q-12 25 -12 49q0 19 7 38t19.5 33t30 23t38.5 9q19 0 40.5 -12t47 -28.5t54 -34.5t60.5 -29q35 -13 73 -19t77 -6q53 0 98.5 15.5t78.5 48t52 81.5t19 116q0 63 -14.5 112t-41.5 83t-64 51.5t-82 17.5q-51 0 -85.5 -14t-59.5 -35t-45 -46 t-42.5 -46t-51 -35t-71.5 -14q-63 0 -100 40.5t-37 125.5v576z" />
<glyph unicode="6" d="M1069 1399q35 -16 51.5 -44.5t16.5 -60.5q0 -24 -8.5 -47.5t-24 -42t-37 -29.5t-46.5 -11q-9 0 -14 1q-32 7 -63.5 16t-63 16.5t-62 12.5t-58.5 5q-95 0 -160.5 -33t-105.5 -92t-57.5 -140.5t-17.5 -179.5l2 -2q27 45 64.5 76t82 50.5t94.5 28t103 8.5q96 0 180 -30.5 t146 -88.5t98 -142.5t36 -193.5q0 -111 -39 -203.5t-111 -158.5t-174.5 -102.5t-230.5 -36.5q-157 0 -269.5 50.5t-185 142t-107 218.5t-34.5 280q0 111 14.5 213.5t46 191.5t83 162t125.5 125t172.5 80.5t225.5 28.5q77 0 163.5 -16.5t164.5 -51.5zM670 209q109 0 167.5 66 t58.5 191q0 58 -13 106.5t-39.5 83.5t-66.5 54t-95 19q-116 0 -176.5 -71.5t-60.5 -195.5q0 -59 16 -106t45.5 -79.5t71 -50t92.5 -17.5z" />
<glyph unicode="7" d="M677 102q-26 -52 -67.5 -77t-88.5 -25q-34 0 -65 11.5t-55 32.5t-38.5 50t-14.5 63q0 37 16 79.5t36 84.5l403 873h-528q-39 0 -71.5 7t-56.5 22.5t-37 40t-13 59.5q0 130 179 130h673q51 0 93 -5.5t72 -21t46.5 -43t16.5 -71.5q0 -53 -23.5 -120t-54.5 -135z" />
<glyph unicode="8" d="M372 743q-61 9 -111 35t-86 66.5t-55.5 95t-19.5 120.5q0 94 38.5 169.5t110 128.5t173 81t226.5 28q122 0 224 -26.5t175 -78.5t113.5 -127.5t40.5 -174.5q0 -66 -20 -119t-56 -93t-87 -66t-112 -39v-2q144 -35 222.5 -122.5t78.5 -230.5q0 -91 -37.5 -167 t-110.5 -130.5t-181.5 -85t-249.5 -30.5q-144 0 -252 31t-180 86t-108 130.5t-36 165.5q0 64 18.5 121t56 103t94 79t131.5 48v4zM439 1046q0 -50 15.5 -86.5t43.5 -60t66.5 -34.5t85.5 -11t86 11t66.5 34.5t43 59.5t15.5 87q0 52 -17.5 88.5t-46.5 59.5t-67 34t-80 11 t-80 -11t-67.5 -34t-46.5 -60t-17 -88zM423 420q0 -56 17.5 -95.5t48.5 -65.5t72 -38t89 -12q42 0 82.5 11t72.5 36t51.5 65t19.5 99q0 53 -17.5 93t-47.5 66.5t-71.5 39.5t-89.5 13q-46 0 -87 -12t-72 -37.5t-49.5 -66t-18.5 -96.5z" />
<glyph unicode="9" d="M229 36q-35 14 -51.5 42t-16.5 63q0 52 34 86.5t91 34.5q30 0 62.5 -6t66 -13.5t67.5 -13.5t66 -6q90 0 153.5 32.5t103 93t57.5 142.5t18 192q0 1 -1 1t-1 1q-30 -48 -70.5 -80t-88 -50.5t-99.5 -26t-106 -7.5q-92 4 -172.5 35t-140 88t-93.5 140.5t-34 192.5 q0 108 37.5 200t108.5 159t174 104.5t234 37.5q157 0 270 -51.5t186 -143t107 -218.5t34 -278q0 -115 -14.5 -216.5t-47 -193.5t-84.5 -167.5t-126 -129.5t-172 -83.5t-223 -29.5q-80 0 -167.5 17t-161.5 52zM629 1245q-109 0 -167.5 -66.5t-58.5 -191.5q0 -59 13 -107.5 t39 -83t66.5 -53.5t94.5 -19q115 0 176.5 70t61.5 197q0 58 -16.5 105t-46.5 80t-71.5 51t-90.5 18z" />
<glyph unicode=":" horiz-adv-x="649" d="M155 889q0 33 12.5 62.5t35 52t53.5 36t68 13.5q33 0 64 -12t54 -34t37 -52t14 -66q0 -33 -12.5 -62.5t-35 -52t-53.5 -35.5t-68 -13q-34 0 -64.5 11.5t-54 33t-37 51.5t-13.5 67zM155 158q0 33 12.5 62.5t35 52t53.5 36t68 13.5q33 0 63.5 -12t54 -33.5t37.5 -51.5 t14 -67q0 -33 -13 -63t-35.5 -52.5t-53.5 -35.5t-67 -13q-35 0 -65.5 12.5t-53.5 34.5t-36.5 52t-13.5 65z" />
<glyph unicode=";" horiz-adv-x="649" d="M191 901q0 32 12.5 61.5t35 52t54 36t68.5 13.5q33 0 64 -12t54 -34t37 -51.5t14 -65.5q0 -34 -12.5 -64t-35 -52.5t-53.5 -35.5t-68 -13q-34 0 -64.5 12t-54 33.5t-37.5 52t-14 67.5zM359 -223h-273l116 521h330z" />
<glyph unicode="&#x3c;" horiz-adv-x="1287" d="M186 391q-42 17 -64 48.5t-22 66.5q0 43 27.5 72.5t84.5 54.5l766 315q20 8 43 16.5t40 8.5q21 0 39 -8t30.5 -21t20 -30.5t7.5 -35.5q0 -20 -8.5 -35t-23.5 -27t-34.5 -21.5t-41.5 -18.5l-667 -270q168 -70 334.5 -140t334.5 -140q22 -9 41.5 -19.5t33.5 -22.5t22.5 -27 t8.5 -34t-7 -36t-19 -30t-29 -20.5t-37 -7.5q-18 0 -41.5 8t-43.5 18z" />
<glyph unicode="=" horiz-adv-x="1287" d="M231 184q-20 0 -38.5 7t-33 20.5t-23 31.5t-8.5 41q0 29 12 49t31.5 32t45 17t52.5 5h767q19 0 40.5 -4.5t39.5 -16.5t30 -32t12 -50t-12 -49t-32 -30.5t-45.5 -16t-51.5 -4.5h-786zM231 627q-21 0 -39.5 7.5t-32.5 21t-22.5 32t-8.5 40.5q0 29 12 49t32 32t45.5 17 t53.5 5h745q24 0 49 -4t46 -15.5t34 -31.5t13 -52q0 -29 -12 -48.5t-32 -31t-45.5 -16.5t-52.5 -5h-785z" />
<glyph unicode="&#x3e;" horiz-adv-x="1287" d="M1093 621q42 -18 63.5 -49.5t21.5 -65.5q0 -45 -27.5 -75t-84.5 -53q-199 -82 -396 -162.5t-395 -162.5q-16 -7 -32 -11.5t-31 -4.5q-20 0 -36.5 8t-28.5 21.5t-18.5 30.5t-6.5 35q0 26 13 48t45 35l715 291q-180 75 -359 148.5t-358 151.5q-30 13 -43.5 34.5t-13.5 46.5 q0 17 6 34t17.5 30.5t28.5 22t38 8.5q20 0 43.5 -9t44.5 -18z" />
<glyph unicode="?" horiz-adv-x="1064" d="M325 1234q-18 -1 -51 -3.5t-68 -7.5q-5 -1 -10 -1h-10q-51 0 -84 35t-33 93q0 37 24.5 71.5t77.5 50.5q78 23 160.5 32.5t158.5 9.5q97 0 184.5 -23t152.5 -72t103.5 -125t38.5 -182q-2 -70 -26.5 -126t-61 -103t-81.5 -87t-89 -78q-31 -27 -56 -48t-42 -40.5t-27 -39.5 t-11 -45q0 -27 -7.5 -56t-26 -54t-49.5 -41t-77 -16q-63 5 -98 41t-35 118v49q3 61 31.5 109.5t67 89t80 75t69.5 69.5t47 74t19 81q0 43 -15.5 73t-41 49t-58.5 27t-69 8q-20 0 -42 -2t-45 -5zM260 107q0 32 12 61.5t34.5 52t53.5 36t69 13.5q33 0 63.5 -12t54 -33.5 t37.5 -51.5t14 -66q0 -34 -13 -64t-35.5 -52.5t-53.5 -35.5t-67 -13t-67 13t-53.5 35.5t-35.5 52.5t-13 64z" />
<glyph unicode="@" horiz-adv-x="1638" d="M590 645q0 -36 10.5 -68t30.5 -56t48.5 -37.5t63.5 -13.5q38 0 73.5 10t65.5 28t51.5 42.5t30.5 53.5l59 216q2 8 3 15t1 14q0 26 -13.5 49.5t-36 41.5t-52 29t-61.5 11q-59 0 -109.5 -31t-87 -80t-57 -108t-20.5 -116zM918 132q85 2 166 25q4 1 12 1q38 0 59 -22.5 t21 -51.5q0 -32 -19 -48.5t-57 -26.5q-75 -19 -146.5 -29t-142.5 -10q-161 0 -301.5 49.5t-245 145.5t-164.5 236t-60 320q0 122 32.5 228t91 193.5t138.5 156t175 115t201.5 71t216.5 24.5q126 0 247.5 -36.5t217 -113t154 -195t58.5 -281.5q0 -85 -20.5 -160.5t-55 -139 t-80 -113.5t-95.5 -85.5t-102 -54t-99 -18.5q-51 0 -96 23t-64 74q-50 -55 -119 -83t-147 -28q-74 0 -132.5 27t-100 74t-63.5 110.5t-22 136.5q0 64 15.5 128t44 122.5t70 109t93 87.5t112.5 58.5t130 21.5q75 0 138 -30.5t102 -96.5l8 26q10 32 33 47.5t52 15.5t53 -18.5 t24 -54.5q0 -16 -5.5 -32.5t-9.5 -30.5l-83 -322q-16 -55 -27.5 -103.5t-11.5 -75.5q0 -25 8.5 -39t32.5 -14q45 0 89 33t78.5 89t55.5 130t21 156q0 128 -40.5 223.5t-109.5 159t-160.5 95t-193.5 31.5q-85 0 -167.5 -20.5t-157.5 -59t-139 -95t-111 -129t-73.5 -159 t-26.5 -186.5q0 -142 44.5 -249.5t121 -181t178.5 -114t218 -47.5h14q58 0 122 11z" />
<glyph unicode="A" horiz-adv-x="1505" d="M741 1179l-220 -643h444l-219 643h-5zM1393 303q7 -18 15 -37.5t15 -39.5t11.5 -38.5t4.5 -33.5q0 -37 -13.5 -65.5t-36.5 -48t-53.5 -30t-64.5 -10.5q-39 0 -67 11t-50 35t-40.5 62.5t-39.5 94.5l-48 127h-566l-41 -127q-18 -57 -36.5 -96t-41 -62.5t-51.5 -34 t-68 -10.5q-34 0 -64.5 10.5t-53.5 30t-36.5 48t-13.5 65.5q0 15 4.5 33.5t11.5 38.5t15 39.5t15 37.5l269 727q38 102 72.5 180.5t76 132.5t95.5 81.5t131 27.5q72 0 123 -21.5t92 -71t78 -130.5t82 -199z" />
<glyph unicode="B" horiz-adv-x="1464" d="M152 1276q0 47 19 80.5t50.5 54.5t73.5 31t89 10h310q68 0 140 -2.5t141 -14t130 -34t107 -63t73 -102t27 -149.5q0 -59 -20 -113.5t-57 -98.5t-88 -74.5t-113 -41.5v-4q75 -11 135.5 -41.5t102.5 -76.5t65 -106t23 -129q0 -76 -30 -148.5t-92 -128.5t-157.5 -90.5 t-226.5 -34.5h-470q-57 0 -100 9t-72.5 36.5t-44.5 78t-15 133.5v1019zM505 224h166q80 0 141 8t102 32t62 66.5t21 110.5q0 63 -24 103t-68 63.5t-106 32.5t-138 9h-156v-425zM505 1228v-397h143q66 0 122.5 9t97 32t63.5 62.5t23 100.5t-22.5 98.5t-61.5 58.5t-91 28.5 t-110 7.5h-164z" />
<glyph unicode="C" horiz-adv-x="1464" d="M86 714q0 182 53.5 325.5t149.5 242.5t228.5 151.5t290.5 52.5q125 0 217.5 -15.5t153.5 -42.5t91 -64t30 -80q0 -29 -12 -50.5t-31.5 -35.5t-43.5 -20.5t-48 -6.5q-14 0 -28 0.5t-27 4.5q-38 10 -72.5 19.5t-68 16.5t-67 11.5t-69.5 4.5q-75 0 -141.5 -22.5 t-115.5 -79.5t-77.5 -154.5t-28.5 -248.5q0 -116 23 -208.5t68.5 -157t114 -99t159.5 -34.5q37 0 77 8t82 20.5t85.5 28.5t86.5 32q13 4 32 4q25 0 45.5 -9.5t35.5 -25.5t23 -37.5t8 -45.5q0 -39 -25.5 -71.5t-67.5 -58.5t-96.5 -45.5t-112.5 -32.5t-115.5 -19.5 t-106.5 -6.5q-148 0 -276 49.5t-222 145t-148 235t-54 319.5z" />
<glyph unicode="D" horiz-adv-x="1558" d="M326 0q-54 0 -89.5 22t-56.5 58t-29 81.5t-8 93.5v940q0 67 13 116t43 80t78.5 46t119.5 15h248q409 0 617 -180.5t208 -555.5q0 -183 -57 -318t-161.5 -223.5t-251.5 -131.5t-326 -43h-348zM509 224h137q114 0 196 26t135.5 89t79 156.5t25.5 229.5q0 253 -105 377 t-322 124h-146v-1002z" />
<glyph unicode="E" horiz-adv-x="1272" d="M334 0q-51 0 -85.5 21t-55.5 54.5t-30 75.5t-9 84v953q0 57 7 105.5t31 83.5t70 55t124 20h642q29 0 54.5 -10.5t44.5 -28t30 -41.5t11 -51t-11 -50.5t-30 -41t-44.5 -27.5t-54.5 -10h-515v-324h470q29 0 54.5 -10t44.5 -28t30 -41.5t11 -50.5t-11 -50.5t-30 -41 t-44.5 -27.5t-54.5 -10h-470v-350h540q27 0 50.5 -10t41.5 -28t28 -41.5t10 -50.5t-10 -50.5t-28 -41t-41.5 -27.5t-50.5 -10h-719z" />
<glyph unicode="F" horiz-adv-x="1197" d="M971 872q27 0 50.5 -10t41.5 -28t28 -41.5t10 -50.5t-10 -50.5t-28 -41t-41.5 -27.5t-50.5 -10h-452l-1 -418q0 -41 -14.5 -76.5t-40 -62t-59 -41.5t-72.5 -15t-72.5 15t-58.5 41.5t-39.5 62t-14.5 76.5v1072q0 48 19 83t51 57.5t75 33.5t90 11h620q27 0 50.5 -10.5 t41.5 -28t28 -41.5t10 -51t-10 -50.5t-28 -41t-41.5 -27.5t-50.5 -10h-483v-320h452z" />
<glyph unicode="G" horiz-adv-x="1578" d="M1322 782q39 0 63.5 -10.5t37.5 -32t17.5 -53.5t4.5 -74v-298q0 -78 -10.5 -131.5t-39.5 -89.5t-81.5 -57.5t-136.5 -34.5q-36 -6 -77 -12.5t-83.5 -11.5t-84 -8.5t-77.5 -3.5q-176 0 -317.5 45.5t-241.5 139t-153.5 237t-53.5 338.5q0 157 45.5 295.5t139 242 t237.5 163.5t341 60q64 0 127 -6.5t121.5 -17.5t112 -27t98.5 -35t67 -51.5t22 -70.5q0 -62 -38 -94t-94 -32q-28 0 -74 11.5t-98.5 26t-107 26t-99.5 11.5q-110 0 -188.5 -35.5t-128.5 -102.5t-73 -163t-23 -216q0 -133 20.5 -225.5t65.5 -150.5t115.5 -84t169.5 -26 q60 0 120.5 3.5t117.5 17.5v327h-134q-31 0 -57 5.5t-45.5 18t-30.5 33t-11 50.5q0 46 30.5 75t93.5 29q99 0 195 -0.5t196 -0.5z" />
<glyph unicode="H" horiz-adv-x="1558" d="M1037 1258q0 41 15 76.5t40 62t58.5 41.5t72.5 15t72.5 -15t59 -41.5t40 -62t14.5 -76.5v-1063q0 -41 -14.5 -76.5t-40 -62t-59 -41.5t-72.5 -15t-72.5 15t-58.5 41.5t-39.5 62t-14.5 76.5l-1 413h-515v-413q0 -41 -14.5 -76.5t-40 -62t-59 -41.5t-72.5 -15t-72.5 15 t-58.5 41.5t-39.5 62t-14.5 76.5v1063q0 41 14.5 76.5t39.5 62t58.5 41.5t72.5 15t72.5 -15t59 -41.5t40 -62t14.5 -76.5v-365h515v365z" />
<glyph unicode="I" horiz-adv-x="689" d="M530 195q0 -41 -14.5 -76.5t-40 -62t-59 -41.5t-72.5 -15t-72.5 15t-58.5 41.5t-39.5 62t-14.5 76.5v1063q0 41 14.5 76.5t39.5 62t58.5 41.5t72.5 15t72.5 -15t59 -41.5t40 -62t14.5 -76.5v-1063z" />
<glyph unicode="J" horiz-adv-x="1204" d="M699 1258q0 41 14.5 76.5t39.5 62t58.5 41.5t72.5 15t72.5 -15t59 -41.5t40 -62t14.5 -76.5l-1 -784q0 -126 -35.5 -221t-102.5 -158.5t-164.5 -96t-222.5 -32.5q-111 0 -211.5 33.5t-175.5 107.5q-36 35 -59.5 77.5t-23.5 78.5q0 24 11 47t29 40.5t41.5 28t47.5 10.5 q21 0 39 -11t35.5 -26.5t34 -33.5t34.5 -32q36 -29 76 -45.5t88 -16.5q98 0 143.5 60t45.5 188v786z" />
<glyph unicode="K" horiz-adv-x="1451" d="M526 815l387 507q44 58 86 94t97 36q31 0 61 -11.5t54 -32.5t39 -49t15 -61q0 -20 -9 -41.5t-22.5 -43t-31 -43t-33.5 -40.5l-299 -349l348 -437q17 -21 34 -44.5t31 -47t23 -46t9 -43.5q0 -33 -15.5 -62.5t-40.5 -52t-56.5 -35.5t-62.5 -13q-36 0 -67 16t-58.5 41 t-51 55t-44.5 59l-393 533l2 -509q0 -41 -14.5 -76.5t-40 -62t-59 -41.5t-72.5 -15t-72.5 15t-58.5 41.5t-39.5 62t-14.5 76.5v1063q0 41 14.5 76.5t39.5 62t58.5 41.5t72.5 15q37 0 71 -15t59.5 -41.5t40.5 -62t15 -76.5z" />
<glyph unicode="L" horiz-adv-x="1197" d="M1023 266q27 0 51.5 -10.5t42.5 -28.5t28.5 -42.5t10.5 -51.5t-10.5 -51.5t-28.5 -42.5t-42.5 -28.5t-51.5 -10.5h-685q-54 0 -90 23.5t-57.5 62t-30 87.5t-8.5 100v985q0 41 14.5 76.5t39.5 62t58.5 41.5t72.5 15t72.5 -15t59 -41.5t40 -62t14.5 -76.5l1 -992h499z" />
<glyph unicode="M" horiz-adv-x="2054" d="M1592 1103q-89 -220 -159 -392q-30 -74 -58 -144t-50.5 -125t-36.5 -89l-13 -33q-21 -51 -44.5 -97t-53.5 -80.5t-67.5 -55t-86.5 -20.5q-45 0 -79 15.5t-62.5 47t-53.5 79t-50 110.5l-315 780v-954q0 -30 -11.5 -57t-31.5 -46.5t-47 -31t-57 -11.5t-57 11.5t-46.5 31 t-31 46.5t-11.5 57v923q0 87 9 158.5t36.5 121.5t77 77.5t130.5 27.5q58 0 101.5 -20t81 -64.5t73 -115.5t77.5 -172l267 -645h8l270 645q36 86 70.5 155t73.5 117t85 74t105 26q64 0 111.5 -19t78 -61t45.5 -108.5t15 -160.5v-959q0 -30 -11.5 -57t-31.5 -46.5t-47 -31 t-57 -11.5t-57 11.5t-46.5 31t-31 46.5t-11.5 57v958z" />
<glyph unicode="N" horiz-adv-x="1598" d="M458 157q0 -33 -12.5 -61.5t-34 -49.5t-50 -33.5t-61.5 -12.5t-61.5 12.5t-49.5 33.5t-33 49.5t-12 61.5v1092q0 49 14.5 87t39 64t57.5 39.5t71 13.5q32 0 62.5 -12.5t58.5 -33.5t54 -49.5t50 -60.5l590 -800v799q0 33 12 61.5t33 49.5t49.5 33.5t61.5 12.5t61.5 -12.5 t49.5 -33.5t33.5 -49.5t12.5 -61.5v-1018q0 -55 -6 -105.5t-25 -88.5t-54 -61t-93 -23q-31 0 -60.5 12t-57 33t-53.5 49.5t-51 61.5l-596 810v-809z" />
<glyph unicode="O" horiz-adv-x="1612" d="M480 725q0 -248 79 -374.5t247 -126.5q165 0 246 126t81 375q0 120 -19.5 213.5t-59.5 157.5t-101.5 97.5t-146.5 33.5q-84 0 -145.5 -33.5t-101.5 -97.5t-59.5 -157.5t-19.5 -213.5zM91 725q0 165 44.5 305t133.5 241t223 158t314 57q175 0 309 -55t224 -155.5 t136 -240.5t46 -310q0 -167 -45 -307t-135 -240.5t-224 -156.5t-311 -56q-173 0 -306.5 54t-224.5 153.5t-137.5 239.5t-46.5 313z" />
<glyph unicode="P" horiz-adv-x="1391" d="M524 195q0 -41 -15 -76.5t-40.5 -62t-59 -41.5t-72.5 -15t-72.5 15t-58.5 41.5t-39.5 62t-14.5 76.5v983q0 57 7.5 107.5t32 87.5t72 58.5t128.5 21.5h361q115 0 221.5 -20t188.5 -70.5t131 -137.5t49 -220q0 -115 -42.5 -199.5t-120 -140.5t-186.5 -83.5t-241 -27.5 h-229v-359zM692 777q64 0 117 11t90.5 36.5t58.5 67.5t21 113q0 70 -20 110.5t-55.5 65.5t-85 36t-109.5 11h-185v-451h168z" />
<glyph unicode="Q" horiz-adv-x="1612" d="M91 725q0 166 44.5 305.5t134 240.5t223.5 158t313 57q173 0 305.5 -52.5t222 -150t135.5 -236.5t46 -312q0 -74 -14.5 -142.5t-41 -130t-63.5 -116t-82 -100.5h78q33 0 65 -5t57 -18.5t40.5 -37t15.5 -60.5q0 -62 -42 -92.5t-127 -33.5l-359 -14q-27 -2 -47.5 -2h-28.5 l-46 -7q-38 -6 -63 -8.5t-46 -2.5q-175 0 -309.5 54t-225.5 153.5t-138 240t-47 312.5zM480 725q0 -248 79 -374.5t247 -126.5q165 0 246 126t81 375q0 120 -19.5 213.5t-59.5 157.5t-101.5 97.5t-146.5 33.5q-84 0 -145.5 -33.5t-101.5 -97.5t-59.5 -157.5t-19.5 -213.5z " />
<glyph unicode="R" horiz-adv-x="1464" d="M526 195q0 -41 -14.5 -76.5t-40 -62t-59 -41.5t-72.5 -15t-72.5 15t-58.5 41.5t-39.5 62t-14.5 76.5v1074q0 46 18.5 80.5t49.5 57.5t72.5 34.5t87.5 11.5h401q111 0 213 -14.5t179.5 -54.5t124 -111t46.5 -185q0 -62 -17 -117.5t-55 -100t-99.5 -76t-150.5 -46.5v-4 q64 -8 109.5 -23.5t77.5 -41t52 -61.5t33 -85t21 -111.5t15 -141.5q2 -22 3 -42.5t1 -40.5q0 -43 -8 -79t-28 -62t-55 -40.5t-90 -14.5q-50 0 -83.5 23t-55.5 63t-33.5 92.5t-18.5 112.5q-10 87 -20.5 145.5t-33.5 94.5t-65.5 51t-116.5 15h-203v-403zM680 830q54 0 108 6.5 t97.5 27t70.5 60t27 105.5q0 76 -26 114t-69 57t-99.5 23.5t-117.5 4.5h-151v-398h160z" />
<glyph unicode="S" horiz-adv-x="1371" d="M461 1073q0 -48 32 -81t83.5 -57t116.5 -42t131 -37q106 -32 192.5 -68t148 -86t95 -118.5t33.5 -164.5q0 -105 -41.5 -189t-119.5 -143t-188.5 -90.5t-248.5 -31.5q-71 0 -143 8.5t-139 24.5t-126 39t-103 52t-69 63.5t-25 73.5q0 25 10.5 49t27 43.5t37 31.5t40.5 12 q18 0 35 -6t34.5 -14.5t36 -18.5t39.5 -18q69 -31 155 -56t180 -25q51 0 96.5 9.5t80 29t54.5 50.5t20 75q0 33 -12 59t-33 45.5t-49 34t-59 25.5l-45 16q-13 4 -25 8.5t-26 8.5l-52 15q-17 4 -29 7.5t-21.5 7t-18.5 7t-21 7.5l-94 33q-91 33 -156 69t-106 81t-60.5 102.5 t-19.5 133.5q0 100 41.5 181t119 138t188 88t248.5 31q50 0 109 -6.5t118 -19.5t113.5 -33.5t96.5 -48t67.5 -62.5t25.5 -78q0 -25 -9.5 -46t-25.5 -36t-37.5 -23.5t-44.5 -8.5q-30 0 -55 13q-47 24 -87.5 41t-80.5 28t-82.5 16t-93.5 5q-48 0 -94.5 -8.5t-83 -27t-59 -47.5 t-22.5 -71z" />
<glyph unicode="T" horiz-adv-x="1238" d="M161 1188q-29 0 -55 10.5t-45.5 28.5t-31 42t-11.5 51t11.5 51.5t31 42.5t45.5 28.5t55 10.5h913q29 0 55 -10.5t45.5 -28.5t31 -42.5t11.5 -51.5t-11.5 -51t-31 -42t-45.5 -28.5t-55 -10.5h-268v-993q0 -41 -14.5 -76.5t-40 -62t-59 -41.5t-72.5 -15t-72.5 15 t-58.5 41.5t-39.5 62t-14.5 76.5v993h-274z" />
<glyph unicode="U" horiz-adv-x="1539" d="M1025 1258q0 41 14.5 76.5t39.5 62t58.5 41.5t72.5 15t72.5 -15t59 -41.5t40 -62t14.5 -76.5v-766q0 -132 -46.5 -230.5t-130 -164.5t-198.5 -99t-252 -33q-135 0 -249.5 32.5t-198 97.5t-130.5 164t-47 233v766q0 41 14.5 76.5t39.5 62t58.5 41.5t72.5 15t72.5 -15 t59 -41.5t40 -62t14.5 -76.5l1 -760q0 -72 22 -124t57.5 -85t81 -49t92.5 -16q48 0 93.5 16t81.5 49t58.5 85t22.5 124v760z" />
<glyph unicode="V" horiz-adv-x="1451" d="M715 271h5l303 1018q12 42 33 72.5t46.5 50.5t54 30t56.5 10q29 0 55.5 -10.5t47 -30.5t32.5 -50t12 -69q0 -45 -16 -96l-260 -803q-33 -101 -63.5 -174.5t-70.5 -122.5t-96 -72.5t-139 -23.5q-76 0 -128 17t-91.5 59t-71.5 112t-67 176l-279 845q-7 20 -9.5 38t-2.5 35 q0 39 13.5 70t36.5 53.5t52 34.5t61 12q27 0 54.5 -9.5t52 -29.5t44.5 -51.5t33 -75.5z" />
<glyph unicode="W" horiz-adv-x="2087" d="M1043 1118l-212 -827q-17 -67 -39.5 -121t-55.5 -91.5t-80.5 -58t-114.5 -20.5q-104 0 -164.5 63.5t-93.5 197.5l-239 965q-7 27 -7 54q0 39 13.5 71t36 54.5t51.5 35t60 12.5q26 0 52 -10t48.5 -31t40 -54t27.5 -79l201 -950l216 834q14 55 33 107.5t48 93t72 65 t106 24.5q54 0 95 -19.5t72.5 -56.5t54.5 -91t42 -123q57 -209 111.5 -416.5t110.5 -416.5l200 961q9 41 27 71.5t42 51t52 30.5t56 10t54.5 -10t46.5 -30.5t32.5 -50t12.5 -68.5q0 -31 -9 -67l-229 -932q-16 -64 -37.5 -118.5t-53.5 -94t-76.5 -61.5t-107.5 -22 q-62 0 -107 20t-79 60.5t-59 102.5t-47 146z" />
<glyph unicode="X" horiz-adv-x="1374" d="M369 89q-32 -47 -72 -68t-79 -21q-29 0 -54.5 10.5t-44.5 29.5t-30.5 45.5t-11.5 58.5t12.5 68t41.5 75l339 458l-320 430q-22 29 -31.5 58t-9.5 56q0 35 13.5 65t36 51.5t52.5 34t62 12.5q39 0 78 -22t71 -70l283 -420l282 410q38 55 80.5 78.5t82.5 23.5q30 0 57 -11.5 t47 -31t31.5 -45.5t11.5 -55q0 -50 -35 -98l-347 -466l350 -482q17 -23 24.5 -48t7.5 -48q0 -33 -13.5 -63.5t-36 -53.5t-52 -37t-62.5 -14q-39 0 -79 22.5t-75 75.5l-298 442z" />
<glyph unicode="Y" horiz-adv-x="1391" d="M883 195q-1 -41 -16 -76.5t-40.5 -62t-59 -41.5t-72.5 -15t-72.5 15t-58.5 41.5t-39.5 62t-14.5 76.5v361l-367 613q-19 31 -27 60.5t-8 57.5q0 37 13.5 67.5t36 52.5t52 34t61.5 12q48 0 96 -30t81 -99l263 -523h4l274 527q34 66 80 95t93 29q28 0 53.5 -10t44.5 -28 t30 -44t11 -57q0 -26 -8 -54.5t-27 -59.5l-383 -637v-367z" />
<glyph unicode="Z" horiz-adv-x="1278" d="M1083 259q27 0 50.5 -10t41.5 -28t28 -41.5t10 -50.5t-10 -50.5t-28 -41t-41.5 -27.5t-50.5 -10h-875q-36 0 -64 9.5t-46.5 26t-28 39t-9.5 47.5q0 33 18.5 75t44.5 79q163 230 323.5 459t322.5 459h-565q-27 0 -50.5 10t-41 27.5t-27.5 41t-10 50.5t10 50.5t27.5 41.5 t41 28t50.5 10h838q35 0 65.5 -6.5t53.5 -21t36.5 -38.5t13.5 -58t-18.5 -74t-43.5 -75l-650 -921h584z" />
<glyph unicode="[" horiz-adv-x="789" d="M169 1305q0 34 12.5 61.5t35 46t53 28.5t67.5 10h248q25 0 46 -9t35 -24t22 -35.5t8 -43.5q0 -54 -35.5 -83t-98.5 -29h-102v-1247h102q63 0 98.5 -28.5t35.5 -82.5q0 -51 -33.5 -81.5t-99.5 -32.5h-226q-41 0 -72 9.5t-52.5 32t-32.5 59.5t-11 91v1358z" />
<glyph unicode="\" horiz-adv-x="669" d="M7 1370q-4 11 -5 21t-1 18q0 48 30.5 71.5t72.5 23.5q23 0 41 -10.5t31.5 -28t24 -40t19.5 -46.5l433 -1289q5 -17 10 -33.5t5 -31.5q0 -23 -9.5 -40.5t-24.5 -29.5t-34 -18.5t-37 -6.5q-23 0 -40 10t-30.5 27.5t-23.5 40t-18 46.5z" />
<glyph unicode="]" horiz-adv-x="789" d="M619 -100q0 -34 -13 -61t-35.5 -45.5t-53.5 -28.5t-66 -10h-248q-56 5 -84 38t-28 76q0 51 33.5 81t101.5 30h101v1247h-101q-64 0 -99 28.5t-35 83.5q0 51 33 81.5t100 30.5h226q39 0 70 -9.5t53 -32t33.5 -59.5t11.5 -92v-1358z" />
<glyph unicode="^" horiz-adv-x="1287" d="M642 1211q-63 -128 -125 -254.5t-125 -254.5q-20 -41 -44.5 -68t-59.5 -27q-38 0 -65.5 24.5t-27.5 65.5q0 16 10 38.5t20 42.5l276 553q12 24 25.5 45.5t30.5 38t38 26.5t48 10q48 0 80 -31.5t61 -88.5l276 -553q10 -20 19.5 -43t9.5 -40q0 -39 -27 -62t-65 -23 q-35 0 -59 27t-46 65z" />
<glyph unicode="_" horiz-adv-x="1024" d="M66 -255q-33 0 -49.5 21t-16.5 47q0 37 23 53t71 16h862q33 0 50 -21t17 -48q0 -37 -25 -52.5t-70 -15.5h-862z" />
<glyph unicode="`" horiz-adv-x="569" d="M73 1404q-18 15 -26 32.5t-8 37.5q0 25 12.5 48t32 40.5t44.5 28t50 10.5q32 0 60.5 -22.5t53.5 -58.5l192 -280q8 -13 15.5 -25.5t7.5 -25.5q0 -28 -19 -49.5t-46 -21.5q-16 0 -38 9.5t-37 24.5z" />
<glyph unicode="a" horiz-adv-x="1123" d="M712 658q0 84 -44.5 119t-119.5 35q-45 0 -84 -5t-73.5 -12.5t-65.5 -15.5t-59 -15q-23 -6 -41 -6q-33 0 -59.5 21.5t-26.5 59.5q0 37 19 65t51.5 48.5t75.5 34t90.5 21.5t97.5 11.5t96 3.5q96 0 176 -21.5t137.5 -71.5t90 -131t32.5 -199v-400q0 -39 -5 -75t-20 -64 t-43 -44.5t-74 -16.5q-72 0 -106.5 47.5t-34.5 135.5q-26 -51 -63.5 -88t-82.5 -60.5t-95.5 -35t-102.5 -11.5q-70 0 -130 20.5t-103.5 58t-68 90t-24.5 117.5q0 91 38 156t110.5 106t177 60t238.5 19h96v43zM711 466q-68 2 -135 -2t-120 -21.5t-85.5 -51.5t-32.5 -92 q0 -32 12 -58t33.5 -45t51 -29t65.5 -10q46 0 84.5 16.5t66.5 48t44 77t16 104.5v63z" />
<glyph unicode="b" horiz-adv-x="1255" d="M434 514q0 -81 10.5 -143.5t36 -104.5t68.5 -64t109 -22q60 0 99.5 28t62 74.5t31.5 106t9 122.5q0 60 -9.5 117t-33 102t-64 72t-102.5 27q-63 0 -104.5 -23.5t-67 -65t-35.5 -99.5t-10 -127zM433 830q54 90 144 141.5t207 51.5q85 0 158.5 -36t127.5 -102.5t84.5 -161 t30.5 -211.5q0 -103 -27.5 -197.5t-78.5 -167t-124.5 -116t-165.5 -43.5q-110 0 -202.5 51.5t-153.5 157.5q0 -95 -38.5 -146t-127.5 -51q-84 0 -118.5 51t-34.5 146v1057q0 95 34.5 146t118.5 51q89 0 127.5 -51t38.5 -146v-424z" />
<glyph unicode="c" horiz-adv-x="1031" d="M72 507q0 113 41 208t112.5 164t169 107.5t211.5 38.5q60 0 120.5 -10t109 -31t79 -53.5t30.5 -77.5q0 -44 -28.5 -70t-72.5 -26q-23 0 -48 5t-51.5 10.5t-52.5 10.5t-50 5q-51 0 -96 -17.5t-78 -52.5t-52.5 -87t-19.5 -122q0 -56 15 -107t45.5 -89.5t77 -61.5t109.5 -23 q25 0 53.5 5t56.5 11.5t55.5 11.5t51.5 5q42 0 70.5 -25.5t28.5 -67.5q0 -43 -31 -76.5t-82 -56.5t-116.5 -35t-134.5 -12q-99 0 -193.5 32.5t-167.5 97t-117.5 162t-44.5 227.5z" />
<glyph unicode="d" horiz-adv-x="1258" d="M613 829q-60 0 -100.5 -25t-64.5 -68.5t-34.5 -101.5t-10.5 -123q0 -57 8 -116t30 -107t61.5 -79t102.5 -31q62 0 104.5 20t69 61.5t38 105t11.5 149.5q0 71 -11 129t-36 99.5t-66 64t-102 22.5zM831 1255q0 95 34.5 146t118.5 51q89 0 127.5 -51t38.5 -146v-1058 q0 -95 -38.5 -146t-127.5 -51q-84 0 -118.5 51t-34.5 146q-62 -111 -150.5 -160t-206.5 -49q-91 0 -164 41.5t-124.5 113t-79 167t-27.5 202.5q0 114 29 208t81.5 161.5t127 104.5t164.5 37q111 0 201.5 -50t148.5 -143v425z" />
<glyph unicode="e" horiz-adv-x="1187" d="M1110 536q0 -41 -27 -61t-75 -20h-619q5 -121 69.5 -187.5t196.5 -66.5q43 0 80.5 5.5t73.5 15t72 21.5l75 25q13 5 23 5q33 0 53 -25.5t20 -59.5q0 -20 -7 -38q-20 -48 -66 -79.5t-106 -50t-127 -25.5t-128 -7q-115 0 -214.5 33t-172.5 98t-114.5 163t-41.5 227 q0 108 40 202t111.5 163t170 109t216.5 40q128 0 221 -39.5t154 -106t91 -155t31 -186.5zM843 597q-3 53 -18.5 98t-44 78t-70 51.5t-96.5 18.5q-50 0 -90.5 -19.5t-70 -53t-46 -78t-19.5 -95.5h455z" />
<glyph unicode="f" horiz-adv-x="754" d="M517 197q0 -95 -38.5 -146t-127.5 -51q-84 0 -118.5 51t-34.5 146l-1 627h-50q-27 0 -51 4.5t-41.5 15.5t-28 28.5t-10.5 44.5q0 38 29 65.5t89 27.5h63v64q0 105 20.5 179.5t62.5 122.5t106.5 70t153.5 22q46 0 90.5 -3.5t80 -15.5t57.5 -36t22 -65q0 -45 -27 -72 t-77 -27q-12 0 -24 0.5t-23 0.5q-38 0 -61.5 -9.5t-37 -33.5t-18.5 -65.5t-5 -105.5v-26h96q22 0 43 -5.5t37 -16.5t26 -28.5t10 -42.5q0 -47 -33.5 -70t-94.5 -23h-84v-627z" />
<glyph unicode="g" horiz-adv-x="1258" d="M843 193q-27 -50 -65.5 -85t-85 -57.5t-99 -33t-107.5 -10.5q-92 0 -168 33t-130.5 95.5t-84.5 153.5t-30 208q0 110 28 206t81.5 167t131.5 112t178 41q114 0 202.5 -44t152.5 -144v26q0 72 39.5 108.5t109.5 36.5q42 0 71 -13.5t46 -40t24.5 -65t7.5 -87.5v-670 q0 -122 -30.5 -218t-94.5 -162t-164 -100.5t-238 -34.5q-97 0 -171.5 8.5t-128.5 25.5q-54 19 -81.5 42t-27.5 60q0 21 6 40t18.5 33.5t33 23t50.5 8.5q32 0 64.5 -4t68 -8.5t75 -8.5t85.5 -4q55 0 98 11t73 39t46 74.5t16 118.5v119zM843 504q0 73 -10.5 133t-35.5 102.5 t-67 66t-105 23.5q-62 0 -102.5 -25t-64.5 -69t-33.5 -103t-9.5 -126q0 -153 54 -230t157 -77q48 1 87.5 18.5t68.5 54.5t45 94t16 138z" />
<glyph unicode="h" horiz-adv-x="1238" d="M435 804q18 48 51.5 88.5t79 69.5t101.5 45t119 16q65 0 125.5 -23.5t107.5 -70t75 -116.5t28 -164l-1 -452q0 -95 -38.5 -146t-127.5 -51q-84 0 -118.5 51t-34.5 146v438q0 47 -12.5 82.5t-34 59.5t-51.5 36t-64 12q-41 0 -78 -13.5t-65 -40.5t-44.5 -67.5t-16.5 -95.5 v-411q0 -95 -38.5 -146t-127.5 -51q-84 0 -118.5 51t-34.5 146l-1 1058q0 95 34.5 146t118.5 51q89 0 127.5 -51t38.5 -146v-451z" />
<glyph unicode="i" horiz-adv-x="554" d="M451 1362q0 -33 -15 -58.5t-39 -42.5t-55.5 -25.5t-64.5 -8.5q-35 0 -66.5 9t-55.5 26.5t-38 42.5t-14 57q0 29 13.5 53.5t36.5 42.5t55 28t70 10q33 0 64.5 -9t55.5 -26t38.5 -42t14.5 -57zM436 197q0 -95 -38.5 -146t-127.5 -51q-84 0 -118.5 51t-34.5 146v612 q0 95 34.5 146t118.5 51q89 0 127.5 -51t38.5 -146v-612z" />
<glyph unicode="j" horiz-adv-x="568" d="M450 -17q0 -97 -15 -166.5t-52.5 -114.5t-101.5 -66t-162 -21q-55 0 -90 9.5t-55.5 25t-28 36t-7.5 42.5q0 49 23.5 76t70.5 27q34 1 54 8t30 28t12.5 58.5t2.5 100.5v783q0 95 34.5 146t118.5 51q89 0 127.5 -51t38.5 -146v-826zM465 1362q0 -34 -15 -59t-40 -42 t-56 -25.5t-63 -8.5q-35 0 -66.5 9t-55.5 26.5t-38 42.5t-14 57q0 29 13.5 53.5t36.5 42.5t55 28t70 10q33 0 64 -9t55 -26t39 -42t15 -57z" />
<glyph unicode="k" horiz-adv-x="1111" d="M442 611q70 74 139 147.5t139 148.5q42 47 87.5 78.5t88.5 31.5q27 0 53 -10.5t46.5 -28.5t33 -41t12.5 -48q0 -30 -20 -54t-43 -46q-59 -56 -118.5 -110t-119.5 -111l263 -319q25 -30 45.5 -60t20.5 -58q0 -26 -11.5 -49t-30.5 -40t-43.5 -27t-50.5 -10q-22 0 -49 11 t-54.5 29.5t-54 44t-46.5 55.5q-72 97 -143.5 193t-143.5 193v-334q0 -95 -38.5 -146t-127.5 -51q-84 0 -118.5 51t-34.5 146v1058q0 95 34.5 146t118.5 51q89 0 127.5 -51t38.5 -146v-644z" />
<glyph unicode="l" horiz-adv-x="554" d="M436 197q0 -95 -38.5 -146t-127.5 -51q-84 0 -118.5 51t-34.5 146v1057q0 95 34.5 146t118.5 51q89 0 127.5 -51t38.5 -146v-1057z" />
<glyph unicode="m" horiz-adv-x="1919" d="M121 809q0 95 34.5 146t118.5 51q89 0 127.5 -51t38.5 -146q20 48 54.5 87.5t79 67.5t96.5 43.5t108 15.5q52 0 102.5 -13.5t94 -43t76.5 -74.5t51 -108q31 67 73 113t91 74t102.5 40t107.5 12q64 0 122.5 -23t103 -69.5t71 -117t26.5 -164.5v-452q0 -95 -38.5 -146 t-127.5 -51q-84 0 -118.5 51t-34.5 146v438q0 45 -12 80.5t-33.5 60t-50.5 37t-62 12.5q-41 0 -78 -13t-64.5 -40t-44 -69t-16.5 -101v-405q0 -95 -38.5 -146t-127.5 -51q-84 0 -118.5 51t-34.5 146v419q0 103 -42.5 156t-115.5 53q-43 0 -80 -14t-64 -41t-42.5 -67 t-15.5 -92v-414q0 -95 -38.5 -146t-127.5 -51q-84 0 -118.5 51t-34.5 146v612z" />
<glyph unicode="n" horiz-adv-x="1238" d="M116 809q0 95 34.5 146t118.5 51q89 0 127.5 -51t38.5 -146q18 48 52 87.5t80.5 67.5t102.5 43.5t118 15.5q64 0 124.5 -23t106.5 -69.5t74 -117t28 -164.5v-452q0 -95 -38.5 -146t-127.5 -51q-84 0 -118.5 51t-34.5 146v438q0 48 -12.5 83.5t-34.5 59t-51.5 35.5 t-63.5 12q-42 0 -79.5 -13.5t-65 -40.5t-43.5 -67t-16 -93v-414q0 -95 -38.5 -146t-127.5 -51q-84 0 -118.5 51t-34.5 146z" />
<glyph unicode="o" horiz-adv-x="1258" d="M71 504q0 106 34.5 200.5t104 165.5t174 113t245.5 42q135 0 239 -39t175 -108.5t108 -165t37 -208.5q0 -105 -35 -198.5t-105 -164t-175 -112t-244 -41.5q-137 0 -241.5 39.5t-175 109t-106 164t-35.5 203.5zM404 504q0 -66 12 -125.5t38.5 -104.5t69.5 -71.5t105 -26.5 q57 0 99.5 24t70 67t41.5 103.5t14 133.5q0 66 -12.5 125.5t-39.5 105t-69.5 72t-103.5 26.5t-104 -26t-70 -71t-39 -105t-12 -127z" />
<glyph unicode="p" horiz-adv-x="1258" d="M434 506q0 -67 10.5 -125t36 -101.5t68 -68.5t105.5 -25q58 0 97.5 24.5t63.5 68t34.5 102.5t10.5 128q0 55 -8 112.5t-30 104.5t-61 77t-102 30t-106.5 -20t-70 -61t-37.5 -102.5t-11 -143.5zM433 809q25 53 64 93t86 67t98.5 40.5t102.5 13.5q92 0 166 -41 t126.5 -111.5t80.5 -166t28 -204.5q0 -113 -29.5 -207t-83 -161.5t-128 -105.5t-165.5 -38q-112 0 -200 52t-146 146v-360q0 -95 -38.5 -146t-127.5 -51q-84 0 -118.5 51t-34.5 146v983q0 95 34.5 146t118.5 51q89 0 127.5 -51t38.5 -146z" />
<glyph unicode="q" horiz-adv-x="1258" d="M823 506q0 82 -10.5 143t-35.5 102t-67.5 61.5t-105.5 20.5q-61 0 -101 -28.5t-63.5 -75t-33 -104.5t-9.5 -116q0 -59 8.5 -116.5t31 -103.5t63 -74t104.5 -28q59 0 100.5 23t68 65t38.5 101t12 130zM824 809q0 95 34.5 146t118.5 51q89 0 127.5 -51t38.5 -146l-1 -959 q0 -95 -38.5 -146t-127.5 -51q-84 0 -118.5 51t-34.5 146v336q-57 -91 -144 -144.5t-203 -53.5q-86 0 -159.5 35.5t-128 101.5t-85.5 161t-31 214q0 103 26.5 198t77 167t124 115t168.5 43q112 0 206 -54.5t150 -159.5z" />
<glyph unicode="r" horiz-adv-x="824" d="M436 197q0 -95 -38.5 -146t-127.5 -51q-84 0 -118.5 51t-34.5 146v660q0 37 13.5 65t36 46t51.5 28t61 10q78 0 117.5 -50t39.5 -149q17 101 82 158.5t167 57.5q31 0 55 -10.5t40 -27.5t24 -39t8 -44q0 -64 -44.5 -94.5t-119.5 -35.5q-45 -4 -83.5 -17t-67 -38.5 t-45 -65.5t-16.5 -98v-356z" />
<glyph unicode="s" horiz-adv-x="1071" d="M371 738q0 -39 34 -60.5t94 -35.5q57 -13 117 -25t117 -27.5t107 -36.5t88 -52.5t60 -76t22 -106.5q0 -78 -32 -138.5t-90.5 -102.5t-139.5 -65t-179 -24q-93 0 -179 11.5t-152.5 35.5t-106.5 59.5t-40 83.5q0 42 27 65t69 23q16 0 38 -6t48 -15t55.5 -19.5t61.5 -18.5 q40 -11 82.5 -17.5t87.5 -6.5q28 0 55 5.5t48.5 17t35.5 29.5t17 44q3 6 5 12t2 14q0 28 -25.5 50t-71.5 35q-77 18 -147 33t-129.5 32t-108 39t-82 54t-52 77t-18.5 109q0 69 31.5 123.5t90.5 91.5t143 56.5t190 19.5q190 0 289.5 -45.5t99.5 -118.5q0 -41 -27 -62.5 t-65 -21.5q-20 0 -41.5 7.5t-51.5 17t-71.5 17t-102.5 7.5q-46 0 -83.5 -4t-64 -14t-41 -27t-14.5 -43z" />
<glyph unicode="t" horiz-adv-x="785" d="M212 1010l22 207q3 30 10.5 60t24 55t44.5 40.5t73 15.5q66 0 95.5 -46t29.5 -137v-195h112q51 0 83 -25.5t32 -80.5q0 -51 -34 -76.5t-92 -25.5h-101v-378q0 -60 2 -102t13 -68.5t33 -38t63 -11.5q29 0 56.5 -2.5t48.5 -12.5t33.5 -29.5t12.5 -53.5q0 -38 -19 -61 t-54.5 -35.5t-85 -17t-110.5 -4.5q-70 1 -127.5 21t-99 63.5t-64 113t-22.5 170.5v446h-46q-54 0 -90 25.5t-36 82.5q0 45 28.5 72.5t86.5 27.5h78z" />
<glyph unicode="u" horiz-adv-x="1238" d="M436 371q0 -47 12.5 -82t34.5 -58.5t51.5 -35t63.5 -11.5q40 0 77 12t65.5 37t45.5 63t17 89v424q0 95 34.5 146t118.5 51q89 0 127.5 -51t38.5 -146v-612q0 -95 -38.5 -146t-127.5 -51q-84 0 -118.5 51t-34.5 146q-21 -46 -54.5 -84t-78 -65.5t-98 -42.5t-115.5 -15 q-67 0 -128.5 23.5t-108.5 70t-75 115.5t-28 161v449q0 95 34.5 146t118.5 51q89 0 127.5 -51t38.5 -146v-438z" />
<glyph unicode="v" horiz-adv-x="1117" d="M827 222q-21 -60 -47 -102.5t-58 -69t-72 -38.5t-90 -12q-60 0 -103 19t-77.5 58t-63.5 98.5t-59 140.5l-161 432q-11 28 -24 60.5t-13 59.5q0 31 11 56.5t30.5 43.5t45.5 28t56 10q35 0 66.5 -21.5t56.5 -54.5t43.5 -72t27.5 -73l164 -509l175 546q11 38 26.5 71.5 t36.5 58.5t47.5 39.5t60.5 14.5q29 0 56 -9t47.5 -26.5t33 -43t12.5 -59.5q0 -26 -12 -59t-22 -61q-48 -133 -96.5 -263.5t-97.5 -262.5z" />
<glyph unicode="w" horiz-adv-x="1769" d="M891 767l-145 -455q-24 -77 -50 -135.5t-57.5 -97.5t-71.5 -59t-92 -20q-42 0 -75.5 14.5t-61 45.5t-50 80t-42.5 118l-138 462q-11 34 -24.5 71.5t-13.5 70.5t9.5 59.5t26 45t39.5 29t50 10.5q32 0 58.5 -12.5t47 -34t35 -51.5t22.5 -65l149 -573l163 498q15 49 31.5 93 t41.5 77t60.5 52.5t88.5 19.5q49 0 83 -13.5t58.5 -40.5t42 -68t32.5 -95l155 -515q35 130 70.5 258.5t70.5 258.5q10 40 24 78.5t34 69t47 49t64 18.5q60 0 93 -37.5t33 -97.5q0 -29 -10 -64t-21 -67l-149 -460q-18 -57 -39 -108.5t-48.5 -90.5t-64 -62t-87.5 -23 q-45 0 -80.5 15t-64.5 51t-55 96t-52 151z" />
<glyph unicode="x" horiz-adv-x="1126" d="M354 519q-45 54 -87.5 107t-85.5 107q-28 34 -49 71t-21 69q0 28 12.5 52.5t33.5 42.5t48.5 28t57.5 10q42 0 79.5 -29.5t68.5 -72.5l155 -214q30 39 60 83t62 85t65 74.5t69 50.5q14 11 29.5 16t31.5 5q26 0 50.5 -10t43 -27t29.5 -39.5t11 -47.5q0 -33 -21.5 -69 t-47.5 -71l-175 -219q49 -62 97.5 -123.5t98.5 -123.5q27 -35 48.5 -72t21.5 -69q0 -25 -11.5 -48t-30 -41t-43.5 -28.5t-52 -10.5q-18 0 -40.5 8t-46 22t-46 34.5t-40.5 46.5l-172 232l-173 -233q-18 -25 -39.5 -45.5t-44 -34.5t-43.5 -22t-39 -8q-26 0 -50 10.5t-42 28.5 t-29 40.5t-11 46.5q0 15 6.5 33.5t17 38t24.5 39.5t28 38z" />
<glyph unicode="y" horiz-adv-x="1091" d="M403 13l-326 761q-11 25 -20.5 51.5t-9.5 50.5q0 29 11 53t30 41t44 26.5t54 9.5q31 0 57 -15.5t47.5 -41.5t38 -59t29.5 -67l192 -522l198 525q17 49 44 84t58 58q13 20 32.5 28.5t41.5 8.5q26 0 49 -11t40.5 -30t27.5 -43t10 -50t-12 -57.5t-23 -59.5l-401 -1018 q-13 -33 -28.5 -63t-35 -53t-43.5 -37t-54 -14q-31 0 -58.5 10t-48 29t-32.5 45t-12 59q1 29 14 63.5t24 65.5z" />
<glyph unicode="z" horiz-adv-x="1007" d="M832 228q27 0 48 -10t36 -26.5t22.5 -36.5t7.5 -41q0 -62 -43 -88t-115 -26h-574q-29 0 -55.5 5.5t-47 18t-32.5 34t-12 54.5t17 64.5t40 60.5l426 543h-304q-33 0 -61.5 5.5t-49.5 19t-33.5 35.5t-12.5 55q0 115 157 115h518q37 0 69.5 -4t57 -16t38.5 -32.5t14 -53.5 q-1 -32 -19.5 -65t-40.5 -62l-418 -549h367z" />
<glyph unicode="{" horiz-adv-x="789" d="M629 -23q28 0 52 -6t42 -20.5t28.5 -38.5t10.5 -59q-5 -44 -30.5 -72.5t-81.5 -28.5h-150q-51 0 -98 15.5t-83 46t-57.5 75.5t-21.5 104v321q0 43 -5 75.5t-19 55.5t-38 36t-61 16q-23 2 -43.5 9t-37 20.5t-26 35t-9.5 52.5q0 49 28.5 80.5t87.5 36.5q69 5 96 47t27 137 v311q0 44 14.5 89t46 81.5t81 59.5t118.5 23h139q22 0 43.5 -4t38.5 -16.5t28 -35t11 -58.5q0 -54 -32.5 -83t-88.5 -29h-16q-34 0 -52.5 -14t-27 -41t-10 -67.5t-1.5 -92.5v-161q0 -103 -42 -166.5t-136 -91.5q-4 -4 -5 -6q18 -5 49 -19t60.5 -41t51.5 -70t22 -107v-195 q0 -48 1 -85.5t10 -64t29 -40.5t57 -14z" />
<glyph unicode="|" horiz-adv-x="455" d="M125 1394q0 24 8.5 43t22.5 31.5t32.5 19.5t39.5 7q31 0 51 -13.5t31.5 -36.5t15.5 -53.5t4 -64.5v-1443q0 -26 -5 -50.5t-16.5 -43.5t-31.5 -30.5t-50 -11.5q-32 0 -52 13.5t-31 37t-15 54t-4 64.5v1477z" />
<glyph unicode="}" horiz-adv-x="789" d="M169 -23q30 0 47 11.5t26 34t11 56.5t2 79v218q0 59 19 100.5t47.5 69.5t60 43.5t57.5 23.5q-6 7 -27.5 15.5t-41.5 20.5q-22 13 -42.5 32t-36.5 43.5t-26 56.5t-10 72v197q0 43 -1 80t-9.5 64.5t-27 43t-53.5 15.5h-17q-24 0 -46.5 6t-39 20t-26.5 35.5t-10 53.5 q0 48 27.5 79.5t84.5 31.5h155q49 0 95 -16t81.5 -46.5t57 -76t21.5 -103.5v-322q0 -45 5.5 -78t19 -55.5t37.5 -35t61 -15.5q22 -2 42.5 -9t37 -20.5t26.5 -35t10 -52.5q0 -23 -7 -43.5t-20 -36.5t-32 -25.5t-44 -9.5q-39 -2 -65.5 -13t-42 -33t-22 -56t-6.5 -83v-310 q0 -51 -16.5 -96.5t-49 -80t-80 -55t-109.5 -20.5h-155q-47 0 -80 27.5t-33 84.5q0 23 6.5 43.5t20.5 36t35 24.5t51 9h32z" />
<glyph unicode="~" horiz-adv-x="1287" d="M786 1313q14 0 22.5 8t14.5 19.5t11.5 25.5t15 25.5t24.5 19.5t40 8q14 0 28 -5.5t25 -15t18 -23t7 -29.5q0 -52 -16 -92t-43 -67t-63 -40.5t-76 -13.5q-44 0 -83.5 16t-75 35.5t-67 36.5t-59.5 19q-21 0 -31 -8t-18.5 -21t-19.5 -29.5t-34 -33.5q-10 -8 -23 -10t-25 -2 q-31 0 -52.5 20t-21.5 50q0 58 20.5 98.5t51 66t66 37t65.5 11.5q48 0 91 -16.5t80.5 -36.5t69.5 -36.5t58 -16.5z" />
<glyph unicode="&#xa1;" horiz-adv-x="776" d="M398 850.031q38 0 70 9.99902q32 9.99805 55 27.4961t36 40.4951t13 48.9941q0 27.9961 -13 51.4941q-13 23.4971 -36.5 40.4941q-23.5 16.998 -55.5 26.4971t-69 9.49902q-40 0 -72 -9.99902t-55 -26.9961q-23 -16.998 -35.5 -40.4951t-12.5 -50.4941 q0 -24.9971 12 -47.9941t34.5 -40.4951t55 -27.9961q32.5 -10.499 73.5 -10.499zM398 711.048q-38 0 -65 -16.998q-27 -16.9971 -45 -46.9941q-18 -29.9961 -27 -70.9912t-11 -88.9893l-33 -704.914q-1 -4.99902 -1 -16.9971q0 -32.9961 15 -58.4932t40 -43.4951 t58 -27.4961q33 -9.49902 68 -9.49902t68 9.49902q33 9.49805 58 27.4961t40 43.4951t15 58.4932q0 11.998 -1 16.9971l-33 704.914q-2 47.9941 -11 88.9893t-26 70.9912q-17 29.9971 -44 46.9941q-27 16.998 -65 16.998z" />
<glyph unicode="&#xa2;" horiz-adv-x="1063" d="M104 507q0 110 36 201t98.5 158.5t146 109t179.5 53.5v170q0 43 19 64.5t53 21.5q27 0 49 -18t22 -53v-184q51 -5 101.5 -18.5t90.5 -35t65 -49.5t25 -61q0 -17 -6.5 -35.5t-18.5 -34t-30 -25.5t-41 -10h-6q-53 11 -102 23t-97 12q-54 0 -101 -15.5t-82.5 -50t-56 -89 t-20.5 -132.5q0 -73 18.5 -127.5t52 -90.5t81.5 -53.5t108 -17.5q52 0 108.5 13t107.5 25h5q22 0 39.5 -10t29.5 -25t18 -33t6 -35q0 -42 -30.5 -72.5t-75.5 -50.5t-96 -32t-93 -16v-184q0 -33 -21.5 -52t-50.5 -19t-50 18.5t-21 52.5v184q-96 9 -180 48t-146.5 105.5 t-98 159.5t-35.5 210z" />
<glyph unicode="&#xa3;" horiz-adv-x="1399" d="M195 671q-28 0 -49 9t-35.5 24.5t-21.5 36t-7 43.5q0 54 35.5 85t110.5 31h50v136q0 103 29 185t87.5 139.5t147.5 88t210 30.5q40 0 87.5 -4t95.5 -13t93.5 -23.5t80 -36t55.5 -50.5t21 -66q0 -42 -29 -70.5t-87 -28.5q-32 0 -70 7.5t-77.5 16.5t-77 16.5t-68.5 7.5 q-59 0 -92.5 -15t-50.5 -47t-21.5 -82.5t-4.5 -120.5v-70h217q31 0 58 -5.5t46.5 -18t30.5 -33.5t11 -51q0 -64 -44.5 -92.5t-136.5 -28.5h-182v-406h480q39 0 74.5 -6.5t62.5 -22.5t43.5 -42.5t16.5 -65.5q0 -70 -42.5 -99.5t-119.5 -29.5h-855q-35 0 -65 5.5t-52.5 20 t-35.5 39.5t-13 64q0 27 7.5 51t24 42t41 28.5t59.5 10.5h45v411h-83z" />
<glyph unicode="&#xa4;" horiz-adv-x="1258" d="M636 198q-75 0 -137 17t-113 49l-63 -64q-20 -21 -36.5 -31.5t-39.5 -10.5q-16 1 -27.5 8t-19 18t-11.5 24.5t-4 27.5q3 22 20 39l80 80q-45 55 -65.5 121.5t-20.5 137.5q0 68 20 133t62 121l-62 63q-15 16 -25 30t-9 37q1 25 22 44t47 19q17 0 31.5 -10.5t29.5 -23.5 l65 -66q51 33 114 52.5t142 19.5q78 0 141.5 -18.5t114.5 -53.5l65 66q14 14 32.5 23t32.5 9q24 0 44 -18t22 -43q0 -23 -9.5 -37.5t-24.5 -29.5l-63 -63q42 -54 62.5 -120.5t20.5 -133.5q0 -72 -21.5 -137.5t-65.5 -122.5l59 -58q20 -20 30.5 -36.5t11.5 -39.5 q-2 -16 -9 -28t-18 -19.5t-24.5 -11t-26.5 -3.5q-14 2 -28 12t-25 23l-72 71q-101 -66 -249 -66zM636 907q-72 0 -125.5 -25.5t-89 -67t-53 -94t-17.5 -106.5q0 -55 18 -107.5t53.5 -93.5t89 -66t124.5 -25q68 0 121 23.5t89.5 64t55.5 93t19 111.5q0 54 -18 107t-54 94 t-89.5 66.5t-123.5 25.5z" />
<glyph unicode="&#xa5;" horiz-adv-x="1338" d="M878 654h264q32 0 48.5 -21t16.5 -45q0 -26 -16 -46t-49 -20h-285v-115h285q32 0 48.5 -20.5t16.5 -45.5q0 -26 -16 -46.5t-49 -20.5h-286v-51q0 -44 -9 -84t-31 -70.5t-57.5 -48.5t-88.5 -18q-90 0 -138 53t-48 168v51h-273q-34 0 -49.5 21t-15.5 47q0 23 15 44t50 21 h273v115h-273q-34 0 -49.5 20.5t-15.5 46.5q0 24 15.5 44.5t49.5 20.5h247l-314 511q-22 35 -41.5 73.5t-19.5 69.5q0 29 12.5 53.5t34.5 42.5t50 28t60 10q36 0 70.5 -19t64 -47.5t52.5 -62t36 -61.5l223 -403l229 410q20 38 43.5 72t49.5 59t54.5 39.5t59.5 14.5 q26 0 51.5 -8t45.5 -23t32.5 -37.5t12.5 -51.5q0 -15 -5.5 -32t-13.5 -35t-18.5 -36t-20.5 -34q-82 -134 -163.5 -266.5t-164.5 -266.5z" />
<glyph unicode="&#xa6;" horiz-adv-x="455" d="M125 1352q0 48 29.5 75t73.5 27q52 0 77 -36t25 -93v-460q0 -25 -5 -48.5t-17 -41.5t-31.5 -29t-49.5 -11q-53 0 -77.5 35t-24.5 95v487zM125 611q0 45 29 73.5t74 28.5q52 0 77 -35.5t25 -95.5v-475q0 -25 -5 -48.5t-16.5 -41.5t-31.5 -29t-50 -11q-53 0 -77.5 34.5 t-24.5 95.5v504z" />
<glyph unicode="&#xa7;" d="M610 911q-30 -18 -54.5 -35t-42 -34.5t-26.5 -36.5t-9 -43q0 -30 18 -52.5t46.5 -41t63.5 -34.5t69 -31q31 17 58 34.5t47.5 36t32 39.5t11.5 45q0 28 -17 49.5t-46 39t-68 32.5t-83 32zM983 1477q42 -9 61 -36t19 -56q0 -19 -7 -36t-19 -30t-29.5 -21t-38.5 -8 q-16 0 -31 5l-47 9q-33 6 -63.5 11t-65.5 5q-27 0 -55 -4.5t-50.5 -16t-37 -30t-14.5 -46.5q0 -32 21 -54.5t55.5 -40.5t78.5 -34t90.5 -34t90.5 -40.5t78.5 -54t55.5 -74.5t21 -101q0 -96 -59.5 -167.5t-165.5 -111.5q42 -17 76 -40t58.5 -52.5t38 -66.5t13.5 -81 q0 -72 -29.5 -128t-84 -95t-132 -60.5t-173.5 -22.5h-34q-90 0 -178.5 12t-173.5 33q-42 11 -60 34.5t-18 52.5q0 19 7.5 36.5t20 31t30 22t38.5 8.5q26 0 59.5 -11t64.5 -16q29 -5 61 -7t70 -2q33 0 64 7.5t55.5 23.5t39 40.5t14.5 58.5q0 32 -21.5 54.5t-57 40.5 t-80.5 33.5t-92 33t-92 40t-80.5 54t-57 74.5t-21.5 102q0 41 16.5 81.5t46 75.5t71.5 62.5t93 41.5q-5 2 -7 6q-86 35 -131 94.5t-45 136.5q0 295 445 295q78 0 150.5 -10.5t147.5 -26.5z" />
<glyph unicode="&#xa8;" horiz-adv-x="569" d="M55 1171q-29 0 -55.5 10.5t-47.5 29t-33.5 45t-12.5 58.5q0 29 11.5 55.5t32 46t47.5 31t58 11.5q30 0 56.5 -11t47 -30.5t32.5 -46t12 -56.5t-12 -56.5t-32.5 -45.5t-47 -30t-56.5 -11zM515 1171q-29 0 -56 10.5t-47.5 29t-33 45t-12.5 58.5q0 28 11 54.5t31 46 t47.5 31.5t59.5 12q29 0 55.5 -11t47 -30t33 -45.5t12.5 -57.5q0 -30 -12 -56.5t-32.5 -45.5t-47 -30t-56.5 -11z" />
<glyph unicode="&#xa9;" horiz-adv-x="1733" d="M874 67q-98 0 -190.5 24t-174 68.5t-149.5 107t-117 140.5t-76 168.5t-27 190.5q0 93 25 181.5t71.5 166.5t112.5 143.5t147.5 112.5t177 73.5t200.5 26.5q96 0 187.5 -24t173 -68.5t149.5 -108t117 -141.5t76.5 -169.5t27.5 -192.5q0 -96 -26 -185t-74 -167t-115 -141.5 t-148 -109.5t-174.5 -71t-193.5 -25zM304 766q0 -116 42.5 -218t118.5 -178t180.5 -119.5t228.5 -43.5q116 0 219 41t180.5 115.5t123 177t45.5 225.5q0 115 -42.5 217t-118 178t-180 120t-227.5 44q-121 0 -225 -42.5t-180.5 -117.5t-120.5 -177.5t-44 -221.5zM975 517 q28 1 54.5 8t54.5 21q9 3 16 3q22 0 36.5 -18.5t14.5 -40.5q0 -23 -15 -41t-39 -31t-54 -22t-60 -14.5t-57.5 -8t-45.5 -2.5q-75 0 -144.5 24t-123 72.5t-86 123.5t-32.5 177q0 97 31 170.5t84 123t123.5 74t148.5 24.5q22 0 50 -2.5t58 -8.5t58.5 -15t51 -21t36.5 -28 t14 -35q0 -24 -15 -45.5t-41 -21.5q-9 0 -23.5 4.5t-30.5 10t-32 11.5t-29 9q-42 9 -81 9q-49 0 -92 -14t-75 -44.5t-50.5 -79.5t-18.5 -119q0 -64 17.5 -113t48.5 -82.5t73 -51t91 -17.5q40 0 84 11z" />
<glyph unicode="&#xaa;" horiz-adv-x="1123" d="M611 1246q0 63 -33.5 88.5t-90.5 25.5q-36 0 -66.5 -4.5t-57.5 -11.5t-51.5 -15.5t-49.5 -15.5q-4 -1 -7 -1.5t-6 -0.5q-26 0 -43.5 17t-17.5 42q0 10 5 22q11 33 38 56t67 38t91.5 21.5t111.5 6.5q71 0 129.5 -16t100.5 -53t65.5 -97t23.5 -148v-295q0 -29 -3 -55.5 t-13 -47.5t-30.5 -33.5t-54.5 -12.5q-43 0 -72 27t-29 86l-1 19q-15 -41 -42 -69.5t-61.5 -46t-73 -25.5t-74.5 -8q-50 0 -94 14t-76.5 42t-51.5 68t-19 93q0 130 106 188.5t312 61.5h33t35 -1v41zM611 1098q-52 0 -102.5 -3t-90.5 -15t-64.5 -37t-24.5 -70q0 -55 34 -83 t88 -30q70 1 114 50.5t46 139.5v48z" />
<glyph unicode="&#xab;" horiz-adv-x="1238" d="M363 972q27 43 59 61.5t67 18.5q23 0 43.5 -8t35.5 -22.5t24 -34t9 -41.5q0 -15 -7.5 -34t-15.5 -37l-155 -346q42 -92 82 -182.5t81 -181.5q5 -12 9.5 -24t6.5 -24q0 -50 -32.5 -81t-86.5 -31q-41 1 -73.5 29t-63.5 81l-241 414zM865 972q26 42 58.5 61t66.5 19 q23 0 43.5 -8t36 -22.5t24.5 -34t9 -41.5q0 -15 -7.5 -34t-15.5 -37l-155 -346l163 -364q5 -12 9.5 -24t6.5 -24q0 -51 -33 -81.5t-87 -30.5q-39 0 -73 28.5t-64 81.5l-241 414z" />
<glyph unicode="&#xac;" horiz-adv-x="1287" d="M1159 341q0 -27 -9 -46t-24 -31t-33.5 -18t-36.5 -6q-55 0 -78.5 35.5t-23.5 104.5v259h-665q-30 0 -59 3.5t-51 14.5t-35.5 31t-13.5 54q0 102 138 102h747q29 0 55 -5t46 -18.5t31.5 -37.5t11.5 -61v-381z" />
<glyph unicode="&#xad;" horiz-adv-x="569" />
<glyph unicode="&#xae;" horiz-adv-x="1740" d="M594 1034q0 104 91 104h194q84 0 147.5 -9.5t106.5 -34.5t64.5 -68.5t21.5 -112.5q0 -51 -15.5 -87.5t-43 -61t-67 -39.5t-87.5 -22l131 -198q10 -17 18.5 -34t8.5 -30q0 -30 -21.5 -49.5t-50.5 -19.5q-30 0 -52.5 22.5t-40.5 54.5l-143 249h-110v-223q0 -21 -3.5 -40 t-12.5 -34t-24 -23.5t-37 -8.5q-29 0 -52 17.5t-23 55.5v592zM746 1015v-195h28q35 0 68 -0.5t62 -0.5q36 0 65.5 3.5t50.5 15t32.5 32t11.5 54.5q0 52 -42.5 71.5t-116.5 19.5h-159zM872 49q-101 0 -195 25t-176 70.5t-149.5 109.5t-116 142t-75.5 168t-27 187 q0 94 25.5 183.5t73 168.5t114.5 144.5t149 112.5t177 73.5t200 26.5q98 0 190.5 -24.5t174.5 -69.5t150.5 -109t118 -143t77 -170.5t27.5 -192.5q0 -95 -26 -183.5t-73.5 -166.5t-114.5 -143t-149 -111t-177 -72t-198 -26zM299 751q0 -116 42.5 -218t118.5 -178.5t181 -121 t231 -44.5q118 0 222.5 42t182.5 117t123 178t45 225q0 114 -42 216t-118 179t-181 122t-232 45q-118 0 -222.5 -42t-182.5 -117t-123 -178t-45 -225z" />
<glyph unicode="&#xaf;" horiz-adv-x="569" d="M25 1254q-40 0 -64.5 25.5t-24.5 67.5q0 40 26 66t76 26h497q19 0 37 -5t32 -16t22.5 -28.5t8.5 -42.5q0 -42 -24.5 -67.5t-75.5 -25.5h-510z" />
<glyph unicode="&#xb0;" horiz-adv-x="819" d="M709 1164q0 -60 -23.5 -113.5t-64 -93.5t-95 -63.5t-116.5 -23.5q-61 0 -115.5 22.5t-95.5 61.5t-65 93t-24 117q0 58 22.5 111t62.5 93.5t95 64.5t120 24q59 0 113 -22.5t95.5 -61.5t66 -92.5t24.5 -116.5zM249 1164q0 -33 12 -61.5t33.5 -49.5t51 -33.5t64.5 -12.5 q31 0 60 11t51 31.5t35.5 49.5t13.5 65q0 31 -12 59t-33 50t-50.5 35t-65.5 13q-34 0 -63.5 -12.5t-51 -33.5t-33.5 -49.5t-12 -61.5z" />
<glyph unicode="&#xb1;" horiz-adv-x="1287" d="M746 368q0 -24 -9 -42.5t-23.5 -31.5t-33.5 -19.5t-38 -6.5q-54 0 -78 35t-24 104v130h-283q-26 0 -48.5 5t-40 17t-27.5 31.5t-10 48.5q0 101 139 101h270v132q0 26 4 51t15 44.5t31.5 31.5t52.5 12q54 0 78.5 -36.5t24.5 -102.5v-132h284q25 0 48 -5t40.5 -17t28 -31.5 t10.5 -47.5q0 -52 -34.5 -77t-92.5 -25h-284v-169zM1056 202q48 0 74.5 -30t26.5 -71q0 -54 -37.5 -77.5t-103.5 -23.5h-765q-26 0 -48 5.5t-38 17.5t-25 31t-9 47q0 101 140 101h785z" />
<glyph unicode="&#xb2;" horiz-adv-x="764" d="M358 1313q-44 0 -87.5 -14t-77.5 -27q-6 -4 -13 -5t-15 -1q-29 0 -47.5 21t-18.5 50q0 21 15 38t39 31t55 24.5t63 17.5t62.5 10.5t54.5 3.5q63 0 115.5 -15t89.5 -43t57.5 -68.5t20.5 -91.5q0 -60 -30 -123t-80 -124t-115 -119t-134 -109h241q24 0 46.5 -3t40 -11 t28 -22t10.5 -37q0 -38 -26 -55t-71 -17h-407q-20 0 -38 3.5t-32 12.5t-22.5 23.5t-8.5 35.5q0 29 15 59t46 56q61 52 123 106.5t111 107.5t80 102.5t31 92.5q0 23 -10 40t-27 28t-39 16.5t-45 5.5z" />
<glyph unicode="&#xb3;" horiz-adv-x="851" d="M396 1094q30 0 56 8t45 23.5t30 38t11 51.5q0 25 -10.5 44t-28.5 32t-42.5 19.5t-51.5 6.5q-24 0 -52.5 -4.5t-54 -10t-45 -10t-26.5 -4.5q-32 0 -50.5 19t-18.5 45q0 33 35.5 57.5t101.5 35.5l41 7q23 4 47 6t47 1q58 -2 107 -19t84 -48t55 -74.5t20 -97.5 q0 -72 -40.5 -118.5t-107.5 -66.5q81 -25 125 -77.5t44 -137.5q0 -51 -21 -93.5t-59.5 -73t-94 -47.5t-124.5 -17q-34 0 -78.5 6.5t-84.5 20t-67.5 33.5t-27.5 46q0 12 4 24.5t13 22t23 16t34 6.5q12 0 32 -5.5t44.5 -12t51.5 -12t52 -5.5q28 0 53 6t43.5 18.5t29 32.5 t10.5 49q0 25 -10 48.5t-29.5 41.5t-48 29t-66.5 11h-47q-31 0 -46.5 19.5t-15.5 44.5t16 45t46 20h47z" />
<glyph unicode="&#xb4;" horiz-adv-x="569" d="M182 1139q-23 -20 -54 -20q-26 0 -48.5 17.5t-22.5 49.5q0 15 7.5 27.5t16.5 26.5l199 288q22 32 47.5 53.5t57.5 21.5q24 0 48 -10t44 -27t32.5 -40.5t12.5 -50.5q-1 -46 -46 -84z" />
<glyph unicode="&#xb5;" horiz-adv-x="1238" d="M117 854q0 35 12.5 63t33.5 47.5t49 30t60 10.5q82 0 123 -55t41 -171v-394q0 -97 38 -152.5t124 -55.5q39 0 75 12t63.5 37t45 63.5t20.5 92.5v397q0 45 8 86t27 72t50.5 49.5t78.5 18.5q81 0 118.5 -49t37.5 -140v-565q0 -51 -4.5 -96t-20.5 -79t-47.5 -53.5 t-85.5 -19.5q-80 0 -121 49t-41 149q-18 -45 -49 -78.5t-70 -56.5t-83 -34.5t-87 -11.5q-41 0 -77 12v-122q0 -45 -9 -86t-29 -71.5t-51.5 -48.5t-76.5 -18q-81 0 -117 49.5t-36 144.5v974z" />
<glyph unicode="&#xb6;" d="M944 1451q58 0 92.5 -15t52 -40t22.5 -58t5 -70q0 -320 -1 -636t-1 -635q0 -63 -24 -100t-81 -37q-33 0 -53.5 13.5t-32 37t-15.5 54.5t-4 67v1256h-184v-1256q0 -31 -3.5 -62t-15 -55.5t-32 -39.5t-54.5 -15q-33 0 -53.5 13.5t-32 37t-15.5 54.5t-4 67v700 q-92 0 -168 28.5t-130.5 77.5t-84.5 114t-30 138q0 71 25 134t74.5 111.5t122.5 78.5t169 35q20 1 40 1.5t41 0.5h375z" />
<glyph unicode="&#xb7;" horiz-adv-x="649" d="M150 517q0 34 13.5 65t36.5 54t55 36.5t69 13.5q36 0 68 -13t55.5 -35.5t37.5 -53.5t14 -67q0 -34 -13 -65t-36.5 -54t-55.5 -37t-70 -14t-70 13.5t-55 36.5t-36 54t-13 66z" />
<glyph unicode="&#xb8;" horiz-adv-x="569" d="M235 5h111l-49 -114q39 3 65 3q36 -1 66.5 -11t53.5 -30.5t36 -51t13 -73.5q-2 -44 -24 -76.5t-56.5 -53.5t-79 -31t-92.5 -10q-34 0 -72 4.5t-71.5 12t-58.5 18.5t-32 23q-6 10 -6 26q0 21 12 37t35 16q2 0 4 -0.5t4 -0.5q34 -9 76 -21.5t80 -12.5q57 0 81.5 21.5 t24.5 56.5q0 19 -8.5 32t-22 21t-30.5 11.5t-34 3.5q-8 -1 -16 -2.5t-16 -2.5q-28 0 -43.5 10.5t-15.5 31.5q0 15 9 35z" />
<glyph unicode="&#xb9;" horiz-adv-x="714" d="M235 1183q-17 -10 -35 -10q-30 0 -48.5 21.5t-18.5 47.5q0 20 11 35.5t36 29.5l181 106q16 10 33 18t37 8q43 0 61.5 -33t18.5 -94v-559q0 -26 -3 -49t-12.5 -40t-27 -27.5t-46.5 -10.5q-48 0 -67.5 37t-19.5 105v475z" />
<glyph unicode="&#xba;" horiz-adv-x="1026" d="M83 1148q0 71 23.5 137t74 117t130 81.5t192.5 30.5q106 0 185.5 -28t132 -77t78.5 -116t26 -145q0 -73 -24.5 -139.5t-76 -116.5t-131.5 -80t-190 -30q-109 0 -188.5 28.5t-131 78t-76 116t-24.5 143.5zM335 1144q0 -44 9.5 -84t30 -70.5t52.5 -48.5t77 -18 q44 0 75.5 18t52 49t30.5 72.5t10 87.5q0 44 -10 84.5t-30.5 71t-52 48.5t-75.5 18t-76 -18.5t-52.5 -49.5t-30.5 -72.5t-10 -87.5z" />
<glyph unicode="&#xbb;" horiz-adv-x="1238" d="M1129 529l-242 -414q-33 -54 -64.5 -82t-72.5 -28q-23 0 -44 7t-37 20t-26 32t-10 43q-1 17 6.5 36.5t15.5 38.5l156 347l-156 346q-8 19 -16 37.5t-8 36.5q0 22 9.5 41t25.5 32.5t37 21t44 7.5q41 0 74 -27.5t66 -81.5zM628 529l-242 -414q-33 -54 -65 -82t-72 -28 q-23 0 -44 7t-37.5 20t-26.5 32.5t-10 44.5q0 17 7 35t15 36l156 349l-156 348q-8 17 -15 35t-7 35q0 23 9 42.5t25 33t36.5 21t44.5 7.5q41 -1 74.5 -27.5t65.5 -81.5z" />
<glyph unicode="&#xbc;" horiz-adv-x="1737" d="M692 1q-13 -35 -37 -50t-50 -15q-40 0 -68.5 26t-28.5 67q0 21 7.5 43t15.5 43l420 1238q7 23 17 44t22.5 37.5t29 26.5t37.5 10q19 0 36 -6t30.5 -17.5t21.5 -29t8 -40.5q0 -26 -11 -56.5t-19 -56.5zM1236 718q17 31 34 53.5t36 36.5t42 20.5t52 6.5q68 0 94 -47 t26 -140v-358h28q42 0 65 -13.5t23 -43.5q0 -23 -17 -40.5t-49 -17.5h-50v-57q0 -24 -4 -45t-13.5 -37.5t-25 -26t-38.5 -9.5q-46 0 -63.5 35.5t-17.5 95.5v44h-281q-23 0 -43.5 2.5t-36.5 9.5t-25 19.5t-9 32.5q0 23 14 47zM1129 285h229v402zM226 1183q-17 -10 -36 -10 q-30 0 -48 21.5t-18 47.5q0 20 11.5 35t34.5 30l181 106q16 10 33.5 18t37.5 8q43 0 61.5 -33t18.5 -94v-559q0 -25 -3 -48t-12.5 -40.5t-27 -28t-47.5 -10.5q-49 0 -67.5 36.5t-18.5 105.5v475z" />
<glyph unicode="&#xbd;" horiz-adv-x="1763" d="M680 1q-12 -35 -36.5 -50t-50.5 -15q-18 0 -35.5 6.5t-31 18.5t-22 28.5t-8.5 36.5q0 21 7.5 44t15.5 45l421 1238q8 23 17.5 44t22.5 37.5t29 26.5t37 10q18 0 35 -5.5t30.5 -17t22 -28t8.5 -38.5q0 -21 -7 -45.5t-15 -45.5zM1320 687q-24 0 -48 -4.5t-46.5 -11 t-43 -13.5t-37.5 -13q-11 -3 -19 -3q-29 0 -47 21t-18 49q0 30 32 53.5t77.5 39.5t94.5 24t84 8q61 0 113.5 -14.5t90 -42t59 -68.5t21.5 -94q0 -60 -30 -123t-80.5 -124t-115 -119t-133.5 -108h247q48 0 82 -18.5t34 -60.5q0 -33 -23 -49.5t-58 -16.5h-421q-20 0 -38 3.5 t-32 12.5t-22 24t-8 37q0 23 7 41.5t20 34.5t29.5 31t35.5 31l37 32q20 17 39 34t36 34l28 25q39 36 71 71.5t55 69t35.5 63.5t12.5 54q0 23 -10 40t-27 28t-39 16.5t-45 5.5zM226 1183q-17 -10 -36 -10q-30 0 -48 21.5t-18 47.5q0 20 11.5 35t34.5 30l181 106 q16 10 33.5 18t37.5 8q43 0 61.5 -33t18.5 -94v-559q0 -25 -3 -48t-12.5 -40.5t-27 -28t-47.5 -10.5q-49 0 -67.5 36.5t-18.5 105.5v475z" />
<glyph unicode="&#xbe;" horiz-adv-x="1857" d="M327 1098q30 0 56 8t45 23.5t30 38t11 51.5q0 25 -10.5 43.5t-29 31.5t-42.5 19.5t-51 6.5q-24 0 -52.5 -4.5t-54.5 -9.5t-45.5 -9.5t-26.5 -4.5q-31 0 -49.5 18.5t-18.5 45.5q0 34 36.5 58t99.5 35l42 7q23 4 47 6t47 1q59 -2 107.5 -19.5t83.5 -48.5t54.5 -74.5 t19.5 -96.5q0 -71 -41 -118t-107 -67v-2q78 -17 123.5 -72.5t45.5 -140.5q0 -50 -20 -92t-58 -73t-93.5 -48.5t-126.5 -17.5q-36 0 -81 7t-84 20.5t-66 33.5t-27 46q0 24 16.5 46t56.5 22q12 0 31.5 -5.5t43.5 -12t51 -12t54 -5.5q29 0 54 5.5t43.5 18.5t29 32.5t10.5 48.5 q0 25 -10 49t-29.5 42t-48.5 29t-67 11h-46q-32 0 -47.5 19t-15.5 45q0 22 7.5 34.5t22 19.5t34.5 9t46 2zM784 1q-12 -35 -36 -50t-50 -15q-19 0 -36.5 6.5t-31 18.5t-21.5 28.5t-8 36.5q0 21 7.5 44t15.5 45l421 1238q8 23 17.5 44t22 37.5t28.5 26.5t37 10 q42 0 69.5 -24.5t27.5 -69.5q0 -24 -11.5 -55.5t-19.5 -56.5zM1319 718q16 33 33.5 55t37 36t42.5 20t51 6q68 0 94 -47t26 -140v-358h28q42 0 65 -13.5t23 -43.5q0 -29 -20 -43.5t-57 -14.5h-39v-57q0 -24 -4 -45t-13.5 -37.5t-25 -26t-38.5 -9.5t-38.5 9.5t-25 26.5 t-13.5 41.5t-4 53.5v44h-281q-23 0 -44 2.5t-36.5 9.5t-25 19.5t-9.5 33.5q0 23 14 46zM1212 285h229v402z" />
<glyph unicode="&#xbf;" horiz-adv-x="1064" d="M735.04 -125.85q17.9971 1 50.9932 3.5t67.9922 7.49902q4.99902 1 9.99805 1h9.99902q50.9941 0 83.9902 -34.9961q32.9961 -34.9951 32.9961 -92.9883q0 -36.9961 -24.4971 -71.4912q-24.4971 -34.4961 -77.4912 -50.4941q-77.9902 -22.9971 -160.48 -32.4961 q-82.4893 -9.49902 -158.48 -9.49902q-96.9883 0 -184.478 22.9971q-87.4893 22.998 -152.481 71.9912q-64.9912 48.9941 -103.487 124.985q-38.4951 75.9902 -38.4951 181.978q2 69.9912 26.4971 125.984t60.9922 102.987q36.4961 46.9941 81.4902 86.9902 q44.9941 39.9941 88.9893 77.9902q30.9961 26.9961 55.9932 47.9941q24.9971 20.9971 41.9951 40.4951q16.9971 19.4971 26.9961 39.4951q9.99902 19.9971 10.999 44.9941q0 26.9971 7.49902 55.9932q7.49902 28.9971 25.9971 53.9932q18.4971 24.9971 49.4941 40.9951 q30.9961 15.998 76.9902 15.998q62.9922 -4.99902 97.9883 -40.9951q34.9951 -35.9951 34.9951 -117.985v-48.9941q-2.99902 -60.9922 -31.4961 -109.486q-28.4961 -48.4941 -66.9912 -88.9893q-38.4961 -40.4951 -79.9902 -74.9912q-41.4951 -34.4951 -69.4922 -69.4912 q-27.9961 -34.9961 -46.9941 -73.9912t-18.998 -80.9893q0 -42.9951 15.499 -72.9912q15.498 -29.9971 40.9941 -48.9941q25.4971 -18.998 58.4932 -26.9971t68.9922 -7.99902q19.9971 0 41.9941 2q21.998 2 44.9951 4.99902zM800.031 1001.01q0 -31.9961 -11.998 -61.4922 t-34.4961 -51.9932q-22.4971 -22.498 -53.4932 -35.9961t-68.9912 -13.498q-32.9961 0 -63.4922 11.998q-30.4971 11.999 -53.9941 33.4961t-37.4951 51.4941q-13.998 29.9961 -13.998 65.9912q0 33.9961 12.998 63.9922q12.999 29.9971 35.4961 52.4941t53.4932 35.4951 q30.9961 12.999 66.9922 12.999q35.9951 0 66.9912 -12.999q30.9961 -12.998 53.4941 -35.4951q22.4971 -22.4971 35.4951 -52.4941q12.998 -29.9961 12.998 -63.9922z" />
<glyph unicode="&#xc0;" horiz-adv-x="1505" d="M741 1179l-220 -643h444l-219 643h-5zM1393 303q7 -18 15 -37.5t15 -39.5t11.5 -38.5t4.5 -33.5q0 -37 -13.5 -65.5t-36.5 -48t-53.5 -30t-64.5 -10.5q-39 0 -67 11t-50 35t-40.5 62.5t-39.5 94.5l-48 127h-566l-41 -127q-18 -57 -36.5 -96t-41 -62.5t-51.5 -34 t-68 -10.5q-34 0 -64.5 10.5t-53.5 30t-36.5 48t-13.5 65.5q0 15 4.5 33.5t11.5 38.5t15 39.5t15 37.5l269 727q38 102 72.5 180.5t76 132.5t95.5 81.5t131 27.5q72 0 123 -21.5t92 -71t78 -130.5t82 -199zM557 1854q-18 15 -26 32.5t-8 37.5q0 25 12.5 48t32 40.5t44.5 28 t50 10.5q32 0 60.5 -22.5t53.5 -58.5l192 -280q8 -13 15.5 -25.5t7.5 -25.5q0 -28 -19 -49.5t-46 -21.5q-16 0 -38 9.5t-37 24.5z" />
<glyph unicode="&#xc1;" horiz-adv-x="1505" d="M741 1179l-220 -643h444l-219 643h-5zM1393 303q7 -18 15 -37.5t15 -39.5t11.5 -38.5t4.5 -33.5q0 -37 -13.5 -65.5t-36.5 -48t-53.5 -30t-64.5 -10.5q-39 0 -67 11t-50 35t-40.5 62.5t-39.5 94.5l-48 127h-566l-41 -127q-18 -57 -36.5 -96t-41 -62.5t-51.5 -34 t-68 -10.5q-34 0 -64.5 10.5t-53.5 30t-36.5 48t-13.5 65.5q0 15 4.5 33.5t11.5 38.5t15 39.5t15 37.5l269 727q38 102 72.5 180.5t76 132.5t95.5 81.5t131 27.5q72 0 123 -21.5t92 -71t78 -130.5t82 -199zM637 1589q-23 -20 -54 -20q-26 0 -48.5 17.5t-22.5 49.5 q0 15 7.5 27.5t16.5 26.5l199 288q22 32 47.5 53.5t57.5 21.5q24 0 48 -10t44 -27t32.5 -40.5t12.5 -50.5q-1 -46 -46 -84z" />
<glyph unicode="&#xc2;" horiz-adv-x="1505" d="M741 1179l-220 -643h444l-219 643h-5zM1393 303q7 -18 15 -37.5t15 -39.5t11.5 -38.5t4.5 -33.5q0 -37 -13.5 -65.5t-36.5 -48t-53.5 -30t-64.5 -10.5q-39 0 -67 11t-50 35t-40.5 62.5t-39.5 94.5l-48 127h-566l-41 -127q-18 -57 -36.5 -96t-41 -62.5t-51.5 -34 t-68 -10.5q-34 0 -64.5 10.5t-53.5 30t-36.5 48t-13.5 65.5q0 15 4.5 33.5t11.5 38.5t15 39.5t15 37.5l269 727q38 102 72.5 180.5t76 132.5t95.5 81.5t131 27.5q72 0 123 -21.5t92 -71t78 -130.5t82 -199zM633 1976q26 31 57 48t65 17q30 -1 62 -16t58 -49l169 -216 q18 -23 32.5 -48.5t14.5 -47.5q0 -32 -24.5 -52.5t-57.5 -20.5q-31 0 -61 17.5t-60 58.5q-33 45 -66.5 89.5t-66.5 89.5q-32 -42 -64.5 -87.5t-65 -83.5t-65 -62.5t-64.5 -24.5q-16 0 -31 5t-27 14.5t-19 22.5t-7 30q-1 17 11 41.5t31 47.5z" />
<glyph unicode="&#xc3;" horiz-adv-x="1505" d="M741 1179l-220 -643h444l-219 643h-5zM1393 303q7 -18 15 -37.5t15 -39.5t11.5 -38.5t4.5 -33.5q0 -37 -13.5 -65.5t-36.5 -48t-53.5 -30t-64.5 -10.5q-39 0 -67 11t-50 35t-40.5 62.5t-39.5 94.5l-48 127h-566l-41 -127q-18 -57 -36.5 -96t-41 -62.5t-51.5 -34 t-68 -10.5q-34 0 -64.5 10.5t-53.5 30t-36.5 48t-13.5 65.5q0 15 4.5 33.5t11.5 38.5t15 39.5t15 37.5l269 727q38 102 72.5 180.5t76 132.5t95.5 81.5t131 27.5q72 0 123 -21.5t92 -71t78 -130.5t82 -199zM904 1763q19 0 28 14t18.5 32t24 35.5t46.5 25.5q5 1 15 1 q29 0 51.5 -18.5t22.5 -49.5q0 -53 -16 -94t-43 -69t-63.5 -42.5t-77.5 -14.5q-45 0 -86 16.5t-77.5 37t-68.5 37t-58 16.5t-42 -19.5t-29 -43.5q-14 -26 -34.5 -35.5t-43.5 -9.5q-29 0 -50 17t-21 49q0 6 1 10q11 99 61 155t142 56q48 0 91 -16.5t80.5 -36.5t70 -36.5 t58.5 -16.5z" />
<glyph unicode="&#xc4;" horiz-adv-x="1505" d="M741 1179l-220 -643h444l-219 643h-5zM1393 303q7 -18 15 -37.5t15 -39.5t11.5 -38.5t4.5 -33.5q0 -37 -13.5 -65.5t-36.5 -48t-53.5 -30t-64.5 -10.5q-39 0 -67 11t-50 35t-40.5 62.5t-39.5 94.5l-48 127h-566l-41 -127q-18 -57 -36.5 -96t-41 -62.5t-51.5 -34 t-68 -10.5q-34 0 -64.5 10.5t-53.5 30t-36.5 48t-13.5 65.5q0 15 4.5 33.5t11.5 38.5t15 39.5t15 37.5l269 727q38 102 72.5 180.5t76 132.5t95.5 81.5t131 27.5q72 0 123 -21.5t92 -71t78 -130.5t82 -199zM523 1621q-29 0 -55.5 10.5t-47.5 29t-33.5 45t-12.5 58.5 q0 29 11.5 55.5t32 46t47.5 31t58 11.5q30 0 56.5 -11t47 -30.5t32.5 -46t12 -56.5t-12 -56.5t-32.5 -45.5t-47 -30t-56.5 -11zM983 1621q-29 0 -56 10.5t-47.5 29t-33 45t-12.5 58.5q0 28 11 54.5t31 46t47.5 31.5t59.5 12q29 0 55.5 -11t47 -30t33 -45.5t12.5 -57.5 q0 -30 -12 -56.5t-32.5 -45.5t-47 -30t-56.5 -11z" />
<glyph unicode="&#xc5;" horiz-adv-x="1505" d="M741 1179l-220 -643h444l-219 643h-5zM1393 303q7 -18 15 -37.5t15 -39.5t11.5 -38.5t4.5 -33.5q0 -37 -13.5 -65.5t-36.5 -48t-53.5 -30t-64.5 -10.5q-39 0 -67 11t-50 35t-40.5 62.5t-39.5 94.5l-48 127h-566l-41 -127q-18 -57 -36.5 -96t-41 -62.5t-51.5 -34 t-68 -10.5q-34 0 -64.5 10.5t-53.5 30t-36.5 48t-13.5 65.5q0 15 4.5 33.5t11.5 38.5t15 39.5t15 37.5l269 727q38 102 72.5 180.5t76 132.5t95.5 81.5t131 27.5q72 0 123 -21.5t92 -71t78 -130.5t82 -199zM526 1789q0 45 17.5 85.5t48.5 71t72.5 48.5t88.5 18 q44 0 85 -17.5t72.5 -47.5t50 -70.5t18.5 -87.5q0 -46 -18 -87t-49 -71.5t-72 -48t-87 -17.5q-45 0 -86 17.5t-72.5 47.5t-50 71t-18.5 88zM852 1789q0 19 -8 36.5t-21.5 31t-31.5 21.5t-38 8t-38 -8t-31.5 -21t-21.5 -31t-8 -37q0 -20 8 -37.5t21.5 -30.5t31.5 -21t38 -8 q19 0 37 8t31.5 21t22 30.5t8.5 37.5z" />
<glyph unicode="&#xc6;" horiz-adv-x="1991" d="M1274 0q-46 0 -77.5 11.5t-53.5 37t-35 66.5t-22 100l-17 115h-561l-46 -86q-26 -52 -57 -96t-64.5 -76t-69 -50t-71.5 -18q-28 0 -52.5 8t-43 23t-29.5 37.5t-11 51.5q1 34 18.5 75t38.5 80l418 764q55 106 102.5 183t97.5 127t107.5 73.5t132.5 23.5q196 0 390.5 0.5 t391.5 0.5q36 0 70 -7t59.5 -22.5t41 -41.5t15.5 -64q0 -37 -15 -61t-44.5 -38t-72.5 -19.5t-98 -5.5h-417l48 -324h378q35 0 68.5 -6t59 -21.5t41 -41.5t15.5 -66q0 -37 -14.5 -61t-43 -38t-70 -19.5t-95.5 -5.5h-308l53 -350h242q53 0 103.5 -6.5t89.5 -23t63 -44 t24 -70.5q0 -33 -12 -55t-34 -35.5t-53.5 -19t-71.5 -5.5h-509zM599 536h446l-88 717h-4z" />
<glyph unicode="&#xc7;" horiz-adv-x="1464" d="M86 714q0 182 53.5 325.5t149.5 242.5t228.5 151.5t290.5 52.5q125 0 217.5 -15.5t153.5 -42.5t91 -64t30 -80q0 -29 -12 -50.5t-31.5 -35.5t-43.5 -20.5t-48 -6.5q-14 0 -28 0.5t-27 4.5q-38 10 -72.5 19.5t-68 16.5t-67 11.5t-69.5 4.5q-75 0 -141.5 -22.5 t-115.5 -79.5t-77.5 -154.5t-28.5 -248.5q0 -116 23 -208.5t68.5 -157t114 -99t159.5 -34.5q37 0 77 8t82 20.5t85.5 28.5t86.5 32q13 4 32 4q25 0 45.5 -9.5t35.5 -25.5t23 -37.5t8 -45.5q0 -39 -25.5 -71.5t-67.5 -58.5t-96.5 -45.5t-112.5 -32.5t-115.5 -19.5 t-106.5 -6.5q-148 0 -276 49.5t-222 145t-148 235t-54 319.5zM695 5h111l-49 -114q39 3 65 3q36 -1 66.5 -11t53.5 -30.5t36 -51t13 -73.5q-2 -44 -24 -76.5t-56.5 -53.5t-79 -31t-92.5 -10q-34 0 -72 4.5t-71.5 12t-58.5 18.5t-32 23q-6 10 -6 26q0 21 12 37t35 16 q2 0 4 -0.5t4 -0.5q34 -9 76 -21.5t80 -12.5q57 0 81.5 21.5t24.5 56.5q0 19 -8.5 32t-22 21t-30.5 11.5t-34 3.5q-8 -1 -16 -2.5t-16 -2.5q-28 0 -43.5 10.5t-15.5 31.5q0 15 9 35z" />
<glyph unicode="&#xc8;" horiz-adv-x="1272" d="M334 0q-51 0 -85.5 21t-55.5 54.5t-30 75.5t-9 84v953q0 57 7 105.5t31 83.5t70 55t124 20h642q29 0 54.5 -10.5t44.5 -28t30 -41.5t11 -51t-11 -50.5t-30 -41t-44.5 -27.5t-54.5 -10h-515v-324h470q29 0 54.5 -10t44.5 -28t30 -41.5t11 -50.5t-11 -50.5t-30 -41 t-44.5 -27.5t-54.5 -10h-470v-350h540q27 0 50.5 -10t41.5 -28t28 -41.5t10 -50.5t-10 -50.5t-28 -41t-41.5 -27.5t-50.5 -10h-719zM440 1854q-18 15 -26 32.5t-8 37.5q0 25 12.5 48t32 40.5t44.5 28t50 10.5q32 0 60.5 -22.5t53.5 -58.5l192 -280q8 -13 15.5 -25.5 t7.5 -25.5q0 -28 -19 -49.5t-46 -21.5q-16 0 -38 9.5t-37 24.5z" />
<glyph unicode="&#xc9;" horiz-adv-x="1272" d="M334 0q-51 0 -85.5 21t-55.5 54.5t-30 75.5t-9 84v953q0 57 7 105.5t31 83.5t70 55t124 20h642q29 0 54.5 -10.5t44.5 -28t30 -41.5t11 -51t-11 -50.5t-30 -41t-44.5 -27.5t-54.5 -10h-515v-324h470q29 0 54.5 -10t44.5 -28t30 -41.5t11 -50.5t-11 -50.5t-30 -41 t-44.5 -27.5t-54.5 -10h-470v-350h540q27 0 50.5 -10t41.5 -28t28 -41.5t10 -50.5t-10 -50.5t-28 -41t-41.5 -27.5t-50.5 -10h-719zM521 1589q-23 -20 -54 -20q-26 0 -48.5 17.5t-22.5 49.5q0 15 7.5 27.5t16.5 26.5l199 288q22 32 47.5 53.5t57.5 21.5q24 0 48 -10t44 -27 t32.5 -40.5t12.5 -50.5q-1 -46 -46 -84z" />
<glyph unicode="&#xca;" horiz-adv-x="1272" d="M334 0q-51 0 -85.5 21t-55.5 54.5t-30 75.5t-9 84v953q0 57 7 105.5t31 83.5t70 55t124 20h642q29 0 54.5 -10.5t44.5 -28t30 -41.5t11 -51t-11 -50.5t-30 -41t-44.5 -27.5t-54.5 -10h-515v-324h470q29 0 54.5 -10t44.5 -28t30 -41.5t11 -50.5t-11 -50.5t-30 -41 t-44.5 -27.5t-54.5 -10h-470v-350h540q27 0 50.5 -10t41.5 -28t28 -41.5t10 -50.5t-10 -50.5t-28 -41t-41.5 -27.5t-50.5 -10h-719zM516 1976q26 31 57 48t65 17q30 -1 62 -16t58 -49l169 -216q18 -23 32.5 -48.5t14.5 -47.5q0 -32 -24.5 -52.5t-57.5 -20.5q-31 0 -61 17.5 t-60 58.5q-33 45 -66.5 89.5t-66.5 89.5q-32 -42 -64.5 -87.5t-65 -83.5t-65 -62.5t-64.5 -24.5q-16 0 -31 5t-27 14.5t-19 22.5t-7 30q-1 17 11 41.5t31 47.5z" />
<glyph unicode="&#xcb;" horiz-adv-x="1272" d="M334 0q-51 0 -85.5 21t-55.5 54.5t-30 75.5t-9 84v953q0 57 7 105.5t31 83.5t70 55t124 20h642q29 0 54.5 -10.5t44.5 -28t30 -41.5t11 -51t-11 -50.5t-30 -41t-44.5 -27.5t-54.5 -10h-515v-324h470q29 0 54.5 -10t44.5 -28t30 -41.5t11 -50.5t-11 -50.5t-30 -41 t-44.5 -27.5t-54.5 -10h-470v-350h540q27 0 50.5 -10t41.5 -28t28 -41.5t10 -50.5t-10 -50.5t-28 -41t-41.5 -27.5t-50.5 -10h-719zM405 1621q-29 0 -55.5 10.5t-47.5 29t-33.5 45t-12.5 58.5q0 29 11.5 55.5t32 46t47.5 31t58 11.5q30 0 56.5 -11t47 -30.5t32.5 -46 t12 -56.5t-12 -56.5t-32.5 -45.5t-47 -30t-56.5 -11zM865 1621q-29 0 -56 10.5t-47.5 29t-33 45t-12.5 58.5q0 28 11 54.5t31 46t47.5 31.5t59.5 12q29 0 55.5 -11t47 -30t33 -45.5t12.5 -57.5q0 -30 -12 -56.5t-32.5 -45.5t-47 -30t-56.5 -11z" />
<glyph unicode="&#xcc;" horiz-adv-x="689" d="M530 195q0 -41 -14.5 -76.5t-40 -62t-59 -41.5t-72.5 -15t-72.5 15t-58.5 41.5t-39.5 62t-14.5 76.5v1063q0 41 14.5 76.5t39.5 62t58.5 41.5t72.5 15t72.5 -15t59 -41.5t40 -62t14.5 -76.5v-1063zM149 1854q-18 15 -26 32.5t-8 37.5q0 25 12.5 48t32 40.5t44.5 28 t50 10.5q32 0 60.5 -22.5t53.5 -58.5l192 -280q8 -13 15.5 -25.5t7.5 -25.5q0 -28 -19 -49.5t-46 -21.5q-16 0 -38 9.5t-37 24.5z" />
<glyph unicode="&#xcd;" horiz-adv-x="689" d="M530 195q0 -41 -14.5 -76.5t-40 -62t-59 -41.5t-72.5 -15t-72.5 15t-58.5 41.5t-39.5 62t-14.5 76.5v1063q0 41 14.5 76.5t39.5 62t58.5 41.5t72.5 15t72.5 -15t59 -41.5t40 -62t14.5 -76.5v-1063zM230 1589q-23 -20 -54 -20q-26 0 -48.5 17.5t-22.5 49.5q0 15 7.5 27.5 t16.5 26.5l199 288q22 32 47.5 53.5t57.5 21.5q24 0 48 -10t44 -27t32.5 -40.5t12.5 -50.5q-1 -46 -46 -84z" />
<glyph unicode="&#xce;" horiz-adv-x="689" d="M530 195q0 -41 -14.5 -76.5t-40 -62t-59 -41.5t-72.5 -15t-72.5 15t-58.5 41.5t-39.5 62t-14.5 76.5v1063q0 41 14.5 76.5t39.5 62t58.5 41.5t72.5 15t72.5 -15t59 -41.5t40 -62t14.5 -76.5v-1063zM226 1976q26 31 57 48t65 17q30 -1 62 -16t58 -49l169 -216 q18 -23 32.5 -48.5t14.5 -47.5q0 -32 -24.5 -52.5t-57.5 -20.5q-31 0 -61 17.5t-60 58.5q-33 45 -66.5 89.5t-66.5 89.5q-32 -42 -64.5 -87.5t-65 -83.5t-65 -62.5t-64.5 -24.5q-16 0 -31 5t-27 14.5t-19 22.5t-7 30q-1 17 11 41.5t31 47.5z" />
<glyph unicode="&#xcf;" horiz-adv-x="689" d="M530 195q0 -41 -14.5 -76.5t-40 -62t-59 -41.5t-72.5 -15t-72.5 15t-58.5 41.5t-39.5 62t-14.5 76.5v1063q0 41 14.5 76.5t39.5 62t58.5 41.5t72.5 15t72.5 -15t59 -41.5t40 -62t14.5 -76.5v-1063zM115 1621q-29 0 -55.5 10.5t-47.5 29t-33.5 45t-12.5 58.5 q0 29 11.5 55.5t32 46t47.5 31t58 11.5q30 0 56.5 -11t47 -30.5t32.5 -46t12 -56.5t-12 -56.5t-32.5 -45.5t-47 -30t-56.5 -11zM575 1621q-29 0 -56 10.5t-47.5 29t-33 45t-12.5 58.5q0 28 11 54.5t31 46t47.5 31.5t59.5 12q29 0 55.5 -11t47 -30t33 -45.5t12.5 -57.5 q0 -30 -12 -56.5t-32.5 -45.5t-47 -30t-56.5 -11z" />
<glyph unicode="&#xd0;" horiz-adv-x="1558" d="M545 0h-60q-57 0 -114.5 3.5t-104.5 17t-78.5 41.5t-36.5 78q-5 29 -6.5 58.5t-1.5 59.5v390h-55q-20 0 -39 4t-33 14t-22.5 26t-8.5 40q0 38 25.5 60.5t77.5 22.5h55v378q0 47 6 93t28 83t63.5 59.5t112.5 22.5h305q129 0 231.5 -14.5t188.5 -48.5q202 -80 297 -251.5 t95 -420.5q0 -164 -48 -293t-137.5 -220t-217.5 -142.5t-288 -58.5q-58 -1 -116.5 -1.5t-117.5 -0.5zM509 648v-415h126q112 0 195.5 23.5t139.5 80t84 151t28 237.5q0 247 -103 370t-324 123h-146v-403h73q51 0 78.5 -20t27.5 -64q0 -33 -22.5 -58t-60.5 -25h-96z" />
<glyph unicode="&#xd1;" horiz-adv-x="1598" d="M458 157q0 -33 -12.5 -61.5t-34 -49.5t-50 -33.5t-61.5 -12.5t-61.5 12.5t-49.5 33.5t-33 49.5t-12 61.5v1092q0 49 14.5 87t39 64t57.5 39.5t71 13.5q32 0 62.5 -12.5t58.5 -33.5t54 -49.5t50 -60.5l590 -800v799q0 33 12 61.5t33 49.5t49.5 33.5t61.5 12.5t61.5 -12.5 t49.5 -33.5t33.5 -49.5t12.5 -61.5v-1018q0 -55 -6 -105.5t-25 -88.5t-54 -61t-93 -23q-31 0 -60.5 12t-57 33t-53.5 49.5t-51 61.5l-596 810v-809zM951 1763q19 0 28 14t18.5 32t24 35.5t46.5 25.5q5 1 15 1q29 0 51.5 -18.5t22.5 -49.5q0 -53 -16 -94t-43 -69t-63.5 -42.5 t-77.5 -14.5q-45 0 -86 16.5t-77.5 37t-68.5 37t-58 16.5t-42 -19.5t-29 -43.5q-14 -26 -34.5 -35.5t-43.5 -9.5q-29 0 -50 17t-21 49q0 6 1 10q11 99 61 155t142 56q48 0 91 -16.5t80.5 -36.5t70 -36.5t58.5 -16.5z" />
<glyph unicode="&#xd2;" horiz-adv-x="1612" d="M480 725q0 -248 79 -374.5t247 -126.5q165 0 246 126t81 375q0 120 -19.5 213.5t-59.5 157.5t-101.5 97.5t-146.5 33.5q-84 0 -145.5 -33.5t-101.5 -97.5t-59.5 -157.5t-19.5 -213.5zM91 725q0 165 44.5 305t133.5 241t223 158t314 57q175 0 309 -55t224 -155.5 t136 -240.5t46 -310q0 -167 -45 -307t-135 -240.5t-224 -156.5t-311 -56q-173 0 -306.5 54t-224.5 153.5t-137.5 239.5t-46.5 313zM611 1854q-18 15 -26 32.5t-8 37.5q0 25 12.5 48t32 40.5t44.5 28t50 10.5q32 0 60.5 -22.5t53.5 -58.5l192 -280q8 -13 15.5 -25.5 t7.5 -25.5q0 -28 -19 -49.5t-46 -21.5q-16 0 -38 9.5t-37 24.5z" />
<glyph unicode="&#xd3;" horiz-adv-x="1612" d="M480 725q0 -248 79 -374.5t247 -126.5q165 0 246 126t81 375q0 120 -19.5 213.5t-59.5 157.5t-101.5 97.5t-146.5 33.5q-84 0 -145.5 -33.5t-101.5 -97.5t-59.5 -157.5t-19.5 -213.5zM91 725q0 165 44.5 305t133.5 241t223 158t314 57q175 0 309 -55t224 -155.5 t136 -240.5t46 -310q0 -167 -45 -307t-135 -240.5t-224 -156.5t-311 -56q-173 0 -306.5 54t-224.5 153.5t-137.5 239.5t-46.5 313zM691 1589q-23 -20 -54 -20q-26 0 -48.5 17.5t-22.5 49.5q0 15 7.5 27.5t16.5 26.5l199 288q22 32 47.5 53.5t57.5 21.5q24 0 48 -10t44 -27 t32.5 -40.5t12.5 -50.5q-1 -46 -46 -84z" />
<glyph unicode="&#xd4;" horiz-adv-x="1612" d="M480 725q0 -248 79 -374.5t247 -126.5q165 0 246 126t81 375q0 120 -19.5 213.5t-59.5 157.5t-101.5 97.5t-146.5 33.5q-84 0 -145.5 -33.5t-101.5 -97.5t-59.5 -157.5t-19.5 -213.5zM91 725q0 165 44.5 305t133.5 241t223 158t314 57q175 0 309 -55t224 -155.5 t136 -240.5t46 -310q0 -167 -45 -307t-135 -240.5t-224 -156.5t-311 -56q-173 0 -306.5 54t-224.5 153.5t-137.5 239.5t-46.5 313zM686 1976q26 31 57 48t65 17q30 -1 62 -16t58 -49l169 -216q18 -23 32.5 -48.5t14.5 -47.5q0 -32 -24.5 -52.5t-57.5 -20.5q-31 0 -61 17.5 t-60 58.5q-33 45 -66.5 89.5t-66.5 89.5q-32 -42 -64.5 -87.5t-65 -83.5t-65 -62.5t-64.5 -24.5q-16 0 -31 5t-27 14.5t-19 22.5t-7 30q-1 17 11 41.5t31 47.5z" />
<glyph unicode="&#xd5;" horiz-adv-x="1612" d="M480 725q0 -248 79 -374.5t247 -126.5q165 0 246 126t81 375q0 120 -19.5 213.5t-59.5 157.5t-101.5 97.5t-146.5 33.5q-84 0 -145.5 -33.5t-101.5 -97.5t-59.5 -157.5t-19.5 -213.5zM91 725q0 165 44.5 305t133.5 241t223 158t314 57q175 0 309 -55t224 -155.5 t136 -240.5t46 -310q0 -167 -45 -307t-135 -240.5t-224 -156.5t-311 -56q-173 0 -306.5 54t-224.5 153.5t-137.5 239.5t-46.5 313zM958 1763q19 0 28 14t18.5 32t24 35.5t46.5 25.5q5 1 15 1q29 0 51.5 -18.5t22.5 -49.5q0 -53 -16 -94t-43 -69t-63.5 -42.5t-77.5 -14.5 q-45 0 -86 16.5t-77.5 37t-68.5 37t-58 16.5t-42 -19.5t-29 -43.5q-14 -26 -34.5 -35.5t-43.5 -9.5q-29 0 -50 17t-21 49q0 6 1 10q11 99 61 155t142 56q48 0 91 -16.5t80.5 -36.5t70 -36.5t58.5 -16.5z" />
<glyph unicode="&#xd6;" horiz-adv-x="1612" d="M480 725q0 -248 79 -374.5t247 -126.5q165 0 246 126t81 375q0 120 -19.5 213.5t-59.5 157.5t-101.5 97.5t-146.5 33.5q-84 0 -145.5 -33.5t-101.5 -97.5t-59.5 -157.5t-19.5 -213.5zM91 725q0 165 44.5 305t133.5 241t223 158t314 57q175 0 309 -55t224 -155.5 t136 -240.5t46 -310q0 -167 -45 -307t-135 -240.5t-224 -156.5t-311 -56q-173 0 -306.5 54t-224.5 153.5t-137.5 239.5t-46.5 313zM576 1621q-29 0 -55.5 10.5t-47.5 29t-33.5 45t-12.5 58.5q0 29 11.5 55.5t32 46t47.5 31t58 11.5q30 0 56.5 -11t47 -30.5t32.5 -46 t12 -56.5t-12 -56.5t-32.5 -45.5t-47 -30t-56.5 -11zM1036 1621q-29 0 -56 10.5t-47.5 29t-33 45t-12.5 58.5q0 28 11 54.5t31 46t47.5 31.5t59.5 12q29 0 55.5 -11t47 -30t33 -45.5t12.5 -57.5q0 -30 -12 -56.5t-32.5 -45.5t-47 -30t-56.5 -11z" />
<glyph unicode="&#xd7;" horiz-adv-x="1287" d="M645 651l189 189q23 23 48.5 41t54.5 18q20 0 37.5 -8t31 -21.5t21.5 -32t8 -39.5q0 -29 -18.5 -54t-39.5 -46l-189 -190l185 -185q22 -22 40 -46.5t18 -50.5q0 -21 -9 -40.5t-23 -34t-33 -23.5t-38 -9q-26 0 -48 14.5t-42 34.5l-195 195l-190 -190q-26 -26 -51.5 -42 t-50.5 -16q-20 0 -38 8t-31.5 21.5t-21.5 31.5t-8 38q0 27 17 52.5t41 49.5l189 190l-186 186q-23 23 -40.5 46t-17.5 50q0 18 7.5 36.5t20 33.5t30 25t38.5 12q32 0 54 -13t45 -36z" />
<glyph unicode="&#xd8;" horiz-adv-x="1612" d="M1251 1345q134 -97 202 -255t68 -365q0 -169 -45.5 -309t-135.5 -240t-224 -155.5t-310 -55.5q-79 0 -147.5 12t-130.5 35l-55 -90q-20 -33 -40.5 -57t-52.5 -24q-37 0 -65 23t-28 64q0 20 8.5 42.5t20.5 42.5l53 89q-139 94 -208.5 255t-69.5 368q0 166 45 305.5 t134 241t223 158t313 56.5q82 0 151.5 -12.5t132.5 -35.5l69 118q14 24 35 36t46 12q18 0 35 -6.5t29.5 -18t20.5 -27.5t8 -35q0 -21 -9 -43.5t-21 -42.5zM1149 725q0 42 -6.5 83t-20.5 79t-36 70t-53 56l-352 -762q29 -17 62 -22t72 -5q167 0 250.5 129.5t83.5 371.5z M464 725q0 -39 7 -82.5t21.5 -83.5t37.5 -73.5t56 -51.5l351 763q-26 14 -56 21.5t-62 7.5q-183 0 -269 -124.5t-86 -376.5z" />
<glyph unicode="&#xd9;" horiz-adv-x="1539" d="M1025 1258q0 41 14.5 76.5t39.5 62t58.5 41.5t72.5 15t72.5 -15t59 -41.5t40 -62t14.5 -76.5v-766q0 -132 -46.5 -230.5t-130 -164.5t-198.5 -99t-252 -33q-135 0 -249.5 32.5t-198 97.5t-130.5 164t-47 233v766q0 41 14.5 76.5t39.5 62t58.5 41.5t72.5 15t72.5 -15 t59 -41.5t40 -62t14.5 -76.5l1 -760q0 -72 22 -124t57.5 -85t81 -49t92.5 -16q48 0 93.5 16t81.5 49t58.5 85t22.5 124v760zM574 1854q-18 15 -26 32.5t-8 37.5q0 25 12.5 48t32 40.5t44.5 28t50 10.5q32 0 60.5 -22.5t53.5 -58.5l192 -280q8 -13 15.5 -25.5t7.5 -25.5 q0 -28 -19 -49.5t-46 -21.5q-16 0 -38 9.5t-37 24.5z" />
<glyph unicode="&#xda;" horiz-adv-x="1539" d="M1025 1258q0 41 14.5 76.5t39.5 62t58.5 41.5t72.5 15t72.5 -15t59 -41.5t40 -62t14.5 -76.5v-766q0 -132 -46.5 -230.5t-130 -164.5t-198.5 -99t-252 -33q-135 0 -249.5 32.5t-198 97.5t-130.5 164t-47 233v766q0 41 14.5 76.5t39.5 62t58.5 41.5t72.5 15t72.5 -15 t59 -41.5t40 -62t14.5 -76.5l1 -760q0 -72 22 -124t57.5 -85t81 -49t92.5 -16q48 0 93.5 16t81.5 49t58.5 85t22.5 124v760zM655 1589q-23 -20 -54 -20q-26 0 -48.5 17.5t-22.5 49.5q0 15 7.5 27.5t16.5 26.5l199 288q22 32 47.5 53.5t57.5 21.5q24 0 48 -10t44 -27 t32.5 -40.5t12.5 -50.5q-1 -46 -46 -84z" />
<glyph unicode="&#xdb;" horiz-adv-x="1539" d="M1025 1258q0 41 14.5 76.5t39.5 62t58.5 41.5t72.5 15t72.5 -15t59 -41.5t40 -62t14.5 -76.5v-766q0 -132 -46.5 -230.5t-130 -164.5t-198.5 -99t-252 -33q-135 0 -249.5 32.5t-198 97.5t-130.5 164t-47 233v766q0 41 14.5 76.5t39.5 62t58.5 41.5t72.5 15t72.5 -15 t59 -41.5t40 -62t14.5 -76.5l1 -760q0 -72 22 -124t57.5 -85t81 -49t92.5 -16q48 0 93.5 16t81.5 49t58.5 85t22.5 124v760zM650 1976q26 31 57 48t65 17q30 -1 62 -16t58 -49l169 -216q18 -23 32.5 -48.5t14.5 -47.5q0 -32 -24.5 -52.5t-57.5 -20.5q-31 0 -61 17.5 t-60 58.5q-33 45 -66.5 89.5t-66.5 89.5q-32 -42 -64.5 -87.5t-65 -83.5t-65 -62.5t-64.5 -24.5q-16 0 -31 5t-27 14.5t-19 22.5t-7 30q-1 17 11 41.5t31 47.5z" />
<glyph unicode="&#xdc;" horiz-adv-x="1539" d="M1025 1258q0 41 14.5 76.5t39.5 62t58.5 41.5t72.5 15t72.5 -15t59 -41.5t40 -62t14.5 -76.5v-766q0 -132 -46.5 -230.5t-130 -164.5t-198.5 -99t-252 -33q-135 0 -249.5 32.5t-198 97.5t-130.5 164t-47 233v766q0 41 14.5 76.5t39.5 62t58.5 41.5t72.5 15t72.5 -15 t59 -41.5t40 -62t14.5 -76.5l1 -760q0 -72 22 -124t57.5 -85t81 -49t92.5 -16q48 0 93.5 16t81.5 49t58.5 85t22.5 124v760zM539 1621q-29 0 -55.5 10.5t-47.5 29t-33.5 45t-12.5 58.5q0 29 11.5 55.5t32 46t47.5 31t58 11.5q30 0 56.5 -11t47 -30.5t32.5 -46t12 -56.5 t-12 -56.5t-32.5 -45.5t-47 -30t-56.5 -11zM999 1621q-29 0 -56 10.5t-47.5 29t-33 45t-12.5 58.5q0 28 11 54.5t31 46t47.5 31.5t59.5 12q29 0 55.5 -11t47 -30t33 -45.5t12.5 -57.5q0 -30 -12 -56.5t-32.5 -45.5t-47 -30t-56.5 -11z" />
<glyph unicode="&#xdd;" horiz-adv-x="1391" d="M883 195q-1 -41 -16 -76.5t-40.5 -62t-59 -41.5t-72.5 -15t-72.5 15t-58.5 41.5t-39.5 62t-14.5 76.5v361l-367 613q-19 31 -27 60.5t-8 57.5q0 37 13.5 67.5t36 52.5t52 34t61.5 12q48 0 96 -30t81 -99l263 -523h4l274 527q34 66 80 95t93 29q28 0 53.5 -10t44.5 -28 t30 -44t11 -57q0 -26 -8 -54.5t-27 -59.5l-383 -637v-367zM564 1580q-23 -20 -54 -20q-26 0 -48.5 17.5t-22.5 49.5q0 15 7.5 27.5t16.5 26.5l199 288q22 32 47.5 53.5t57.5 21.5q24 0 48 -10t44 -27t32.5 -40.5t12.5 -50.5q-1 -46 -46 -84z" />
<glyph unicode="&#xde;" horiz-adv-x="1391" d="M524 322v-41q0 -59 -11.5 -110t-35.5 -88t-61 -58t-88 -21q-96 0 -136 59t-40 168v997q0 47 5.5 92.5t23.5 81t52.5 57.5t93.5 22q90 0 143.5 -54t53.5 -163v-46h199q94 0 183.5 -8.5t163.5 -35.5q128 -48 200.5 -148.5t72.5 -252.5q0 -112 -41 -196.5t-117.5 -141 t-186 -85t-245.5 -28.5h-229zM692 555q64 0 117 11t90.5 36.5t58.5 67.5t21 103q0 60 -20 100.5t-55.5 65t-85 35.5t-109.5 11h-185v-430h168z" />
<glyph unicode="&#xdf;" horiz-adv-x="1410" d="M586 170q-5 10 -7 20t-2 20q0 21 9.5 40.5t25 34t35.5 23t42 8.5q27 0 46.5 -13.5t42.5 -45.5q26 -38 63 -60.5t91 -22.5q57 0 94.5 33.5t37.5 104.5q0 49 -35.5 88t-86 72t-105.5 63t-94 61q-46 37 -75.5 82t-29.5 108q0 57 23.5 96.5t57 71.5t70.5 62.5t63 68.5 q11 15 17 31.5t6 35.5q0 37 -16.5 65t-44 46.5t-62.5 27.5t-72 9q-63 0 -107.5 -25t-73.5 -69.5t-42.5 -104t-14.5 -128.5v-743q0 -50 -9.5 -91.5t-29.5 -71.5t-51.5 -47t-76.5 -17q-80 0 -116 48.5t-36 141.5v706q0 129 24.5 236.5t89.5 185.5t178 121.5t290 43.5 q91 0 178.5 -21.5t155 -64t109 -105.5t41.5 -145q0 -42 -15.5 -77.5t-38 -65t-48.5 -53.5t-47 -44q-31 -29 -54.5 -55.5t-23.5 -52.5q0 -38 31.5 -66.5t78 -55t98.5 -55t93 -65.5q45 -41 72 -96t27 -134q0 -86 -36 -152t-95 -110t-134 -66.5t-154 -22.5q-59 0 -114 11.5 t-102 34.5t-83.5 59t-57.5 86z" />
<glyph unicode="&#xe0;" horiz-adv-x="1123" d="M712 658q0 84 -44.5 119t-119.5 35q-45 0 -84 -5t-73.5 -12.5t-65.5 -15.5t-59 -15q-23 -6 -41 -6q-33 0 -59.5 21.5t-26.5 59.5q0 37 19 65t51.5 48.5t75.5 34t90.5 21.5t97.5 11.5t96 3.5q96 0 176 -21.5t137.5 -71.5t90 -131t32.5 -199v-400q0 -39 -5 -75t-20 -64 t-43 -44.5t-74 -16.5q-72 0 -106.5 47.5t-34.5 135.5q-26 -51 -63.5 -88t-82.5 -60.5t-95.5 -35t-102.5 -11.5q-70 0 -130 20.5t-103.5 58t-68 90t-24.5 117.5q0 91 38 156t110.5 106t177 60t238.5 19h96v43zM711 466q-68 2 -135 -2t-120 -21.5t-85.5 -51.5t-32.5 -92 q0 -32 12 -58t33.5 -45t51 -29t65.5 -10q46 0 84.5 16.5t66.5 48t44 77t16 104.5v63zM359 1404q-18 15 -26 32.5t-8 37.5q0 25 12.5 48t32 40.5t44.5 28t50 10.5q32 0 60.5 -22.5t53.5 -58.5l192 -280q8 -13 15.5 -25.5t7.5 -25.5q0 -28 -19 -49.5t-46 -21.5q-16 0 -38 9.5 t-37 24.5z" />
<glyph unicode="&#xe1;" horiz-adv-x="1123" d="M712 658q0 84 -44.5 119t-119.5 35q-45 0 -84 -5t-73.5 -12.5t-65.5 -15.5t-59 -15q-23 -6 -41 -6q-33 0 -59.5 21.5t-26.5 59.5q0 37 19 65t51.5 48.5t75.5 34t90.5 21.5t97.5 11.5t96 3.5q96 0 176 -21.5t137.5 -71.5t90 -131t32.5 -199v-400q0 -39 -5 -75t-20 -64 t-43 -44.5t-74 -16.5q-72 0 -106.5 47.5t-34.5 135.5q-26 -51 -63.5 -88t-82.5 -60.5t-95.5 -35t-102.5 -11.5q-70 0 -130 20.5t-103.5 58t-68 90t-24.5 117.5q0 91 38 156t110.5 106t177 60t238.5 19h96v43zM711 466q-68 2 -135 -2t-120 -21.5t-85.5 -51.5t-32.5 -92 q0 -32 12 -58t33.5 -45t51 -29t65.5 -10q46 0 84.5 16.5t66.5 48t44 77t16 104.5v63zM453 1139q-23 -20 -54 -20q-26 0 -48.5 17.5t-22.5 49.5q0 15 7.5 27.5t16.5 26.5l199 288q22 32 47.5 53.5t57.5 21.5q24 0 48 -10t44 -27t32.5 -40.5t12.5 -50.5q-1 -46 -46 -84z" />
<glyph unicode="&#xe2;" horiz-adv-x="1123" d="M712 658q0 84 -44.5 119t-119.5 35q-45 0 -84 -5t-73.5 -12.5t-65.5 -15.5t-59 -15q-23 -6 -41 -6q-33 0 -59.5 21.5t-26.5 59.5q0 37 19 65t51.5 48.5t75.5 34t90.5 21.5t97.5 11.5t96 3.5q96 0 176 -21.5t137.5 -71.5t90 -131t32.5 -199v-400q0 -39 -5 -75t-20 -64 t-43 -44.5t-74 -16.5q-72 0 -106.5 47.5t-34.5 135.5q-26 -51 -63.5 -88t-82.5 -60.5t-95.5 -35t-102.5 -11.5q-70 0 -130 20.5t-103.5 58t-68 90t-24.5 117.5q0 91 38 156t110.5 106t177 60t238.5 19h96v43zM711 466q-68 2 -135 -2t-120 -21.5t-85.5 -51.5t-32.5 -92 q0 -32 12 -58t33.5 -45t51 -29t65.5 -10q46 0 84.5 16.5t66.5 48t44 77t16 104.5v63zM437 1526q26 31 57 48t65 17q30 -1 62 -16t58 -49l169 -216q18 -23 32.5 -48.5t14.5 -47.5q0 -32 -24.5 -52.5t-57.5 -20.5q-31 0 -61 17.5t-60 58.5q-33 45 -66.5 89.5t-66.5 89.5 q-32 -42 -64.5 -87.5t-65 -83.5t-65 -62.5t-64.5 -24.5q-16 0 -31 5t-27 14.5t-19 22.5t-7 30q-1 17 11 41.5t31 47.5z" />
<glyph unicode="&#xe3;" horiz-adv-x="1123" d="M712 658q0 84 -44.5 119t-119.5 35q-45 0 -84 -5t-73.5 -12.5t-65.5 -15.5t-59 -15q-23 -6 -41 -6q-33 0 -59.5 21.5t-26.5 59.5q0 37 19 65t51.5 48.5t75.5 34t90.5 21.5t97.5 11.5t96 3.5q96 0 176 -21.5t137.5 -71.5t90 -131t32.5 -199v-400q0 -39 -5 -75t-20 -64 t-43 -44.5t-74 -16.5q-72 0 -106.5 47.5t-34.5 135.5q-26 -51 -63.5 -88t-82.5 -60.5t-95.5 -35t-102.5 -11.5q-70 0 -130 20.5t-103.5 58t-68 90t-24.5 117.5q0 91 38 156t110.5 106t177 60t238.5 19h96v43zM711 466q-68 2 -135 -2t-120 -21.5t-85.5 -51.5t-32.5 -92 q0 -32 12 -58t33.5 -45t51 -29t65.5 -10q46 0 84.5 16.5t66.5 48t44 77t16 104.5v63zM714 1313q19 0 28 14t18.5 32t24 35.5t46.5 25.5q5 1 15 1q29 0 51.5 -18.5t22.5 -49.5q0 -53 -16 -94t-43 -69t-63.5 -42.5t-77.5 -14.5q-45 0 -86 16.5t-77.5 37t-68.5 37t-58 16.5 t-42 -19.5t-29 -43.5q-14 -26 -34.5 -35.5t-43.5 -9.5q-29 0 -50 17t-21 49q0 6 1 10q11 99 61 155t142 56q48 0 91 -16.5t80.5 -36.5t70 -36.5t58.5 -16.5z" />
<glyph unicode="&#xe4;" horiz-adv-x="1123" d="M712 658q0 84 -44.5 119t-119.5 35q-45 0 -84 -5t-73.5 -12.5t-65.5 -15.5t-59 -15q-23 -6 -41 -6q-33 0 -59.5 21.5t-26.5 59.5q0 37 19 65t51.5 48.5t75.5 34t90.5 21.5t97.5 11.5t96 3.5q96 0 176 -21.5t137.5 -71.5t90 -131t32.5 -199v-400q0 -39 -5 -75t-20 -64 t-43 -44.5t-74 -16.5q-72 0 -106.5 47.5t-34.5 135.5q-26 -51 -63.5 -88t-82.5 -60.5t-95.5 -35t-102.5 -11.5q-70 0 -130 20.5t-103.5 58t-68 90t-24.5 117.5q0 91 38 156t110.5 106t177 60t238.5 19h96v43zM711 466q-68 2 -135 -2t-120 -21.5t-85.5 -51.5t-32.5 -92 q0 -32 12 -58t33.5 -45t51 -29t65.5 -10q46 0 84.5 16.5t66.5 48t44 77t16 104.5v63zM332 1171q-29 0 -55.5 10.5t-47.5 29t-33.5 45t-12.5 58.5q0 29 11.5 55.5t32 46t47.5 31t58 11.5q30 0 56.5 -11t47 -30.5t32.5 -46t12 -56.5t-12 -56.5t-32.5 -45.5t-47 -30t-56.5 -11z M792 1171q-29 0 -56 10.5t-47.5 29t-33 45t-12.5 58.5q0 28 11 54.5t31 46t47.5 31.5t59.5 12q29 0 55.5 -11t47 -30t33 -45.5t12.5 -57.5q0 -30 -12 -56.5t-32.5 -45.5t-47 -30t-56.5 -11z" />
<glyph unicode="&#xe5;" horiz-adv-x="1123" d="M712 658q0 84 -44.5 119t-119.5 35q-45 0 -84 -5t-73.5 -12.5t-65.5 -15.5t-59 -15q-23 -6 -41 -6q-33 0 -59.5 21.5t-26.5 59.5q0 37 19 65t51.5 48.5t75.5 34t90.5 21.5t97.5 11.5t96 3.5q96 0 176 -21.5t137.5 -71.5t90 -131t32.5 -199v-400q0 -39 -5 -75t-20 -64 t-43 -44.5t-74 -16.5q-72 0 -106.5 47.5t-34.5 135.5q-26 -51 -63.5 -88t-82.5 -60.5t-95.5 -35t-102.5 -11.5q-70 0 -130 20.5t-103.5 58t-68 90t-24.5 117.5q0 91 38 156t110.5 106t177 60t238.5 19h96v43zM711 466q-68 2 -135 -2t-120 -21.5t-85.5 -51.5t-32.5 -92 q0 -32 12 -58t33.5 -45t51 -29t65.5 -10q46 0 84.5 16.5t66.5 48t44 77t16 104.5v63zM335 1339q0 45 17.5 85.5t48.5 71t72.5 48.5t88.5 18q44 0 85 -17.5t72.5 -47.5t50 -70.5t18.5 -87.5q0 -46 -18 -87t-49 -71.5t-72 -48t-87 -17.5q-45 0 -86 17.5t-72.5 47.5t-50 71 t-18.5 88zM661 1339q0 19 -8 36.5t-21.5 31t-31.5 21.5t-38 8t-38 -8t-31.5 -21t-21.5 -31t-8 -37q0 -20 8 -37.5t21.5 -30.5t31.5 -21t38 -8q19 0 37 8t31.5 21t22 30.5t8.5 37.5z" />
<glyph unicode="&#xe6;" horiz-adv-x="1774" d="M712 666q0 47 -15.5 76.5t-42 46t-60.5 22.5t-71 6q-40 0 -74.5 -5t-65.5 -12t-59 -15.5t-55 -15.5q-12 -4 -24 -5t-23 -1q-34 0 -58.5 22t-24.5 59q0 41 23.5 70.5t62 50.5t86.5 34.5t98 21t97 10t82 2.5q103 -3 176 -37t118 -108q61 69 146.5 107.5t190.5 38.5 q115 0 202.5 -37t146.5 -103t89.5 -158t30.5 -203q0 -47 -31.5 -65t-82.5 -18h-560q1 -56 12 -103.5t39 -82t75.5 -54.5t120.5 -20q43 0 80 7t71.5 17t67 22t66.5 21q12 3 22 3q17 0 31 -8.5t23.5 -22t14.5 -30.5t5 -33q0 -42 -27.5 -72t-70.5 -50.5t-94.5 -33t-100 -19.5 t-87 -9t-55.5 -2q-124 0 -216 47t-152 131q-57 -93 -159.5 -135.5t-245.5 -42.5q-89 0 -160 19t-120.5 56.5t-75.5 92.5t-26 126q0 93 40 158.5t115 106t181.5 59t240.5 18.5q17 0 42 -1t41 -1v52zM1421 599q-5 123 -56 190t-144 67q-48 0 -85.5 -18.5t-63.5 -52.5t-41 -81 t-18 -105h408zM711 467q-10 0 -25 -0.5t-30 -0.5h-23q-60 0 -113.5 -7.5t-94 -26.5t-64 -51.5t-23.5 -81.5q0 -37 12 -65t33.5 -46.5t51.5 -28t65 -9.5q94 0 151 66t60 187v64z" />
<glyph unicode="&#xe7;" horiz-adv-x="1063" d="M72 507q0 113 41 208t112.5 164t169 107.5t211.5 38.5q60 0 120.5 -10t109 -31t79 -53.5t30.5 -77.5q0 -44 -28.5 -70t-72.5 -26q-23 0 -48 5t-51.5 10.5t-52.5 10.5t-50 5q-51 0 -96 -17.5t-78 -52.5t-52.5 -87t-19.5 -122q0 -56 15 -107t45.5 -89.5t77 -61.5t109.5 -23 q25 0 53.5 5t56.5 11.5t55.5 11.5t51.5 5q42 0 70.5 -25.5t28.5 -67.5q0 -43 -31 -76.5t-82 -56.5t-116.5 -35t-134.5 -12q-99 0 -193.5 32.5t-167.5 97t-117.5 162t-44.5 227.5zM494 5h111l-49 -114q39 3 65 3q36 -1 66.5 -11t53.5 -30.5t36 -51t13 -73.5q-2 -44 -24 -76.5 t-56.5 -53.5t-79 -31t-92.5 -10q-34 0 -72 4.5t-71.5 12t-58.5 18.5t-32 23q-6 10 -6 26q0 21 12 37t35 16q2 0 4 -0.5t4 -0.5q34 -9 76 -21.5t80 -12.5q57 0 81.5 21.5t24.5 56.5q0 19 -8.5 32t-22 21t-30.5 11.5t-34 3.5q-8 -1 -16 -2.5t-16 -2.5q-28 0 -43.5 10.5 t-15.5 31.5q0 15 9 35z" />
<glyph unicode="&#xe8;" horiz-adv-x="1207" d="M1111 536q0 -41 -27 -61t-75 -20h-619q5 -121 69.5 -187.5t196.5 -66.5q43 0 80.5 5.5t73.5 15t72 21.5l75 25q13 5 23 5q33 0 53 -25.5t20 -59.5q0 -20 -7 -38q-20 -48 -66 -79.5t-106 -50t-127 -25.5t-128 -7q-115 0 -214.5 33t-172.5 98t-114.5 163t-41.5 227 q0 108 40 202t111.5 163t170 109t216.5 40q128 0 221 -39.5t154 -106t91 -155t31 -186.5zM844 597q-3 53 -18.5 98t-44 78t-70 51.5t-96.5 18.5q-50 0 -90.5 -19.5t-70 -53t-46 -78t-19.5 -95.5h455zM413 1404q-18 15 -26 32.5t-8 37.5q0 25 12.5 48t32 40.5t44.5 28 t50 10.5q32 0 60.5 -22.5t53.5 -58.5l192 -280q8 -13 15.5 -25.5t7.5 -25.5q0 -28 -19 -49.5t-46 -21.5q-16 0 -38 9.5t-37 24.5z" />
<glyph unicode="&#xe9;" horiz-adv-x="1207" d="M1111 536q0 -41 -27 -61t-75 -20h-619q5 -121 69.5 -187.5t196.5 -66.5q43 0 80.5 5.5t73.5 15t72 21.5l75 25q13 5 23 5q33 0 53 -25.5t20 -59.5q0 -20 -7 -38q-20 -48 -66 -79.5t-106 -50t-127 -25.5t-128 -7q-115 0 -214.5 33t-172.5 98t-114.5 163t-41.5 227 q0 108 40 202t111.5 163t170 109t216.5 40q128 0 221 -39.5t154 -106t91 -155t31 -186.5zM844 597q-3 53 -18.5 98t-44 78t-70 51.5t-96.5 18.5q-50 0 -90.5 -19.5t-70 -53t-46 -78t-19.5 -95.5h455zM493 1139q-23 -20 -54 -20q-26 0 -48.5 17.5t-22.5 49.5q0 15 7.5 27.5 t16.5 26.5l199 288q22 32 47.5 53.5t57.5 21.5q24 0 48 -10t44 -27t32.5 -40.5t12.5 -50.5q-1 -46 -46 -84z" />
<glyph unicode="&#xea;" horiz-adv-x="1207" d="M1111 536q0 -41 -27 -61t-75 -20h-619q5 -121 69.5 -187.5t196.5 -66.5q43 0 80.5 5.5t73.5 15t72 21.5l75 25q13 5 23 5q33 0 53 -25.5t20 -59.5q0 -20 -7 -38q-20 -48 -66 -79.5t-106 -50t-127 -25.5t-128 -7q-115 0 -214.5 33t-172.5 98t-114.5 163t-41.5 227 q0 108 40 202t111.5 163t170 109t216.5 40q128 0 221 -39.5t154 -106t91 -155t31 -186.5zM844 597q-3 53 -18.5 98t-44 78t-70 51.5t-96.5 18.5q-50 0 -90.5 -19.5t-70 -53t-46 -78t-19.5 -95.5h455zM484 1526q26 31 57 48t65 17q30 -1 62 -16t58 -49l169 -216 q18 -23 32.5 -48.5t14.5 -47.5q0 -32 -24.5 -52.5t-57.5 -20.5q-31 0 -61 17.5t-60 58.5q-33 45 -66.5 89.5t-66.5 89.5q-32 -42 -64.5 -87.5t-65 -83.5t-65 -62.5t-64.5 -24.5q-16 0 -31 5t-27 14.5t-19 22.5t-7 30q-1 17 11 41.5t31 47.5z" />
<glyph unicode="&#xeb;" horiz-adv-x="1207" d="M1111 536q0 -41 -27 -61t-75 -20h-619q5 -121 69.5 -187.5t196.5 -66.5q43 0 80.5 5.5t73.5 15t72 21.5l75 25q13 5 23 5q33 0 53 -25.5t20 -59.5q0 -20 -7 -38q-20 -48 -66 -79.5t-106 -50t-127 -25.5t-128 -7q-115 0 -214.5 33t-172.5 98t-114.5 163t-41.5 227 q0 108 40 202t111.5 163t170 109t216.5 40q128 0 221 -39.5t154 -106t91 -155t31 -186.5zM844 597q-3 53 -18.5 98t-44 78t-70 51.5t-96.5 18.5q-50 0 -90.5 -19.5t-70 -53t-46 -78t-19.5 -95.5h455zM374 1171q-29 0 -55.5 10.5t-47.5 29t-33.5 45t-12.5 58.5 q0 29 11.5 55.5t32 46t47.5 31t58 11.5q30 0 56.5 -11t47 -30.5t32.5 -46t12 -56.5t-12 -56.5t-32.5 -45.5t-47 -30t-56.5 -11zM834 1171q-29 0 -56 10.5t-47.5 29t-33 45t-12.5 58.5q0 28 11 54.5t31 46t47.5 31.5t59.5 12q29 0 55.5 -11t47 -30t33 -45.5t12.5 -57.5 q0 -30 -12 -56.5t-32.5 -45.5t-47 -30t-56.5 -11z" />
<glyph unicode="&#xec;" horiz-adv-x="554" d="M81 1404q-18 15 -26 32.5t-8 37.5q0 25 12.5 48t32 40.5t44.5 28t50 10.5q32 0 60.5 -22.5t53.5 -58.5l192 -280q8 -13 15.5 -25.5t7.5 -25.5q0 -28 -19 -49.5t-46 -21.5q-16 0 -38 9.5t-37 24.5zM117 856q0 37 13 66.5t35 49.5t51 30.5t62 10.5q159 0 159 -215v-584 q0 -45 -8.5 -84t-27.5 -68t-50 -45.5t-75 -16.5q-81 0 -120 53.5t-39 160.5v642z" />
<glyph unicode="&#xed;" horiz-adv-x="554" d="M165 1139q-23 -20 -54 -20q-26 0 -48.5 17.5t-22.5 49.5q0 15 7.5 27.5t16.5 26.5l199 288q22 32 47.5 53.5t57.5 21.5q24 0 48 -10t44 -27t32.5 -40.5t12.5 -50.5q-1 -46 -46 -84zM117 856q0 37 13 66.5t35 49.5t51 30.5t62 10.5q159 0 159 -215v-584q0 -45 -8.5 -84 t-27.5 -68t-50 -45.5t-75 -16.5q-81 0 -120 53.5t-39 160.5v642z" />
<glyph unicode="&#xee;" horiz-adv-x="554" d="M117 856q0 37 13 66.5t35 49.5t51 30.5t62 10.5q159 0 159 -215v-584q0 -45 -8.5 -84t-27.5 -68t-50 -45.5t-75 -16.5q-81 0 -120 53.5t-39 160.5v642zM161 1526q26 31 57 48t65 17q30 -1 62 -16t58 -49l169 -216q18 -23 32.5 -48.5t14.5 -47.5q0 -32 -24.5 -52.5 t-57.5 -20.5q-31 0 -61 17.5t-60 58.5q-33 45 -66.5 89.5t-66.5 89.5q-32 -42 -64.5 -87.5t-65 -83.5t-65 -62.5t-64.5 -24.5q-16 0 -31 5t-27 14.5t-19 22.5t-7 30q-1 17 11 41.5t31 47.5z" />
<glyph unicode="&#xef;" horiz-adv-x="554" d="M50 1171q-29 0 -55.5 10.5t-47.5 29t-33.5 45t-12.5 58.5q0 29 11.5 55.5t32 46t47.5 31t58 11.5q30 0 56.5 -11t47 -30.5t32.5 -46t12 -56.5t-12 -56.5t-32.5 -45.5t-47 -30t-56.5 -11zM510 1171q-29 0 -56 10.5t-47.5 29t-33 45t-12.5 58.5q0 28 11 54.5t31 46 t47.5 31.5t59.5 12q29 0 55.5 -11t47 -30t33 -45.5t12.5 -57.5q0 -30 -12 -56.5t-32.5 -45.5t-47 -30t-56.5 -11zM117 856q0 37 13 66.5t35 49.5t51 30.5t62 10.5q159 0 159 -215v-584q0 -45 -8.5 -84t-27.5 -68t-50 -45.5t-75 -16.5q-81 0 -120 53.5t-39 160.5v642z" />
<glyph unicode="&#xf0;" d="M585 1067q-40 0 -59 23.5t-19 52.5t19 53t59 24h179q-15 33 -35 65t-38 60.5t-30 54.5t-12 47q0 27 12.5 51.5t33 43t47.5 29t56 10.5q40 0 77 -20.5t74 -64.5t75.5 -112.5t80.5 -163.5h156q20 0 39.5 -3t34.5 -11.5t24 -23.5t9 -39q0 -43 -28 -59.5t-80 -16.5h-97 q29 -103 45.5 -207t16.5 -204q0 -148 -33.5 -274.5t-105.5 -219.5t-185 -145.5t-273 -52.5q-125 0 -227.5 35.5t-175 101t-112 158.5t-39.5 207q0 103 33 187t93.5 143.5t144.5 92t186 32.5q51 0 101 -8.5t95 -28t83.5 -50.5t67.5 -77q0 1 2 3q-1 67 -13 146t-38 161h-244z M629 197q50 0 91.5 17.5t71 50.5t46 80t16.5 106q0 127 -61.5 197t-176.5 70q-54 0 -94.5 -19t-66.5 -53.5t-39 -83t-13 -107.5q0 -125 58 -191.5t168 -66.5z" />
<glyph unicode="&#xf1;" horiz-adv-x="1238" d="M116 809q0 95 34.5 146t118.5 51q89 0 127.5 -51t38.5 -146q18 48 52 87.5t80.5 67.5t102.5 43.5t118 15.5q64 0 124.5 -23t106.5 -69.5t74 -117t28 -164.5v-452q0 -95 -38.5 -146t-127.5 -51q-84 0 -118.5 51t-34.5 146v438q0 48 -12.5 83.5t-34.5 59t-51.5 35.5 t-63.5 12q-42 0 -79.5 -13.5t-65 -40.5t-43.5 -67t-16 -93v-414q0 -95 -38.5 -146t-127.5 -51q-84 0 -118.5 51t-34.5 146zM771 1313q19 0 28 14t18.5 32t24 35.5t46.5 25.5q5 1 15 1q29 0 51.5 -18.5t22.5 -49.5q0 -53 -16 -94t-43 -69t-63.5 -42.5t-77.5 -14.5 q-45 0 -86 16.5t-77.5 37t-68.5 37t-58 16.5t-42 -19.5t-29 -43.5q-14 -26 -34.5 -35.5t-43.5 -9.5q-29 0 -50 17t-21 49q0 6 1 10q11 99 61 155t142 56q48 0 91 -16.5t80.5 -36.5t70 -36.5t58.5 -16.5z" />
<glyph unicode="&#xf2;" horiz-adv-x="1258" d="M71 504q0 106 34.5 200.5t104 165.5t174 113t245.5 42q135 0 239 -39t175 -108.5t108 -165t37 -208.5q0 -105 -35 -198.5t-105 -164t-175 -112t-244 -41.5q-137 0 -241.5 39.5t-175 109t-106 164t-35.5 203.5zM404 504q0 -66 12 -125.5t38.5 -104.5t69.5 -71.5t105 -26.5 q57 0 99.5 24t70 67t41.5 103.5t14 133.5q0 66 -12.5 125.5t-39.5 105t-69.5 72t-103.5 26.5t-104 -26t-70 -71t-39 -105t-12 -127zM433 1404q-18 15 -26 32.5t-8 37.5q0 25 12.5 48t32 40.5t44.5 28t50 10.5q32 0 60.5 -22.5t53.5 -58.5l192 -280q8 -13 15.5 -25.5 t7.5 -25.5q0 -28 -19 -49.5t-46 -21.5q-16 0 -38 9.5t-37 24.5z" />
<glyph unicode="&#xf3;" horiz-adv-x="1258" d="M71 504q0 106 34.5 200.5t104 165.5t174 113t245.5 42q135 0 239 -39t175 -108.5t108 -165t37 -208.5q0 -105 -35 -198.5t-105 -164t-175 -112t-244 -41.5q-137 0 -241.5 39.5t-175 109t-106 164t-35.5 203.5zM404 504q0 -66 12 -125.5t38.5 -104.5t69.5 -71.5t105 -26.5 q57 0 99.5 24t70 67t41.5 103.5t14 133.5q0 66 -12.5 125.5t-39.5 105t-69.5 72t-103.5 26.5t-104 -26t-70 -71t-39 -105t-12 -127zM514 1139q-23 -20 -54 -20q-26 0 -48.5 17.5t-22.5 49.5q0 15 7.5 27.5t16.5 26.5l199 288q22 32 47.5 53.5t57.5 21.5q24 0 48 -10t44 -27 t32.5 -40.5t12.5 -50.5q-1 -46 -46 -84z" />
<glyph unicode="&#xf4;" horiz-adv-x="1258" d="M71 504q0 106 34.5 200.5t104 165.5t174 113t245.5 42q135 0 239 -39t175 -108.5t108 -165t37 -208.5q0 -105 -35 -198.5t-105 -164t-175 -112t-244 -41.5q-137 0 -241.5 39.5t-175 109t-106 164t-35.5 203.5zM404 504q0 -66 12 -125.5t38.5 -104.5t69.5 -71.5t105 -26.5 q57 0 99.5 24t70 67t41.5 103.5t14 133.5q0 66 -12.5 125.5t-39.5 105t-69.5 72t-103.5 26.5t-104 -26t-70 -71t-39 -105t-12 -127zM510 1526q26 31 57 48t65 17q30 -1 62 -16t58 -49l169 -216q18 -23 32.5 -48.5t14.5 -47.5q0 -32 -24.5 -52.5t-57.5 -20.5q-31 0 -61 17.5 t-60 58.5q-33 45 -66.5 89.5t-66.5 89.5q-32 -42 -64.5 -87.5t-65 -83.5t-65 -62.5t-64.5 -24.5q-16 0 -31 5t-27 14.5t-19 22.5t-7 30q-1 17 11 41.5t31 47.5z" />
<glyph unicode="&#xf5;" horiz-adv-x="1258" d="M71 504q0 106 34.5 200.5t104 165.5t174 113t245.5 42q135 0 239 -39t175 -108.5t108 -165t37 -208.5q0 -105 -35 -198.5t-105 -164t-175 -112t-244 -41.5q-137 0 -241.5 39.5t-175 109t-106 164t-35.5 203.5zM404 504q0 -66 12 -125.5t38.5 -104.5t69.5 -71.5t105 -26.5 q57 0 99.5 24t70 67t41.5 103.5t14 133.5q0 66 -12.5 125.5t-39.5 105t-69.5 72t-103.5 26.5t-104 -26t-70 -71t-39 -105t-12 -127zM781 1313q19 0 28 14t18.5 32t24 35.5t46.5 25.5q5 1 15 1q29 0 51.5 -18.5t22.5 -49.5q0 -53 -16 -94t-43 -69t-63.5 -42.5t-77.5 -14.5 q-45 0 -86 16.5t-77.5 37t-68.5 37t-58 16.5t-42 -19.5t-29 -43.5q-14 -26 -34.5 -35.5t-43.5 -9.5q-29 0 -50 17t-21 49q0 6 1 10q11 99 61 155t142 56q48 0 91 -16.5t80.5 -36.5t70 -36.5t58.5 -16.5z" />
<glyph unicode="&#xf6;" horiz-adv-x="1258" d="M71 504q0 106 34.5 200.5t104 165.5t174 113t245.5 42q135 0 239 -39t175 -108.5t108 -165t37 -208.5q0 -105 -35 -198.5t-105 -164t-175 -112t-244 -41.5q-137 0 -241.5 39.5t-175 109t-106 164t-35.5 203.5zM404 504q0 -66 12 -125.5t38.5 -104.5t69.5 -71.5t105 -26.5 q57 0 99.5 24t70 67t41.5 103.5t14 133.5q0 66 -12.5 125.5t-39.5 105t-69.5 72t-103.5 26.5t-104 -26t-70 -71t-39 -105t-12 -127zM399 1171q-29 0 -55.5 10.5t-47.5 29t-33.5 45t-12.5 58.5q0 29 11.5 55.5t32 46t47.5 31t58 11.5q30 0 56.5 -11t47 -30.5t32.5 -46 t12 -56.5t-12 -56.5t-32.5 -45.5t-47 -30t-56.5 -11zM859 1171q-29 0 -56 10.5t-47.5 29t-33 45t-12.5 58.5q0 28 11 54.5t31 46t47.5 31.5t59.5 12q29 0 55.5 -11t47 -30t33 -45.5t12.5 -57.5q0 -30 -12 -56.5t-32.5 -45.5t-47 -30t-56.5 -11z" />
<glyph unicode="&#xf7;" horiz-adv-x="1287" d="M198 414q-24 0 -42.5 8.5t-30.5 22.5t-18 32.5t-6 38.5q0 52 33 77t104 25h842q51 0 83.5 -23.5t32.5 -78.5q0 -56 -35.5 -79t-100.5 -23h-862zM501 89q0 26 10 51t28.5 44t45 30.5t59.5 11.5q29 0 55 -10.5t45.5 -29.5t30.5 -44t11 -53q0 -29 -11 -54t-30.5 -44 t-45 -29.5t-55.5 -10.5t-56 10.5t-45.5 29t-30.5 43.5t-11 55zM501 945q0 27 10 51.5t28.5 43t45 30t59.5 11.5q28 0 54 -10t45.5 -28t31 -43t11.5 -55q0 -29 -11 -54t-30.5 -44t-45 -29.5t-55.5 -10.5q-29 0 -55 10.5t-45.5 28.5t-31 43.5t-11.5 55.5z" />
<glyph unicode="&#xf8;" horiz-adv-x="1258" d="M71 504q0 108 33.5 204t102 168.5t173.5 114.5t249 42q113 0 198 -25l85 141q23 39 65 39q29 0 52 -19t23 -51q0 -20 -12 -46t-23 -47l-51 -78q56 -35 98 -83t69.5 -105t41 -121.5t13.5 -133.5q0 -107 -34.5 -202t-104 -166.5t-174.5 -113.5t-246 -42q-110 0 -194 25 l-83 -138q-12 -20 -28 -29.5t-33 -9.5q-30 0 -52.5 20.5t-22.5 49.5q2 35 23 69l59 96q-59 34 -101.5 81.5t-70.5 104.5t-41.5 122t-13.5 133zM875 504q0 54 -18 109t-56 93l-256 -532q33 -21 89 -21q62 0 107.5 25t75 71t44 111t14.5 144zM383 504q0 -27 4.5 -55.5 t14.5 -55t24.5 -50t35.5 -39.5l253 532q-35 21 -86 21q-66 0 -112.5 -26.5t-76 -73.5t-43.5 -112t-14 -141z" />
<glyph unicode="&#xf9;" horiz-adv-x="1238" d="M436 371q0 -47 12.5 -82t34.5 -58.5t51.5 -35t63.5 -11.5q40 0 77 12t65.5 37t45.5 63t17 89v424q0 95 34.5 146t118.5 51q89 0 127.5 -51t38.5 -146v-612q0 -95 -38.5 -146t-127.5 -51q-84 0 -118.5 51t-34.5 146q-21 -46 -54.5 -84t-78 -65.5t-98 -42.5t-115.5 -15 q-67 0 -128.5 23.5t-108.5 70t-75 115.5t-28 161v449q0 95 34.5 146t118.5 51q89 0 127.5 -51t38.5 -146v-438zM424 1404q-18 15 -26 32.5t-8 37.5q0 25 12.5 48t32 40.5t44.5 28t50 10.5q32 0 60.5 -22.5t53.5 -58.5l192 -280q8 -13 15.5 -25.5t7.5 -25.5q0 -28 -19 -49.5 t-46 -21.5q-16 0 -38 9.5t-37 24.5z" />
<glyph unicode="&#xfa;" horiz-adv-x="1238" d="M436 371q0 -47 12.5 -82t34.5 -58.5t51.5 -35t63.5 -11.5q40 0 77 12t65.5 37t45.5 63t17 89v424q0 95 34.5 146t118.5 51q89 0 127.5 -51t38.5 -146v-612q0 -95 -38.5 -146t-127.5 -51q-84 0 -118.5 51t-34.5 146q-21 -46 -54.5 -84t-78 -65.5t-98 -42.5t-115.5 -15 q-67 0 -128.5 23.5t-108.5 70t-75 115.5t-28 161v449q0 95 34.5 146t118.5 51q89 0 127.5 -51t38.5 -146v-438zM505 1139q-23 -20 -54 -20q-26 0 -48.5 17.5t-22.5 49.5q0 15 7.5 27.5t16.5 26.5l199 288q22 32 47.5 53.5t57.5 21.5q24 0 48 -10t44 -27t32.5 -40.5 t12.5 -50.5q-1 -46 -46 -84z" />
<glyph unicode="&#xfb;" horiz-adv-x="1238" d="M436 371q0 -47 12.5 -82t34.5 -58.5t51.5 -35t63.5 -11.5q40 0 77 12t65.5 37t45.5 63t17 89v424q0 95 34.5 146t118.5 51q89 0 127.5 -51t38.5 -146v-612q0 -95 -38.5 -146t-127.5 -51q-84 0 -118.5 51t-34.5 146q-21 -46 -54.5 -84t-78 -65.5t-98 -42.5t-115.5 -15 q-67 0 -128.5 23.5t-108.5 70t-75 115.5t-28 161v449q0 95 34.5 146t118.5 51q89 0 127.5 -51t38.5 -146v-438zM500 1526q26 31 57 48t65 17q30 -1 62 -16t58 -49l169 -216q18 -23 32.5 -48.5t14.5 -47.5q0 -32 -24.5 -52.5t-57.5 -20.5q-31 0 -61 17.5t-60 58.5 q-33 45 -66.5 89.5t-66.5 89.5q-32 -42 -64.5 -87.5t-65 -83.5t-65 -62.5t-64.5 -24.5q-16 0 -31 5t-27 14.5t-19 22.5t-7 30q-1 17 11 41.5t31 47.5z" />
<glyph unicode="&#xfc;" horiz-adv-x="1238" d="M436 371q0 -47 12.5 -82t34.5 -58.5t51.5 -35t63.5 -11.5q40 0 77 12t65.5 37t45.5 63t17 89v424q0 95 34.5 146t118.5 51q89 0 127.5 -51t38.5 -146v-612q0 -95 -38.5 -146t-127.5 -51q-84 0 -118.5 51t-34.5 146q-21 -46 -54.5 -84t-78 -65.5t-98 -42.5t-115.5 -15 q-67 0 -128.5 23.5t-108.5 70t-75 115.5t-28 161v449q0 95 34.5 146t118.5 51q89 0 127.5 -51t38.5 -146v-438zM390 1171q-29 0 -55.5 10.5t-47.5 29t-33.5 45t-12.5 58.5q0 29 11.5 55.5t32 46t47.5 31t58 11.5q30 0 56.5 -11t47 -30.5t32.5 -46t12 -56.5t-12 -56.5 t-32.5 -45.5t-47 -30t-56.5 -11zM850 1171q-29 0 -56 10.5t-47.5 29t-33 45t-12.5 58.5q0 28 11 54.5t31 46t47.5 31.5t59.5 12q29 0 55.5 -11t47 -30t33 -45.5t12.5 -57.5q0 -30 -12 -56.5t-32.5 -45.5t-47 -30t-56.5 -11z" />
<glyph unicode="&#xfd;" horiz-adv-x="1095" d="M403 13l-326 761q-11 25 -20.5 51.5t-9.5 50.5q0 29 11 53t30 41t44 26.5t54 9.5q31 0 57 -15.5t47.5 -41.5t38 -59t29.5 -67l192 -522l198 525q17 49 44 84t58 58q13 20 32.5 28.5t41.5 8.5q26 0 49 -11t40.5 -30t27.5 -43t10 -50t-12 -57.5t-23 -59.5l-401 -1018 q-13 -33 -28.5 -63t-35 -53t-43.5 -37t-54 -14q-31 0 -58.5 10t-48 29t-32.5 45t-12 59q1 29 14 63.5t24 65.5zM415 1139q-23 -20 -54 -20q-26 0 -48.5 17.5t-22.5 49.5q0 15 7.5 27.5t16.5 26.5l199 288q22 32 47.5 53.5t57.5 21.5q24 0 48 -10t44 -27t32.5 -40.5 t12.5 -50.5q-1 -46 -46 -84z" />
<glyph unicode="&#xfe;" horiz-adv-x="1258" d="M431 -190q0 -37 -15.5 -65t-40 -46.5t-54 -28t-56.5 -9.5q-83 0 -117 51t-34 147v1366q0 41 4.5 80.5t20 71t46 50.5t82.5 19q49 0 81 -22.5t51 -62.5t27 -94.5t8 -117.5v-319q24 49 60.5 86.5t81.5 63t96.5 38t104.5 12.5q88 0 162.5 -35t129 -101t85.5 -162.5 t31 -219.5q0 -112 -28.5 -208.5t-81 -168t-127 -112t-165.5 -40.5q-107 0 -199.5 52t-152.5 162v-387zM434 514q0 -82 10 -145t35.5 -106.5t69 -66t109.5 -22.5q61 0 100.5 28.5t62 75.5t31 107.5t8.5 125.5q0 64 -9 122.5t-32.5 103t-64 71t-103.5 26.5t-104.5 -24 t-66.5 -66.5t-35.5 -101t-10.5 -128.5z" />
<glyph unicode="&#xff;" horiz-adv-x="1095" d="M404 13l-326 761q-11 25 -20.5 51.5t-9.5 50.5q0 29 11 53t30 41t44 26.5t54 9.5q31 0 57 -15.5t47.5 -41.5t38 -59t29.5 -67l192 -522l198 525q17 49 44 84t58 58q13 20 32.5 28.5t41.5 8.5q26 0 49 -11t40.5 -30t27.5 -43t10 -50t-12 -57.5t-23 -59.5l-401 -1018 q-13 -33 -28.5 -63t-35 -53t-43.5 -37t-54 -14q-31 0 -58.5 10t-48 29t-32.5 45t-12 59q1 29 14 63.5t24 65.5zM317 1171q-29 0 -55.5 10.5t-47.5 29t-33.5 45t-12.5 58.5q0 29 11.5 55.5t32 46t47.5 31t58 11.5q30 0 56.5 -11t47 -30.5t32.5 -46t12 -56.5t-12 -56.5 t-32.5 -45.5t-47 -30t-56.5 -11zM777 1171q-29 0 -56 10.5t-47.5 29t-33 45t-12.5 58.5q0 28 11 54.5t31 46t47.5 31.5t59.5 12q29 0 55.5 -11t47 -30t33 -45.5t12.5 -57.5q0 -30 -12 -56.5t-32.5 -45.5t-47 -30t-56.5 -11z" />
<glyph unicode="&#x131;" horiz-adv-x="554" d="M117 856q0 37 13 66.5t35 49.5t51 30.5t62 10.5q159 0 159 -215v-584q0 -45 -8.5 -84t-27.5 -68t-50 -45.5t-75 -16.5q-81 0 -120 53.5t-39 160.5v642z" />
<glyph unicode="&#x141;" horiz-adv-x="1197" d="M1023 266q27 0 51.5 -10.5t42.5 -28.5t28.5 -42.5t10.5 -51.5t-10.5 -51.5t-28.5 -42.5t-42.5 -28.5t-51.5 -10.5h-685q-54 0 -90 23.5t-57.5 62t-30 87.5t-8.5 100v384l-85 -27q-12 -4 -24 -4q-21 0 -39 9t-31 24.5t-20.5 35.5t-7.5 42q0 27 16 52.5t49 36.5l142 46v386 q0 41 14.5 76.5t39.5 62t58.5 41.5t72.5 15t72.5 -15t59 -41.5t40 -62t14.5 -76.5v-264l189 62q15 5 31 5q21 0 39 -9.5t31 -25.5t20 -35.5t7 -39.5q0 -32 -16 -55.5t-49 -34.5l-252 -83v-512h500z" />
<glyph unicode="&#x142;" horiz-adv-x="554" d="M117 705l-53 -30q-14 -7 -29.5 -14t-31.5 -7q-21 0 -39.5 8.5t-32 23.5t-21.5 34.5t-8 41.5q0 27 14 51t46 37l155 78v319q0 38 7.5 75t26 65.5t49.5 46t78 17.5q80 0 119.5 -56t39.5 -164v-175l101 50q14 8 29.5 15t33.5 7q20 0 36.5 -9t28 -23.5t17.5 -32t6 -35.5 q0 -16 -7.5 -34t-21 -35t-33 -32t-42.5 -24l-148 -70v-629q0 -42 -9 -79t-28.5 -64.5t-50 -44t-73.5 -16.5q-82 0 -120.5 54t-38.5 166v485z" />
<glyph unicode="&#x152;" horiz-adv-x="1999" d="M996 1209q-13 5 -72.5 13.5t-160.5 8.5q-80 0 -138.5 -35t-97 -100t-58 -157.5t-19.5 -207.5q0 -114 17 -208t53.5 -161.5t95.5 -104.5t145 -37q47 0 88 3t72 7t51 8.5t24 7.5v963zM1351 1195v-327h294q36 0 72 -4t64.5 -17.5t46.5 -39.5t18 -68q0 -39 -16 -64t-45.5 -39 t-72 -19t-94.5 -5h-267v-355h326q41 0 83 -4t75.5 -17t54 -38.5t20.5 -69.5q0 -35 -12.5 -59.5t-35.5 -40t-56 -22t-73 -6.5h-672q-11 0 -29 -1t-41 -3t-50 -4t-54 -3l-63 -4q-50 -3 -92 -3q-145 0 -264 50t-204 145t-131.5 233.5t-46.5 314.5q0 174 45 312t132 234t214 147 t291 51q44 0 95 -2.5t98.5 -6t87 -6t58.5 -2.5h609q35 0 67.5 -6t57.5 -20t39.5 -39t14.5 -63q0 -40 -15.5 -65t-45 -39t-72.5 -19.5t-96 -5.5h-315z" />
<glyph unicode="&#x153;" horiz-adv-x="1883" d="M1798 533q0 -25 -9 -41t-25.5 -25.5t-39 -13t-49.5 -3.5h-572q1 -56 13.5 -104t42.5 -82.5t80 -54t127 -19.5q41 0 77 6.5t69 16.5t66 22t68 22q10 3 21 3q17 0 31 -8t23.5 -21t14.5 -29.5t5 -34.5q0 -37 -20 -65.5t-53.5 -50.5t-77 -37.5t-91 -25t-96 -14t-91.5 -4.5 q-121 0 -211 46.5t-150 131.5q-60 -78 -145 -123t-202 -45q-134 0 -234.5 40.5t-168 111t-101.5 166t-34 206.5q0 109 33 205.5t99.5 168.5t167.5 113.5t238 41.5q118 0 205 -45t145 -120q63 78 154.5 125t210.5 47q118 0 207 -37t149 -104t91 -160.5t32 -205.5zM388 504 q0 -71 12 -132.5t37.5 -106.5t66.5 -71t100 -26q55 0 94.5 24.5t65 68t38 104.5t13.5 133q0 72 -11.5 135t-36.5 109t-65 72.5t-98 26.5q-57 0 -98 -25.5t-67.5 -70.5t-38.5 -106.5t-12 -134.5zM1515 599q-7 122 -59 189.5t-151 67.5q-48 0 -85.5 -19t-64 -52.5t-41 -81 t-17.5 -104.5h418z" />
<glyph unicode="&#x160;" horiz-adv-x="1371" d="M461 1073q0 -48 32 -81t83.5 -57t116.5 -42t131 -37q106 -32 192.5 -68t148 -86t95 -118.5t33.5 -164.5q0 -105 -41.5 -189t-119.5 -143t-188.5 -90.5t-248.5 -31.5q-71 0 -143 8.5t-139 24.5t-126 39t-103 52t-69 63.5t-25 73.5q0 25 10.5 49t27 43.5t37 31.5t40.5 12 q18 0 35 -6t34.5 -14.5t36 -18.5t39.5 -18q69 -31 155 -56t180 -25q51 0 96.5 9.5t80 29t54.5 50.5t20 75q0 33 -12 59t-33 45.5t-49 34t-59 25.5l-45 16q-13 4 -25 8.5t-26 8.5l-52 15q-17 4 -29 7.5t-21.5 7t-18.5 7t-21 7.5l-94 33q-91 33 -156 69t-106 81t-60.5 102.5 t-19.5 133.5q0 100 41.5 181t119 138t188 88t248.5 31q50 0 109 -6.5t118 -19.5t113.5 -33.5t96.5 -48t67.5 -62.5t25.5 -78q0 -25 -9.5 -46t-25.5 -36t-37.5 -23.5t-44.5 -8.5q-30 0 -55 13q-47 24 -87.5 41t-80.5 28t-82.5 16t-93.5 5q-48 0 -94.5 -8.5t-83 -27t-59 -47.5 t-22.5 -71zM375 1874q-15 17 -21.5 33t-6.5 33q0 34 26 55t62 21q62 0 122 -79l134 -179q32 42 63.5 83.5t62.5 85.5q28 38 59 62t65 24q38 0 61.5 -22t23.5 -58q0 -22 -15 -46t-32 -45l-153 -193q-32 -41 -64 -63.5t-70 -22.5q-35 0 -66.5 17t-56.5 49z" />
<glyph unicode="&#x161;" horiz-adv-x="1076" d="M371 738q0 -39 34 -60.5t94 -35.5q57 -13 117 -25t117 -27.5t107 -36.5t88 -52.5t60 -76t22 -106.5q0 -78 -32 -138.5t-90.5 -102.5t-139.5 -65t-179 -24q-93 0 -179 11.5t-152.5 35.5t-106.5 59.5t-40 83.5q0 42 27 65t69 23q16 0 38 -6t48 -15t55.5 -19.5t61.5 -18.5 q40 -11 82.5 -17.5t87.5 -6.5q28 0 55 5.5t48.5 17t35.5 29.5t17 44q3 6 5 12t2 14q0 28 -25.5 50t-71.5 35q-77 18 -147 33t-129.5 32t-108 39t-82 54t-52 77t-18.5 109q0 69 31.5 123.5t90.5 91.5t143 56.5t190 19.5q190 0 289.5 -45.5t99.5 -118.5q0 -41 -27 -62.5 t-65 -21.5q-20 0 -41.5 7.5t-51.5 17t-71.5 17t-102.5 7.5q-46 0 -83.5 -4t-64 -14t-41 -27t-14.5 -43zM228 1433q-15 17 -21.5 33t-6.5 33q0 34 26 55t62 21q62 0 122 -79l134 -179q32 42 63.5 83.5t62.5 85.5q28 38 59 62t65 24q38 0 61.5 -22t23.5 -58q0 -22 -15 -46 t-32 -45l-153 -193q-32 -41 -64 -63.5t-70 -22.5q-35 0 -66.5 17t-56.5 49z" />
<glyph unicode="&#x178;" horiz-adv-x="1391" d="M883 195q-1 -41 -16 -76.5t-40.5 -62t-59 -41.5t-72.5 -15t-72.5 15t-58.5 41.5t-39.5 62t-14.5 76.5v361l-367 613q-19 31 -27 60.5t-8 57.5q0 37 13.5 67.5t36 52.5t52 34t61.5 12q48 0 96 -30t81 -99l263 -523h4l274 527q34 66 80 95t93 29q28 0 53.5 -10t44.5 -28 t30 -44t11 -57q0 -26 -8 -54.5t-27 -59.5l-383 -637v-367zM465 1621q-29 0 -55.5 10.5t-47.5 29t-33.5 45t-12.5 58.5q0 29 11.5 55.5t32 46t47.5 31t58 11.5q30 0 56.5 -11t47 -30.5t32.5 -46t12 -56.5t-12 -56.5t-32.5 -45.5t-47 -30t-56.5 -11zM925 1621q-29 0 -56 10.5 t-47.5 29t-33 45t-12.5 58.5q0 28 11 54.5t31 46t47.5 31.5t59.5 12q29 0 55.5 -11t47 -30t33 -45.5t12.5 -57.5q0 -30 -12 -56.5t-32.5 -45.5t-47 -30t-56.5 -11z" />
<glyph unicode="&#x17d;" horiz-adv-x="1278" d="M1083 259q27 0 50.5 -10t41.5 -28t28 -41.5t10 -50.5t-10 -50.5t-28 -41t-41.5 -27.5t-50.5 -10h-875q-36 0 -64 9.5t-46.5 26t-28 39t-9.5 47.5q0 33 18.5 75t44.5 79q163 230 323.5 459t322.5 459h-565q-27 0 -50.5 10t-41 27.5t-27.5 41t-10 50.5t10 50.5t27.5 41.5 t41 28t50.5 10h838q35 0 65.5 -6.5t53.5 -21t36.5 -38.5t13.5 -58t-18.5 -74t-43.5 -75l-650 -921h584zM329 1874q-15 17 -21.5 33t-6.5 33q0 34 26 55t62 21q62 0 122 -79l134 -179q32 42 63.5 83.5t62.5 85.5q28 38 59 62t65 24q38 0 61.5 -22t23.5 -58q0 -22 -15 -46 t-32 -45l-153 -193q-32 -41 -64 -63.5t-70 -22.5q-35 0 -66.5 17t-56.5 49z" />
<glyph unicode="&#x17e;" horiz-adv-x="1005" d="M831 228q27 0 48 -10t36 -26.5t22.5 -36.5t7.5 -41q0 -62 -43 -88t-115 -26h-574q-29 0 -55.5 5.5t-47 18t-32.5 34t-12 54.5t17 64.5t40 60.5l426 543h-304q-33 0 -61.5 5.5t-49.5 19t-33.5 35.5t-12.5 55q0 115 157 115h518q37 0 69.5 -4t57 -16t38.5 -32.5t14 -53.5 q-1 -32 -19.5 -65t-40.5 -62l-418 -549h367zM192 1433q-15 17 -21.5 33t-6.5 33q0 34 26 55t62 21q62 0 122 -79l134 -179q32 42 63.5 83.5t62.5 85.5q28 38 59 62t65 24q38 0 61.5 -22t23.5 -58q0 -22 -15 -46t-32 -45l-153 -193q-32 -41 -64 -63.5t-70 -22.5 q-35 0 -66.5 17t-56.5 49z" />
<glyph unicode="&#x192;" d="M734 679q-28 -142 -57 -293.5t-64 -311.5q-37 -167 -86.5 -284.5t-112 -191t-138 -107t-162.5 -33.5q-73 0 -108.5 24t-35.5 64q0 27 12 48.5t32 36t46.5 23t55.5 10.5q44 3 79 26t64.5 71.5t55.5 126.5t53 189.5t56.5 260.5t65.5 341h-72q-35 0 -66 6t-55 20.5t-38 39 t-14 60.5q0 21 8 41.5t23 36.5t36.5 26t49.5 10h167q24 174 73.5 306t119.5 220t158 132.5t188 44.5q69 0 102 -23t33 -61q0 -27 -12 -46t-34 -32t-52 -21t-66 -11q-51 -5 -90 -37.5t-69.5 -95t-56 -156t-49.5 -220.5h173q27 0 49 -10t37.5 -26.5t23.5 -38t8 -45.5 q0 -60 -40 -90t-109 -30h-182z" />
<glyph unicode="&#x200;" horiz-adv-x="1505" d="M741 1179l-220 -643h444l-219 643h-5zM1393 303q7 -18 15 -37.5t15 -39.5t11.5 -38.5t4.5 -33.5q0 -37 -13.5 -65.5t-36.5 -48t-53.5 -30t-64.5 -10.5q-39 0 -67 11t-50 35t-40.5 62.5t-39.5 94.5l-48 127h-566l-41 -127q-18 -57 -36.5 -96t-41 -62.5t-51.5 -34 t-68 -10.5q-34 0 -64.5 10.5t-53.5 30t-36.5 48t-13.5 65.5q0 15 4.5 33.5t11.5 38.5t15 39.5t15 37.5l269 727q38 102 72.5 180.5t76 132.5t95.5 81.5t131 27.5q72 0 123 -21.5t92 -71t78 -130.5t82 -199zM356 1874q-34 32 -34 72q0 27 13 49.5t33.5 39.5t44.5 26.5t47 9.5 q32 0 58.5 -20.5t49.5 -53.5l198 -285q10 -14 16.5 -27.5t8.5 -27.5q0 -29 -21.5 -48.5t-47.5 -19.5q-15 0 -37 9.5t-37 23.5zM802 1874q-34 28 -34 71q0 24 12 47t31.5 40.5t44 28t49.5 10.5q32 0 60 -21.5t54 -57.5l194 -282q11 -16 16.5 -30t6.5 -32q-3 -23 -21 -41 t-45 -18q-20 0 -45 13.5t-45 31.5q-70 61 -139.5 120.5t-138.5 119.5z" />
<glyph unicode="&#x201;" horiz-adv-x="1123" d="M712 658q0 84 -44.5 119t-119.5 35q-45 0 -84 -5t-73.5 -12.5t-65.5 -15.5t-59 -15q-23 -6 -41 -6q-33 0 -59.5 21.5t-26.5 59.5q0 37 19 65t51.5 48.5t75.5 34t90.5 21.5t97.5 11.5t96 3.5q96 0 176 -21.5t137.5 -71.5t90 -131t32.5 -199v-400q0 -39 -5 -75t-20 -64 t-43 -44.5t-74 -16.5q-72 0 -106.5 47.5t-34.5 135.5q-26 -51 -63.5 -88t-82.5 -60.5t-95.5 -35t-102.5 -11.5q-70 0 -130 20.5t-103.5 58t-68 90t-24.5 117.5q0 91 38 156t110.5 106t177 60t238.5 19h96v43zM711 466q-68 2 -135 -2t-120 -21.5t-85.5 -51.5t-32.5 -92 q0 -32 12 -58t33.5 -45t51 -29t65.5 -10q46 0 84.5 16.5t66.5 48t44 77t16 104.5v63zM164 1404q-34 32 -34 72q0 27 13 49.5t33.5 39.5t44.5 26.5t47 9.5q32 0 58.5 -20.5t49.5 -53.5l198 -285q10 -14 16.5 -27.5t8.5 -27.5q0 -29 -21.5 -48.5t-47.5 -19.5q-15 0 -37 9.5 t-37 23.5zM610 1404q-34 28 -34 71q0 24 12 47t31.5 40.5t44 28t49.5 10.5q32 0 60 -21.5t54 -57.5l194 -282q11 -16 16.5 -30t6.5 -32q-3 -23 -21 -41t-45 -18q-20 0 -45 13.5t-45 31.5q-70 61 -139.5 120.5t-138.5 119.5z" />
<glyph unicode="&#x202;" horiz-adv-x="1505" d="M741 1179l-220 -643h444l-219 643h-5zM1393 303q7 -18 15 -37.5t15 -39.5t11.5 -38.5t4.5 -33.5q0 -37 -13.5 -65.5t-36.5 -48t-53.5 -30t-64.5 -10.5q-39 0 -67 11t-50 35t-40.5 62.5t-39.5 94.5l-48 127h-566l-41 -127q-18 -57 -36.5 -96t-41 -62.5t-51.5 -34 t-68 -10.5q-34 0 -64.5 10.5t-53.5 30t-36.5 48t-13.5 65.5q0 15 4.5 33.5t11.5 38.5t15 39.5t15 37.5l269 727q38 102 72.5 180.5t76 132.5t95.5 81.5t131 27.5q72 0 123 -21.5t92 -71t78 -130.5t82 -199zM753 1938q56 0 108 -12.5t95.5 -38t75.5 -64t49 -89.5 q4 -11 4.5 -21t1.5 -18q0 -40 -26 -61.5t-61 -21.5t-60 20t-46 53q-25 32 -57.5 46t-83.5 14q-49 0 -80.5 -12.5t-53.5 -41.5q-26 -35 -54 -57t-67 -22q-30 2 -55 23t-25 59q0 27 12 56t32 56t45 49.5t52 37.5q82 45 194 45z" />
<glyph unicode="&#x203;" horiz-adv-x="1123" d="M712 658q0 84 -44.5 119t-119.5 35q-45 0 -84 -5t-73.5 -12.5t-65.5 -15.5t-59 -15q-23 -6 -41 -6q-33 0 -59.5 21.5t-26.5 59.5q0 37 19 65t51.5 48.5t75.5 34t90.5 21.5t97.5 11.5t96 3.5q96 0 176 -21.5t137.5 -71.5t90 -131t32.5 -199v-400q0 -39 -5 -75t-20 -64 t-43 -44.5t-74 -16.5q-72 0 -106.5 47.5t-34.5 135.5q-26 -51 -63.5 -88t-82.5 -60.5t-95.5 -35t-102.5 -11.5q-70 0 -130 20.5t-103.5 58t-68 90t-24.5 117.5q0 91 38 156t110.5 106t177 60t238.5 19h96v43zM711 466q-68 2 -135 -2t-120 -21.5t-85.5 -51.5t-32.5 -92 q0 -32 12 -58t33.5 -45t51 -29t65.5 -10q46 0 84.5 16.5t66.5 48t44 77t16 104.5v63zM562 1468q56 0 108 -12.5t95.5 -38t75.5 -64t49 -89.5q4 -11 4.5 -21t1.5 -18q0 -40 -26 -61.5t-61 -21.5t-60 20t-46 53q-25 32 -57.5 46t-83.5 14q-49 0 -80.5 -12.5t-53.5 -41.5 q-26 -35 -54 -57t-67 -22q-30 2 -55 23t-25 59q0 27 12 56t32 56t45 49.5t52 37.5q82 45 194 45z" />
<glyph unicode="&#x204;" horiz-adv-x="1272" d="M334 0q-51 0 -85.5 21t-55.5 54.5t-30 75.5t-9 84v953q0 57 7 105.5t31 83.5t70 55t124 20h642q29 0 54.5 -10.5t44.5 -28t30 -41.5t11 -51t-11 -50.5t-30 -41t-44.5 -27.5t-54.5 -10h-515v-324h470q29 0 54.5 -10t44.5 -28t30 -41.5t11 -50.5t-11 -50.5t-30 -41 t-44.5 -27.5t-54.5 -10h-470v-350h540q27 0 50.5 -10t41.5 -28t28 -41.5t10 -50.5t-10 -50.5t-28 -41t-41.5 -27.5t-50.5 -10h-719zM239 1874q-34 32 -34 72q0 27 13 49.5t33.5 39.5t44.5 26.5t47 9.5q32 0 58.5 -20.5t49.5 -53.5l198 -285q10 -14 16.5 -27.5t8.5 -27.5 q0 -29 -21.5 -48.5t-47.5 -19.5q-15 0 -37 9.5t-37 23.5zM685 1874q-34 28 -34 71q0 24 12 47t31.5 40.5t44 28t49.5 10.5q32 0 60 -21.5t54 -57.5l194 -282q11 -16 16.5 -30t6.5 -32q-3 -23 -21 -41t-45 -18q-20 0 -45 13.5t-45 31.5q-70 61 -139.5 120.5t-138.5 119.5z " />
<glyph unicode="&#x205;" horiz-adv-x="1187" d="M1110 536q0 -41 -27 -61t-75 -20h-619q5 -121 69.5 -187.5t196.5 -66.5q43 0 80.5 5.5t73.5 15t72 21.5l75 25q13 5 23 5q33 0 53 -25.5t20 -59.5q0 -20 -7 -38q-20 -48 -66 -79.5t-106 -50t-127 -25.5t-128 -7q-115 0 -214.5 33t-172.5 98t-114.5 163t-41.5 227 q0 108 40 202t111.5 163t170 109t216.5 40q128 0 221 -39.5t154 -106t91 -155t31 -186.5zM843 597q-3 53 -18.5 98t-44 78t-70 51.5t-96.5 18.5q-50 0 -90.5 -19.5t-70 -53t-46 -78t-19.5 -95.5h455zM196 1404q-34 32 -34 72q0 27 13 49.5t33.5 39.5t44.5 26.5t47 9.5 q32 0 58.5 -20.5t49.5 -53.5l198 -285q10 -14 16.5 -27.5t8.5 -27.5q0 -29 -21.5 -48.5t-47.5 -19.5q-15 0 -37 9.5t-37 23.5zM642 1404q-34 28 -34 71q0 24 12 47t31.5 40.5t44 28t49.5 10.5q32 0 60 -21.5t54 -57.5l194 -282q11 -16 16.5 -30t6.5 -32q-3 -23 -21 -41 t-45 -18q-20 0 -45 13.5t-45 31.5q-70 61 -139.5 120.5t-138.5 119.5z" />
<glyph unicode="&#x206;" horiz-adv-x="1272" d="M334 0q-51 0 -85.5 21t-55.5 54.5t-30 75.5t-9 84v953q0 57 7 105.5t31 83.5t70 55t124 20h642q29 0 54.5 -10.5t44.5 -28t30 -41.5t11 -51t-11 -50.5t-30 -41t-44.5 -27.5t-54.5 -10h-515v-324h470q29 0 54.5 -10t44.5 -28t30 -41.5t11 -50.5t-11 -50.5t-30 -41 t-44.5 -27.5t-54.5 -10h-470v-350h540q27 0 50.5 -10t41.5 -28t28 -41.5t10 -50.5t-10 -50.5t-28 -41t-41.5 -27.5t-50.5 -10h-719zM635 1938q56 0 108 -12.5t95.5 -38t75.5 -64t49 -89.5q4 -11 4.5 -21t1.5 -18q0 -40 -26 -61.5t-61 -21.5t-60 20t-46 53q-25 32 -57.5 46 t-83.5 14q-49 0 -80.5 -12.5t-53.5 -41.5q-26 -35 -54 -57t-67 -22q-30 2 -55 23t-25 59q0 27 12 56t32 56t45 49.5t52 37.5q82 45 194 45z" />
<glyph unicode="&#x207;" horiz-adv-x="1187" d="M1110 536q0 -41 -27 -61t-75 -20h-619q5 -121 69.5 -187.5t196.5 -66.5q43 0 80.5 5.5t73.5 15t72 21.5l75 25q13 5 23 5q33 0 53 -25.5t20 -59.5q0 -20 -7 -38q-20 -48 -66 -79.5t-106 -50t-127 -25.5t-128 -7q-115 0 -214.5 33t-172.5 98t-114.5 163t-41.5 227 q0 108 40 202t111.5 163t170 109t216.5 40q128 0 221 -39.5t154 -106t91 -155t31 -186.5zM843 597q-3 53 -18.5 98t-44 78t-70 51.5t-96.5 18.5q-50 0 -90.5 -19.5t-70 -53t-46 -78t-19.5 -95.5h455zM594 1468q56 0 108 -12.5t95.5 -38t75.5 -64t49 -89.5q4 -11 4.5 -21 t1.5 -18q0 -40 -26 -61.5t-61 -21.5t-60 20t-46 53q-25 32 -57.5 46t-83.5 14q-49 0 -80.5 -12.5t-53.5 -41.5q-26 -35 -54 -57t-67 -22q-30 2 -55 23t-25 59q0 27 12 56t32 56t45 49.5t52 37.5q82 45 194 45z" />
<glyph unicode="&#x208;" horiz-adv-x="689" d="M530 195q0 -41 -14.5 -76.5t-40 -62t-59 -41.5t-72.5 -15t-72.5 15t-58.5 41.5t-39.5 62t-14.5 76.5v1063q0 41 14.5 76.5t39.5 62t58.5 41.5t72.5 15t72.5 -15t59 -41.5t40 -62t14.5 -76.5v-1063zM-52 1874q-34 32 -34 72q0 27 13 49.5t33.5 39.5t44.5 26.5t47 9.5 q32 0 58.5 -20.5t49.5 -53.5l198 -285q10 -14 16.5 -27.5t8.5 -27.5q0 -29 -21.5 -48.5t-47.5 -19.5q-15 0 -37 9.5t-37 23.5zM394 1874q-34 28 -34 71q0 24 12 47t31.5 40.5t44 28t49.5 10.5q32 0 60 -21.5t54 -57.5l194 -282q11 -16 16.5 -30t6.5 -32q-3 -23 -21 -41 t-45 -18q-20 0 -45 13.5t-45 31.5q-70 61 -139.5 120.5t-138.5 119.5z" />
<glyph unicode="&#x209;" horiz-adv-x="554" d="M-118 1404q-34 32 -34 72q0 27 13 49.5t33.5 39.5t44.5 26.5t47 9.5q32 0 58.5 -20.5t49.5 -53.5l198 -285q10 -14 16.5 -27.5t8.5 -27.5q0 -29 -21.5 -48.5t-47.5 -19.5q-15 0 -37 9.5t-37 23.5zM328 1404q-34 28 -34 71q0 24 12 47t31.5 40.5t44 28t49.5 10.5 q32 0 60 -21.5t54 -57.5l194 -282q11 -16 16.5 -30t6.5 -32q-3 -23 -21 -41t-45 -18q-20 0 -45 13.5t-45 31.5q-70 61 -139.5 120.5t-138.5 119.5zM117 856q0 37 13 66.5t35 49.5t51 30.5t62 10.5q159 0 159 -215v-584q0 -45 -8.5 -84t-27.5 -68t-50 -45.5t-75 -16.5 q-81 0 -120 53.5t-39 160.5v642z" />
<glyph unicode="&#x20a;" horiz-adv-x="689" d="M530 195q0 -41 -14.5 -76.5t-40 -62t-59 -41.5t-72.5 -15t-72.5 15t-58.5 41.5t-39.5 62t-14.5 76.5v1063q0 41 14.5 76.5t39.5 62t58.5 41.5t72.5 15t72.5 -15t59 -41.5t40 -62t14.5 -76.5v-1063zM344 1938q56 0 108 -12.5t95.5 -38t75.5 -64t49 -89.5q4 -11 4.5 -21 t1.5 -18q0 -40 -26 -61.5t-61 -21.5t-60 20t-46 53q-25 32 -57.5 46t-83.5 14q-49 0 -80.5 -12.5t-53.5 -41.5q-26 -35 -54 -57t-67 -22q-30 2 -55 23t-25 59q0 27 12 56t32 56t45 49.5t52 37.5q82 45 194 45z" />
<glyph unicode="&#x20b;" horiz-adv-x="554" d="M279 1468q56 0 108 -12.5t95.5 -38t75.5 -64t49 -89.5q4 -11 4.5 -21t1.5 -18q0 -40 -26 -61.5t-61 -21.5t-60 20t-46 53q-25 32 -57.5 46t-83.5 14q-49 0 -80.5 -12.5t-53.5 -41.5q-26 -35 -54 -57t-67 -22q-30 2 -55 23t-25 59q0 27 12 56t32 56t45 49.5t52 37.5 q82 45 194 45zM117 856q0 37 13 66.5t35 49.5t51 30.5t62 10.5q159 0 159 -215v-584q0 -45 -8.5 -84t-27.5 -68t-50 -45.5t-75 -16.5q-81 0 -120 53.5t-39 160.5v642z" />
<glyph unicode="&#x20c;" horiz-adv-x="1612" d="M480 725q0 -248 79 -374.5t247 -126.5q165 0 246 126t81 375q0 120 -19.5 213.5t-59.5 157.5t-101.5 97.5t-146.5 33.5q-84 0 -145.5 -33.5t-101.5 -97.5t-59.5 -157.5t-19.5 -213.5zM91 725q0 165 44.5 305t133.5 241t223 158t314 57q175 0 309 -55t224 -155.5 t136 -240.5t46 -310q0 -167 -45 -307t-135 -240.5t-224 -156.5t-311 -56q-173 0 -306.5 54t-224.5 153.5t-137.5 239.5t-46.5 313zM409 1874q-34 32 -34 72q0 27 13 49.5t33.5 39.5t44.5 26.5t47 9.5q32 0 58.5 -20.5t49.5 -53.5l198 -285q10 -14 16.5 -27.5t8.5 -27.5 q0 -29 -21.5 -48.5t-47.5 -19.5q-15 0 -37 9.5t-37 23.5zM855 1874q-34 28 -34 71q0 24 12 47t31.5 40.5t44 28t49.5 10.5q32 0 60 -21.5t54 -57.5l194 -282q11 -16 16.5 -30t6.5 -32q-3 -23 -21 -41t-45 -18q-20 0 -45 13.5t-45 31.5q-70 61 -139.5 120.5t-138.5 119.5z " />
<glyph unicode="&#x20d;" horiz-adv-x="1258" d="M71 504q0 106 34.5 200.5t104 165.5t174 113t245.5 42q135 0 239 -39t175 -108.5t108 -165t37 -208.5q0 -105 -35 -198.5t-105 -164t-175 -112t-244 -41.5q-137 0 -241.5 39.5t-175 109t-106 164t-35.5 203.5zM404 504q0 -66 12 -125.5t38.5 -104.5t69.5 -71.5t105 -26.5 q57 0 99.5 24t70 67t41.5 103.5t14 133.5q0 66 -12.5 125.5t-39.5 105t-69.5 72t-103.5 26.5t-104 -26t-70 -71t-39 -105t-12 -127zM232 1404q-34 32 -34 72q0 27 13 49.5t33.5 39.5t44.5 26.5t47 9.5q32 0 58.5 -20.5t49.5 -53.5l198 -285q10 -14 16.5 -27.5t8.5 -27.5 q0 -29 -21.5 -48.5t-47.5 -19.5q-15 0 -37 9.5t-37 23.5zM678 1404q-34 28 -34 71q0 24 12 47t31.5 40.5t44 28t49.5 10.5q32 0 60 -21.5t54 -57.5l194 -282q11 -16 16.5 -30t6.5 -32q-3 -23 -21 -41t-45 -18q-20 0 -45 13.5t-45 31.5q-70 61 -139.5 120.5t-138.5 119.5z " />
<glyph unicode="&#x20e;" horiz-adv-x="1612" d="M480 725q0 -248 79 -374.5t247 -126.5q165 0 246 126t81 375q0 120 -19.5 213.5t-59.5 157.5t-101.5 97.5t-146.5 33.5q-84 0 -145.5 -33.5t-101.5 -97.5t-59.5 -157.5t-19.5 -213.5zM91 725q0 165 44.5 305t133.5 241t223 158t314 57q175 0 309 -55t224 -155.5 t136 -240.5t46 -310q0 -167 -45 -307t-135 -240.5t-224 -156.5t-311 -56q-173 0 -306.5 54t-224.5 153.5t-137.5 239.5t-46.5 313zM806 1938q56 0 108 -12.5t95.5 -38t75.5 -64t49 -89.5q4 -11 4.5 -21t1.5 -18q0 -40 -26 -61.5t-61 -21.5t-60 20t-46 53q-25 32 -57.5 46 t-83.5 14q-49 0 -80.5 -12.5t-53.5 -41.5q-26 -35 -54 -57t-67 -22q-30 2 -55 23t-25 59q0 27 12 56t32 56t45 49.5t52 37.5q82 45 194 45z" />
<glyph unicode="&#x20f;" horiz-adv-x="1258" d="M71 504q0 106 34.5 200.5t104 165.5t174 113t245.5 42q135 0 239 -39t175 -108.5t108 -165t37 -208.5q0 -105 -35 -198.5t-105 -164t-175 -112t-244 -41.5q-137 0 -241.5 39.5t-175 109t-106 164t-35.5 203.5zM404 504q0 -66 12 -125.5t38.5 -104.5t69.5 -71.5t105 -26.5 q57 0 99.5 24t70 67t41.5 103.5t14 133.5q0 66 -12.5 125.5t-39.5 105t-69.5 72t-103.5 26.5t-104 -26t-70 -71t-39 -105t-12 -127zM629 1468q56 0 108 -12.5t95.5 -38t75.5 -64t49 -89.5q4 -11 4.5 -21t1.5 -18q0 -40 -26 -61.5t-61 -21.5t-60 20t-46 53q-25 32 -57.5 46 t-83.5 14q-49 0 -80.5 -12.5t-53.5 -41.5q-26 -35 -54 -57t-67 -22q-30 2 -55 23t-25 59q0 27 12 56t32 56t45 49.5t52 37.5q82 45 194 45z" />
<glyph unicode="&#x210;" horiz-adv-x="1464" d="M526 195q0 -41 -14.5 -76.5t-40 -62t-59 -41.5t-72.5 -15t-72.5 15t-58.5 41.5t-39.5 62t-14.5 76.5v1074q0 46 18.5 80.5t49.5 57.5t72.5 34.5t87.5 11.5h401q111 0 213 -14.5t179.5 -54.5t124 -111t46.5 -185q0 -62 -17 -117.5t-55 -100t-99.5 -76t-150.5 -46.5v-4 q64 -8 109.5 -23.5t77.5 -41t52 -61.5t33 -85t21 -111.5t15 -141.5q2 -22 3 -42.5t1 -40.5q0 -43 -8 -79t-28 -62t-55 -40.5t-90 -14.5q-50 0 -83.5 23t-55.5 63t-33.5 92.5t-18.5 112.5q-10 87 -20.5 145.5t-33.5 94.5t-65.5 51t-116.5 15h-203v-403zM680 830q54 0 108 6.5 t97.5 27t70.5 60t27 105.5q0 76 -26 114t-69 57t-99.5 23.5t-117.5 4.5h-151v-398h160zM335 1874q-34 32 -34 72q0 27 13 49.5t33.5 39.5t44.5 26.5t47 9.5q32 0 58.5 -20.5t49.5 -53.5l198 -285q10 -14 16.5 -27.5t8.5 -27.5q0 -29 -21.5 -48.5t-47.5 -19.5q-15 0 -37 9.5 t-37 23.5zM781 1874q-34 28 -34 71q0 24 12 47t31.5 40.5t44 28t49.5 10.5q32 0 60 -21.5t54 -57.5l194 -282q11 -16 16.5 -30t6.5 -32q-3 -23 -21 -41t-45 -18q-20 0 -45 13.5t-45 31.5q-70 61 -139.5 120.5t-138.5 119.5z" />
<glyph unicode="&#x211;" horiz-adv-x="824" d="M436 197q0 -95 -38.5 -146t-127.5 -51q-84 0 -118.5 51t-34.5 146v660q0 37 13.5 65t36 46t51.5 28t61 10q78 0 117.5 -50t39.5 -149q17 101 82 158.5t167 57.5q31 0 55 -10.5t40 -27.5t24 -39t8 -44q0 -64 -44.5 -94.5t-119.5 -35.5q-45 -4 -83.5 -17t-67 -38.5 t-45 -65.5t-16.5 -98v-356zM15 1404q-34 32 -34 72q0 27 13 49.5t33.5 39.5t44.5 26.5t47 9.5q32 0 58.5 -20.5t49.5 -53.5l198 -285q10 -14 16.5 -27.5t8.5 -27.5q0 -29 -21.5 -48.5t-47.5 -19.5q-15 0 -37 9.5t-37 23.5zM461 1404q-34 28 -34 71q0 24 12 47t31.5 40.5 t44 28t49.5 10.5q32 0 60 -21.5t54 -57.5l194 -282q11 -16 16.5 -30t6.5 -32q-3 -23 -21 -41t-45 -18q-20 0 -45 13.5t-45 31.5q-70 61 -139.5 120.5t-138.5 119.5z" />
<glyph unicode="&#x212;" horiz-adv-x="1464" d="M526 195q0 -41 -14.5 -76.5t-40 -62t-59 -41.5t-72.5 -15t-72.5 15t-58.5 41.5t-39.5 62t-14.5 76.5v1074q0 46 18.5 80.5t49.5 57.5t72.5 34.5t87.5 11.5h401q111 0 213 -14.5t179.5 -54.5t124 -111t46.5 -185q0 -62 -17 -117.5t-55 -100t-99.5 -76t-150.5 -46.5v-4 q64 -8 109.5 -23.5t77.5 -41t52 -61.5t33 -85t21 -111.5t15 -141.5q2 -22 3 -42.5t1 -40.5q0 -43 -8 -79t-28 -62t-55 -40.5t-90 -14.5q-50 0 -83.5 23t-55.5 63t-33.5 92.5t-18.5 112.5q-10 87 -20.5 145.5t-33.5 94.5t-65.5 51t-116.5 15h-203v-403zM680 830q54 0 108 6.5 t97.5 27t70.5 60t27 105.5q0 76 -26 114t-69 57t-99.5 23.5t-117.5 4.5h-151v-398h160zM732 1938q56 0 108 -12.5t95.5 -38t75.5 -64t49 -89.5q4 -11 4.5 -21t1.5 -18q0 -40 -26 -61.5t-61 -21.5t-60 20t-46 53q-25 32 -57.5 46t-83.5 14q-49 0 -80.5 -12.5t-53.5 -41.5 q-26 -35 -54 -57t-67 -22q-30 2 -55 23t-25 59q0 27 12 56t32 56t45 49.5t52 37.5q82 45 194 45z" />
<glyph unicode="&#x213;" horiz-adv-x="824" d="M436 197q0 -95 -38.5 -146t-127.5 -51q-84 0 -118.5 51t-34.5 146v660q0 37 13.5 65t36 46t51.5 28t61 10q78 0 117.5 -50t39.5 -149q17 101 82 158.5t167 57.5q31 0 55 -10.5t40 -27.5t24 -39t8 -44q0 -64 -44.5 -94.5t-119.5 -35.5q-45 -4 -83.5 -17t-67 -38.5 t-45 -65.5t-16.5 -98v-356zM412 1468q56 0 108 -12.5t95.5 -38t75.5 -64t49 -89.5q4 -11 4.5 -21t1.5 -18q0 -40 -26 -61.5t-61 -21.5t-60 20t-46 53q-25 32 -57.5 46t-83.5 14q-49 0 -80.5 -12.5t-53.5 -41.5q-26 -35 -54 -57t-67 -22q-30 2 -55 23t-25 59q0 27 12 56 t32 56t45 49.5t52 37.5q82 45 194 45z" />
<glyph unicode="&#x214;" horiz-adv-x="1539" d="M1025 1258q0 41 14.5 76.5t39.5 62t58.5 41.5t72.5 15t72.5 -15t59 -41.5t40 -62t14.5 -76.5v-766q0 -132 -46.5 -230.5t-130 -164.5t-198.5 -99t-252 -33q-135 0 -249.5 32.5t-198 97.5t-130.5 164t-47 233v766q0 41 14.5 76.5t39.5 62t58.5 41.5t72.5 15t72.5 -15 t59 -41.5t40 -62t14.5 -76.5l1 -760q0 -72 22 -124t57.5 -85t81 -49t92.5 -16q48 0 93.5 16t81.5 49t58.5 85t22.5 124v760zM373 1874q-34 32 -34 72q0 27 13 49.5t33.5 39.5t44.5 26.5t47 9.5q32 0 58.5 -20.5t49.5 -53.5l198 -285q10 -14 16.5 -27.5t8.5 -27.5 q0 -29 -21.5 -48.5t-47.5 -19.5q-15 0 -37 9.5t-37 23.5zM819 1874q-34 28 -34 71q0 24 12 47t31.5 40.5t44 28t49.5 10.5q32 0 60 -21.5t54 -57.5l194 -282q11 -16 16.5 -30t6.5 -32q-3 -23 -21 -41t-45 -18q-20 0 -45 13.5t-45 31.5q-70 61 -139.5 120.5t-138.5 119.5z " />
<glyph unicode="&#x215;" horiz-adv-x="1238" d="M436 371q0 -47 12.5 -82t34.5 -58.5t51.5 -35t63.5 -11.5q40 0 77 12t65.5 37t45.5 63t17 89v424q0 95 34.5 146t118.5 51q89 0 127.5 -51t38.5 -146v-612q0 -95 -38.5 -146t-127.5 -51q-84 0 -118.5 51t-34.5 146q-21 -46 -54.5 -84t-78 -65.5t-98 -42.5t-115.5 -15 q-67 0 -128.5 23.5t-108.5 70t-75 115.5t-28 161v449q0 95 34.5 146t118.5 51q89 0 127.5 -51t38.5 -146v-438zM222 1404q-34 32 -34 72q0 27 13 49.5t33.5 39.5t44.5 26.5t47 9.5q32 0 58.5 -20.5t49.5 -53.5l198 -285q10 -14 16.5 -27.5t8.5 -27.5q0 -29 -21.5 -48.5 t-47.5 -19.5q-15 0 -37 9.5t-37 23.5zM668 1404q-34 28 -34 71q0 24 12 47t31.5 40.5t44 28t49.5 10.5q32 0 60 -21.5t54 -57.5l194 -282q11 -16 16.5 -30t6.5 -32q-3 -23 -21 -41t-45 -18q-20 0 -45 13.5t-45 31.5q-70 61 -139.5 120.5t-138.5 119.5z" />
<glyph unicode="&#x216;" horiz-adv-x="1539" d="M1025 1258q0 41 14.5 76.5t39.5 62t58.5 41.5t72.5 15t72.5 -15t59 -41.5t40 -62t14.5 -76.5v-766q0 -132 -46.5 -230.5t-130 -164.5t-198.5 -99t-252 -33q-135 0 -249.5 32.5t-198 97.5t-130.5 164t-47 233v766q0 41 14.5 76.5t39.5 62t58.5 41.5t72.5 15t72.5 -15 t59 -41.5t40 -62t14.5 -76.5l1 -760q0 -72 22 -124t57.5 -85t81 -49t92.5 -16q48 0 93.5 16t81.5 49t58.5 85t22.5 124v760zM769 1938q56 0 108 -12.5t95.5 -38t75.5 -64t49 -89.5q4 -11 4.5 -21t1.5 -18q0 -40 -26 -61.5t-61 -21.5t-60 20t-46 53q-25 32 -57.5 46t-83.5 14 q-49 0 -80.5 -12.5t-53.5 -41.5q-26 -35 -54 -57t-67 -22q-30 2 -55 23t-25 59q0 27 12 56t32 56t45 49.5t52 37.5q82 45 194 45z" />
<glyph unicode="&#x217;" horiz-adv-x="1238" d="M436 371q0 -47 12.5 -82t34.5 -58.5t51.5 -35t63.5 -11.5q40 0 77 12t65.5 37t45.5 63t17 89v424q0 95 34.5 146t118.5 51q89 0 127.5 -51t38.5 -146v-612q0 -95 -38.5 -146t-127.5 -51q-84 0 -118.5 51t-34.5 146q-21 -46 -54.5 -84t-78 -65.5t-98 -42.5t-115.5 -15 q-67 0 -128.5 23.5t-108.5 70t-75 115.5t-28 161v449q0 95 34.5 146t118.5 51q89 0 127.5 -51t38.5 -146v-438zM619 1468q56 0 108 -12.5t95.5 -38t75.5 -64t49 -89.5q4 -11 4.5 -21t1.5 -18q0 -40 -26 -61.5t-61 -21.5t-60 20t-46 53q-25 32 -57.5 46t-83.5 14 q-49 0 -80.5 -12.5t-53.5 -41.5q-26 -35 -54 -57t-67 -22q-30 2 -55 23t-25 59q0 27 12 56t32 56t45 49.5t52 37.5q82 45 194 45z" />
<glyph unicode="&#x218;" horiz-adv-x="1371" d="M461 1073q0 -48 32 -81t83.5 -57t116.5 -42t131 -37q106 -32 192.5 -68t148 -86t95 -118.5t33.5 -164.5q0 -105 -41.5 -189t-119.5 -143t-188.5 -90.5t-248.5 -31.5q-71 0 -143 8.5t-139 24.5t-126 39t-103 52t-69 63.5t-25 73.5q0 25 10.5 49t27 43.5t37 31.5t40.5 12 q18 0 35 -6t34.5 -14.5t36 -18.5t39.5 -18q69 -31 155 -56t180 -25q51 0 96.5 9.5t80 29t54.5 50.5t20 75q0 33 -12 59t-33 45.5t-49 34t-59 25.5l-45 16q-13 4 -25 8.5t-26 8.5l-52 15q-17 4 -29 7.5t-21.5 7t-18.5 7t-21 7.5l-94 33q-91 33 -156 69t-106 81t-60.5 102.5 t-19.5 133.5q0 100 41.5 181t119 138t188 88t248.5 31q50 0 109 -6.5t118 -19.5t113.5 -33.5t96.5 -48t67.5 -62.5t25.5 -78q0 -25 -9.5 -46t-25.5 -36t-37.5 -23.5t-44.5 -8.5q-30 0 -55 13q-47 24 -87.5 41t-80.5 28t-82.5 16t-93.5 5q-48 0 -94.5 -8.5t-83 -27t-59 -47.5 t-22.5 -71zM695 -723h-273l116 521h330z" />
<glyph unicode="&#x219;" horiz-adv-x="1071" d="M371 738q0 -39 34 -60.5t94 -35.5q57 -13 117 -25t117 -27.5t107 -36.5t88 -52.5t60 -76t22 -106.5q0 -78 -32 -138.5t-90.5 -102.5t-139.5 -65t-179 -24q-93 0 -179 11.5t-152.5 35.5t-106.5 59.5t-40 83.5q0 42 27 65t69 23q16 0 38 -6t48 -15t55.5 -19.5t61.5 -18.5 q40 -11 82.5 -17.5t87.5 -6.5q28 0 55 5.5t48.5 17t35.5 29.5t17 44q3 6 5 12t2 14q0 28 -25.5 50t-71.5 35q-77 18 -147 33t-129.5 32t-108 39t-82 54t-52 77t-18.5 109q0 69 31.5 123.5t90.5 91.5t143 56.5t190 19.5q190 0 289.5 -45.5t99.5 -118.5q0 -41 -27 -62.5 t-65 -21.5q-20 0 -41.5 7.5t-51.5 17t-71.5 17t-102.5 7.5q-46 0 -83.5 -4t-64 -14t-41 -27t-14.5 -43zM580 -723h-273l116 521h330z" />
<glyph unicode="&#x21a;" horiz-adv-x="1238" d="M161 1188q-29 0 -55 10.5t-45.5 28.5t-31 42t-11.5 51t11.5 51.5t31 42.5t45.5 28.5t55 10.5h913q29 0 55 -10.5t45.5 -28.5t31 -42.5t11.5 -51.5t-11.5 -51t-31 -42t-45.5 -28.5t-55 -10.5h-268v-993q0 -41 -14.5 -76.5t-40 -62t-59 -41.5t-72.5 -15t-72.5 15 t-58.5 41.5t-39.5 62t-14.5 76.5v993h-274zM669 -723h-273l116 521h330z" />
<glyph unicode="&#x21b;" horiz-adv-x="785" d="M212 1010l22 207q3 30 10.5 60t24 55t44.5 40.5t73 15.5q66 0 95.5 -46t29.5 -137v-195h112q51 0 83 -25.5t32 -80.5q0 -51 -34 -76.5t-92 -25.5h-101v-378q0 -60 2 -102t13 -68.5t33 -38t63 -11.5q29 0 56.5 -2.5t48.5 -12.5t33.5 -29.5t12.5 -53.5q0 -38 -19 -61 t-54.5 -35.5t-85 -17t-110.5 -4.5q-70 1 -127.5 21t-99 63.5t-64 113t-22.5 170.5v446h-46q-54 0 -90 25.5t-36 82.5q0 45 28.5 72.5t86.5 27.5h78zM443 -723h-273l116 521h330z" />
<glyph unicode="&#x2c6;" horiz-adv-x="569" d="M161 1526q26 31 57 48t65 17q30 -1 62 -16t58 -49l169 -216q18 -23 32.5 -48.5t14.5 -47.5q0 -32 -24.5 -52.5t-57.5 -20.5q-31 0 -61 17.5t-60 58.5q-33 45 -66.5 89.5t-66.5 89.5q-32 -42 -64.5 -87.5t-65 -83.5t-65 -62.5t-64.5 -24.5q-16 0 -31 5t-27 14.5t-19 22.5 t-7 30q-1 17 11 41.5t31 47.5z" />
<glyph unicode="&#x2c7;" horiz-adv-x="569" d="M-33 1433q-15 17 -21.5 33t-6.5 33q0 34 26 55t62 21q62 0 122 -79l134 -179q32 42 63.5 83.5t62.5 85.5q28 38 59 62t65 24q38 0 61.5 -22t23.5 -58q0 -22 -15 -46t-32 -45l-153 -193q-32 -41 -64 -63.5t-70 -22.5q-35 0 -66.5 17t-56.5 49z" />
<glyph unicode="&#x2c9;" horiz-adv-x="569" />
<glyph unicode="&#x2d8;" horiz-adv-x="569" d="M285 1181q-106 0 -186 41.5t-124 123.5q-11 20 -18 39.5t-7 41.5q0 19 7.5 34t20.5 25.5t29.5 15.5t33.5 5q32 0 56.5 -20t46.5 -51q24 -35 56.5 -48.5t84.5 -13.5q48 0 80.5 12t55.5 44q21 29 46.5 53t60.5 24q37 0 64 -22t27 -64q0 -28 -12 -56.5t-31.5 -54t-44 -47 t-48.5 -34.5q-42 -24 -91.5 -36.5t-106.5 -11.5z" />
<glyph unicode="&#x2d9;" horiz-adv-x="649" d="M116 1331q0 33 12.5 62.5t35 52t53 35.5t67.5 13q32 0 62.5 -11.5t54.5 -32.5t38.5 -51.5t14.5 -67.5q0 -34 -13 -64t-35.5 -52.5t-54 -35.5t-67.5 -13q-35 0 -65.5 12.5t-53.5 34.5t-36 52t-13 66z" />
<glyph unicode="&#x2da;" horiz-adv-x="569" d="M58 1339q0 45 17.5 85.5t48.5 71t72.5 48.5t88.5 18q44 0 85 -17.5t72.5 -47.5t50 -70.5t18.5 -87.5q0 -46 -18 -87t-49 -71.5t-72 -48t-87 -17.5q-45 0 -86 17.5t-72.5 47.5t-50 71t-18.5 88zM384 1339q0 19 -8 36.5t-21.5 31t-31.5 21.5t-38 8t-38 -8t-31.5 -21 t-21.5 -31t-8 -37q0 -20 8 -37.5t21.5 -30.5t31.5 -21t38 -8q19 0 37 8t31.5 21t22 30.5t8.5 37.5z" />
<glyph unicode="&#x2db;" horiz-adv-x="569" />
<glyph unicode="&#x2dc;" horiz-adv-x="569" d="M427 1313q19 0 28 14t18.5 32t24 35.5t46.5 25.5q5 1 15 1q29 0 51.5 -18.5t22.5 -49.5q0 -53 -16 -94t-43 -69t-63.5 -42.5t-77.5 -14.5q-45 0 -86 16.5t-77.5 37t-68.5 37t-58 16.5t-42 -19.5t-29 -43.5q-14 -26 -34.5 -35.5t-43.5 -9.5q-29 0 -50 17t-21 49q0 6 1 10 q11 99 61 155t142 56q48 0 91 -16.5t80.5 -36.5t70 -36.5t58.5 -16.5z" />
<glyph unicode="&#x2dd;" horiz-adv-x="569" d="M456 1139q-15 -13 -26 -17t-28 -4q-32 0 -51 20.5t-19 50.5q0 14 6.5 25.5t15.5 25.5q49 72 99.5 144.5t101.5 145.5q20 32 48 51.5t58 19.5q25 0 49.5 -10.5t44.5 -28t32.5 -40t12.5 -47.5q0 -23 -12.5 -43t-37.5 -41zM9 1139q-14 -12 -27 -16t-26 -4t-26 4.5t-23 13 t-16.5 20.5t-6.5 27t7.5 28.5t17.5 27.5l198 288q23 34 50.5 53.5t57.5 19.5q25 0 50 -10.5t44.5 -27.5t31.5 -39.5t12 -47.5q0 -27 -13.5 -46t-36.5 -39z" />
<glyph unicode="&#x30f;" horiz-adv-x="569" d="M-96 1404q-34 32 -34 72q0 27 13 49.5t33.5 39.5t44.5 26.5t47 9.5q32 0 58.5 -20.5t49.5 -53.5l198 -285q10 -14 16.5 -27.5t8.5 -27.5q0 -29 -21.5 -48.5t-47.5 -19.5q-15 0 -37 9.5t-37 23.5zM350 1404q-34 28 -34 71q0 24 12 47t31.5 40.5t44 28t49.5 10.5 q32 0 60 -21.5t54 -57.5l194 -282q11 -16 16.5 -30t6.5 -32q-3 -23 -21 -41t-45 -18q-20 0 -45 13.5t-45 31.5q-70 61 -139.5 120.5t-138.5 119.5z" />
<glyph unicode="&#x311;" horiz-adv-x="569" d="M285 1468q56 0 108 -12.5t95.5 -38t75.5 -64t49 -89.5q4 -11 4.5 -21t1.5 -18q0 -40 -26 -61.5t-61 -21.5t-60 20t-46 53q-25 32 -57.5 46t-83.5 14q-49 0 -80.5 -12.5t-53.5 -41.5q-26 -35 -54 -57t-67 -22q-30 2 -55 23t-25 59q0 27 12 56t32 56t45 49.5t52 37.5 q82 45 194 45z" />
<glyph unicode="&#x326;" horiz-adv-x="649" d="M341 -723h-273l116 521h330z" />
<glyph unicode="&#x3a9;" horiz-adv-x="1663" />
<glyph unicode="&#x3bc;" horiz-adv-x="1139" />
<glyph unicode="&#x3c0;" horiz-adv-x="1383" d="M1141 864v-229q0 -10 -0.5 -20.5t0.5 -24.5l5 -137q2 -54 6.5 -105.5t9.5 -95t8.5 -77t3.5 -51.5q0 -63 -39.5 -95.5t-96.5 -32.5q-59 0 -96 29t-58 89.5t-29 153.5t-8 221v375h-275q-3 -85 -12 -175.5t-22.5 -179t-31 -172t-38.5 -155.5q-26 -86 -79 -136.5t-119 -50.5 q-25 0 -47 5.5t-38 18t-25 32.5t-9 50q0 5 0.5 9.5t1.5 9.5q13 51 33.5 113t34.5 120q31 125 50 252t19 259h-73q-57 0 -95.5 29.5t-38.5 91.5q0 22 7.5 42.5t22.5 36.5t37 25t51 9h1009q24 0 45.5 -5.5t38 -19t26 -35t9.5 -52.5q0 -60 -33 -91t-87 -31h-68z" />
<glyph unicode="&#x2013;" horiz-adv-x="1024" d="M112 417q-26 0 -46.5 9.5t-34.5 26t-22 38t-8 46.5q0 61 39 90t111 29h721q28 0 55 -5t48 -18t33.5 -36.5t12.5 -60.5q0 -59 -36 -89t-113 -30h-760z" />
<glyph unicode="&#x2014;" horiz-adv-x="2048" d="M108 417q-27 0 -47.5 10t-34 27t-20 38.5t-6.5 44.5q0 36 14.5 59t39.5 36.5t58 18.5t71 5h1718q65 0 105 -26.5t40 -92.5q0 -37 -14.5 -60.5t-39.5 -36.5t-58.5 -18t-70.5 -5h-1755z" />
<glyph unicode="&#x2018;" horiz-adv-x="649" d="M271 1451h273l-117 -521h-328z" />
<glyph unicode="&#x2019;" horiz-adv-x="649" d="M379 930h-273l117 521h329z" />
<glyph unicode="&#x201a;" horiz-adv-x="649" d="M379 -220h-273l117 521h329z" />
<glyph unicode="&#x201c;" horiz-adv-x="1178" d="M292 1451h273l-116 -521h-329zM772 1451h273l-116 -521h-329z" />
<glyph unicode="&#x201d;" horiz-adv-x="1178" d="M882 930h-273l116 521h330zM404 930h-273l117 521h329z" />
<glyph unicode="&#x201e;" horiz-adv-x="1178" d="M409 -220h-273l116 521h329zM883 -220h-302l145 521h329z" />
<glyph unicode="&#x2020;" d="M790 916v-706q0 -42 -6.5 -79.5t-22.5 -66t-43.5 -45t-68.5 -16.5q-67 0 -103.5 43.5t-36.5 128.5v741h-194q-29 0 -55.5 5.5t-46.5 19t-32 35.5t-12 54q0 56 36 86.5t110 30.5h194v126q0 40 6 76.5t22 64.5t43 45t69 17q66 0 103.5 -44t37.5 -126v-159h191q28 0 55 -5.5 t47.5 -19t33 -35t12.5 -54.5q0 -61 -39.5 -89t-108.5 -28h-191z" />
<glyph unicode="&#x2021;" d="M784 297v-99q0 -39 -6.5 -74.5t-22 -62.5t-41.5 -43t-65 -16q-70 0 -102.5 47t-32.5 135v113h-189q-30 0 -58.5 4.5t-50 16.5t-34.5 33t-13 54q0 54 36.5 82.5t105.5 28.5h203v444h-203q-28 0 -54 5t-45.5 17.5t-31 33.5t-11.5 52q0 54 36.5 82.5t105.5 28.5h203v99 q0 37 5.5 72.5t20 63.5t41 45t68.5 17q69 0 102 -47.5t33 -135.5v-114h202q28 0 53.5 -5.5t45.5 -18t32 -33t12 -51.5q0 -55 -38 -83t-105 -28h-202v-444h202q28 0 53.5 -5.5t45.5 -18t32 -33t12 -51.5q0 -55 -38 -83t-105 -28h-202z" />
<glyph unicode="&#x2022;" horiz-adv-x="1024" d="M882 723q0 -75 -29.5 -140.5t-80 -114.5t-118 -77.5t-143.5 -28.5q-75 0 -142 28t-117.5 76.5t-80 114.5t-29.5 142q0 71 27.5 137t76.5 116.5t116.5 80.5t148.5 30q74 0 141.5 -28t118.5 -76.5t81 -115t30 -144.5z" />
<glyph unicode="&#x2026;" horiz-adv-x="1948" d="M155 158q0 33 12.5 62.5t35 52t53.5 36t68 13.5q33 0 63.5 -12t54 -33.5t37.5 -51.5t14 -67q0 -33 -13 -63t-35.5 -52.5t-53.5 -35.5t-67 -13q-35 0 -65.5 12.5t-53.5 34.5t-36.5 52t-13.5 65zM804 158q0 33 12.5 62.5t35 52t53.5 36t68 13.5q32 0 62.5 -11.5t54.5 -32.5 t38.5 -51.5t14.5 -68.5q0 -33 -13 -63t-35.5 -52.5t-53.5 -35.5t-68 -13q-35 0 -65.5 12.5t-53.5 34.5t-36.5 52t-13.5 65zM1454 158q0 33 12.5 62.5t35 52t53.5 36t68 13.5q33 0 63.5 -12t54 -33.5t37.5 -51.5t14 -67q0 -33 -13 -63t-35.5 -52.5t-53.5 -35.5t-67 -13 t-67 12.5t-53.5 34.5t-35.5 52t-13 65z" />
<glyph unicode="&#x2030;" horiz-adv-x="2344" d="M364 1301q-40 0 -66.5 -18.5t-42.5 -52.5t-22.5 -82t-6.5 -108q0 -63 7 -111.5t23 -82t42.5 -51t65.5 -17.5q33 0 59 14.5t43 46t26 81t9 120.5q0 61 -7 109.5t-22.5 82t-42 51.5t-65.5 18zM1091 1436q14 25 31 35.5t37 10.5q29 0 51.5 -21t22.5 -52q0 -20 -12.5 -46.5 t-25.5 -49.5q-177 -322 -350 -641t-350 -642q-9 -16 -19 -32.5t-21.5 -29.5t-24 -21.5t-27.5 -8.5t-29.5 6.5t-25 17t-17 24t-6.5 27.5q0 17 13 42t24 45zM372 1457q75 0 135.5 -29.5t103.5 -83t66.5 -128.5t23.5 -167q0 -91 -20 -169t-62.5 -135.5t-107.5 -90t-155 -32.5 q-74 0 -134.5 28.5t-104 81.5t-67.5 128.5t-24 170.5q0 90 20.5 168t63 135.5t107.5 90t155 32.5zM1971 801q76 0 137 -30t103.5 -84t65.5 -129t23 -166t-20.5 -169t-63.5 -135.5t-108 -90t-153 -32.5q-72 0 -133 28t-104.5 80.5t-68 128.5t-24.5 172q0 91 20.5 169 t63 135.5t107.5 90t155 32.5zM1962 644q-70 0 -103.5 -62.5t-33.5 -198.5q0 -61 6.5 -109.5t22.5 -82t42.5 -51.5t65.5 -18q69 0 103.5 60.5t34.5 200.5q0 61 -7 109.5t-23 82t-42.5 51.5t-65.5 18zM1217 801q74 0 134.5 -28.5t104 -82t67.5 -129t24 -169.5 q0 -91 -20.5 -169t-63 -135.5t-108 -90t-154.5 -32.5q-74 0 -135 28.5t-104 82t-66.5 129t-23.5 169.5q0 91 20.5 169t63 135.5t107.5 90t154 32.5zM1209 644q-39 0 -65.5 -18t-42 -52t-22.5 -82t-7 -109q0 -62 6.5 -110t22 -82t42 -51.5t66.5 -17.5q70 0 103.5 61.5 t33.5 199.5q0 125 -30.5 193t-106.5 68z" />
<glyph unicode="&#x2039;" horiz-adv-x="649" d="M322 972q27 44 58.5 62t66.5 18q22 0 42 -7.5t35.5 -21.5t25 -33t9.5 -41q0 -17 -7 -37t-15 -37l-155 -346l163 -364q6 -14 11 -28.5t5 -29.5q0 -24 -10 -42.5t-26.5 -32t-38.5 -20.5t-45 -7q-41 0 -72.5 28.5t-63.5 81.5l-242 414z" />
<glyph unicode="&#x203a;" horiz-adv-x="649" d="M590 529l-240 -411q-32 -55 -65 -84t-74 -29q-24 0 -45.5 7t-37.5 20t-25.5 32.5t-9.5 44.5q0 17 7.5 36t15.5 37l155 347l-155 346q-8 18 -15.5 36.5t-7.5 35.5q0 45 31 74.5t83 29.5q42 0 76 -27.5t67 -84.5z" />
<glyph unicode="&#x2044;" horiz-adv-x="669" d="M199 13q-13 -38 -39.5 -53t-54.5 -15q-18 0 -36.5 6t-34 18t-25 29t-9.5 40q0 20 9 46t17 51l423 1260q8 25 18.5 47.5t24 40t31.5 28t41 10.5q21 0 39.5 -6t33 -18t23 -30.5t8.5 -42.5q0 -20 -8.5 -45.5t-16.5 -48.5z" />
<glyph unicode="&#x2074;" horiz-adv-x="783" d="M320 1342q17 33 34.5 55t37.5 36t43 20t52 6q69 0 93 -52t24 -148v-346h39q32 0 54.5 -13.5t22.5 -43.5q0 -23 -17 -40t-49 -17h-50v-58q0 -24 -4 -45.5t-14 -37t-25.5 -25t-37.5 -9.5q-47 0 -64 37t-17 94v44h-281q-23 0 -43.5 2.5t-36.5 9.5t-25 19.5t-9 33.5 q0 25 14 46zM213 909h229v402z" />
<glyph unicode="&#x20ac;" horiz-adv-x="1464" d="M137 810h-54q-33 0 -49 21t-16 46q0 24 15.5 45t49.5 21h72q26 128 87 225.5t149 163t200 99t240 33.5l39 -2q77 -4 150 -20.5t145 -39.5q42 -19 62 -52t20 -72q0 -28 -10 -50t-27 -37.5t-39.5 -24t-48.5 -8.5q-28 0 -61 5t-67.5 11.5t-68.5 11.5t-64 5q-63 0 -114 -18.5 t-89.5 -51.5t-65 -78.5t-42.5 -99.5h356q24 0 48.5 -1.5t43.5 -8t31 -19.5t12 -36q0 -27 -16.5 -47.5t-48.5 -20.5h-451q-3 -23 -4 -44.5t-1 -43.5q0 -25 1 -49.5t4 -49.5h370q25 0 50 -1.5t44 -8t31 -20t12 -36.5q0 -26 -16.5 -46.5t-48.5 -20.5h-414q17 -53 44.5 -97 t66.5 -76t90 -49.5t114 -17.5q51 0 106 11.5t112 21.5q9 2 18.5 2h18.5q58 0 90 -34.5t32 -89.5q0 -51 -33 -82t-90 -48q-81 -26 -167.5 -38.5t-173.5 -12.5q-116 3 -217.5 36.5t-182.5 98t-138 158.5t-84 217h-84q-34 0 -50 20.5t-16 46.5q0 24 16 45t50 21h63 q-3 24 -3.5 48.5t-0.5 53.5q0 38 3 85z" />
<glyph unicode="&#x2113;" horiz-adv-x="979" />
<glyph unicode="&#x2122;" horiz-adv-x="1990" d="M1045 1186v-405q0 -29 -4.5 -53.5t-15.5 -43t-29 -29t-45 -10.5q-51 0 -72.5 34t-21.5 100v443q0 36 5.5 71.5t21.5 64t45.5 46.5t77.5 18q55 0 94 -39.5t67 -105.5l158 -388l158 388q11 28 26 54.5t35.5 46t45.5 31.5t57 12q67 0 106.5 -44t39.5 -135v-463 q0 -27 -4.5 -51.5t-15.5 -43t-29.5 -29t-45.5 -10.5q-52 0 -72.5 36t-20.5 100v405l-172 -427q-9 -22 -19 -41.5t-23 -34t-29.5 -23t-38.5 -8.5q-38 0 -60 23.5t-39 65.5q-45 112 -90 222.5t-90 222.5zM291 1282h-116q-23 0 -42 3.5t-33.5 11.5t-22.5 22t-8 34q0 26 19 48 t58 22h457q20 0 39 -2.5t34 -10t24.5 -21.5t9.5 -37q0 -38 -28.5 -54t-75.5 -16h-115v-507q0 -27 -5.5 -50.5t-17.5 -41t-31 -27.5t-46 -10q-100 0 -100 129v507z" />
<glyph unicode="&#x2126;" horiz-adv-x="1483" />
<glyph unicode="&#x212e;" horiz-adv-x="1782" />
<glyph unicode="&#x2202;" horiz-adv-x="1312" d="M226 1339q-19 -8 -37 -8q-23 0 -42.5 10.5t-33.5 27t-22 38t-8 42.5q0 27 12 48t38 39.5t67.5 35t101.5 33.5q57 17 122 27.5t142 10.5q139 0 257.5 -52t205.5 -154.5t136 -254t49 -349.5q0 -191 -44.5 -349.5t-127 -272t-200 -176t-264.5 -62.5q-88 0 -159.5 22 t-127 59.5t-96.5 87.5t-67.5 105.5t-39.5 113.5t-13 113q0 120 35 220.5t100 173t156.5 113t204.5 40.5q70 0 129 -23.5t104.5 -54.5t75 -61.5t40.5 -43.5q0 8 1 24.5t1 30.5q0 108 -22.5 202t-68.5 164t-116 110.5t-165 40.5q-97 0 -178 -22.5t-146 -48.5zM607 202 q61 0 110.5 37.5t85.5 96.5t58 131t30 142q-8 27 -29 60t-53.5 61.5t-75.5 48t-96 19.5q-59 0 -107.5 -26.5t-83.5 -71.5t-54.5 -104.5t-19.5 -125.5q0 -56 16.5 -105t47 -85t73.5 -57t96 -21h2z" />
<glyph unicode="&#x2206;" horiz-adv-x="1351" d="M1247 183h-1141l436 1266q10 28 21.5 53.5t27.5 44t37.5 29.5t51.5 11q26 0 46 -11t36 -29.5t28 -44t23 -53.5zM677 1285h-7l-314 -951h637z" />
<glyph unicode="&#x220f;" horiz-adv-x="1630" d="M1348 1212q0 -302 -0.5 -599.5t-0.5 -599.5q0 -43 -7 -81.5t-24 -67.5t-45 -46t-70 -17q-41 0 -68.5 15t-45 42.5t-25 66.5t-7.5 88v1199h-483v-1128q0 -51 -5 -102t-21 -91t-44.5 -65t-74.5 -25q-41 0 -68.5 15t-45 42.5t-25 66.5t-7.5 88v1199h-82q-72 0 -111 30.5 t-39 93.5q0 60 39 93t118 33h1186q34 0 67.5 -4.5t60 -18t43 -38t16.5 -64.5q0 -59 -36 -92t-110 -33h-85z" />
<glyph unicode="&#x2211;" horiz-adv-x="1283" d="M143 -202q-61 0 -88.5 25t-27.5 55q0 16 6 34.5t16 36.5t22.5 36t24.5 33q125 153 247.5 304t247.5 303l-471 594q-14 16 -26.5 35.5t-22 39.5t-15.5 39.5t-6 36.5q0 47 36 69.5t117 22.5h966q67 0 105.5 -28.5t38.5 -92.5q0 -66 -47.5 -93t-128.5 -27h-655v-8l447 -552 l-492 -601v-9h741q34 0 66.5 -5t57.5 -19t40 -39t15 -64q0 -59 -35 -92.5t-110 -33.5h-1069z" />
<glyph unicode="&#x2212;" horiz-adv-x="839" d="M166 417q-54 0 -86.5 34.5t-32.5 85.5q0 58 38.5 88.5t107.5 30.5h448q25 0 51 -5.5t47 -19t34 -37t13 -58.5q0 -58 -39 -88.5t-106 -30.5h-475z" />
<glyph unicode="&#x2215;" horiz-adv-x="342" />
<glyph unicode="&#x2219;" horiz-adv-x="569" />
<glyph unicode="&#x221a;" horiz-adv-x="1352" />
<glyph unicode="&#x221e;" horiz-adv-x="1680" d="M1578 606q0 -89 -30 -158.5t-78.5 -117t-111.5 -72.5t-129 -25q-46 0 -92.5 11.5t-94.5 39t-98 74t-104 116.5q-42 -50 -84.5 -94t-90.5 -76.5t-102.5 -51.5t-119.5 -19q-69 0 -131 26.5t-109 74t-75 114t-28 146.5q0 81 27.5 148.5t75.5 117t114.5 77t144.5 27.5 q60 0 112 -17t99.5 -48t91.5 -74.5t87 -96.5q32 36 69 77.5t82.5 76.5t102.5 58.5t129 23.5t134.5 -25t109 -71.5t73 -112t26.5 -146.5v-3zM465 386q45 0 85 18.5t75.5 48t67.5 65t62 70.5q-30 41 -60.5 81.5t-66 72.5t-77.5 52t-96 20q-44 0 -80 -16t-61.5 -45t-39.5 -69.5 t-14 -88.5q0 -40 14 -77.5t40 -67t63.5 -47t84.5 -17.5h3zM1222 814q-49 0 -92 -23t-79.5 -56t-67 -69.5t-54.5 -63.5q46 -59 84.5 -100t74 -66.5t71 -37.5t74.5 -12q41 0 75 17.5t58.5 47t38 67t13.5 77.5q0 42 -12.5 81.5t-37 70t-60.5 49t-82 18.5h-4z" />
<glyph unicode="&#x222b;" horiz-adv-x="853" d="M689 1811q37 0 64 -8t45 -21.5t27 -31.5t9 -37q0 -26 -10.5 -43.5t-30 -28.5t-47 -17.5t-60.5 -10.5q-43 -6 -71.5 -32t-45.5 -75t-24 -122t-7 -173q0 -129 5.5 -251t11.5 -243.5t11.5 -246.5t5.5 -262q0 -117 -14 -205t-40 -151.5t-61.5 -105t-79 -66t-93 -34 t-102.5 -9.5q-74 5 -108.5 36.5t-34.5 70.5q0 43 32.5 71t87.5 28q40 0 71.5 16.5t53 58t33 112.5t11.5 180q0 139 -5.5 267t-12.5 252.5t-12.5 250t-5.5 260.5q0 293 101.5 432t295.5 139z" />
<glyph unicode="&#x2248;" horiz-adv-x="1236" />
<glyph unicode="&#x2260;" horiz-adv-x="1196" d="M206 698q-50 0 -75.5 29.5t-25.5 71.5q0 50 32 76t98 26h386q21 53 42 104.5t42 104.5q19 50 45.5 71.5t71.5 21.5q37 -3 64.5 -28.5t27.5 -63.5q-1 -17 -5.5 -35.5t-12.5 -37.5l-57 -137h160q24 0 47.5 -4.5t42 -16t30 -31.5t11.5 -51q0 -51 -33.5 -75.5t-96.5 -24.5 h-237l-98 -241h334q24 0 47.5 -4.5t42 -16t30 -31t11.5 -50.5q0 -102 -130 -102h-412l-83 -204q-18 -45 -46.5 -69t-64.5 -24q-42 0 -70 27t-28 69q1 14 6 32.5t13 37.5l55 131h-135q-25 0 -48 4.5t-41 16t-29 31.5t-11 50q0 49 31 75.5t97 26.5h212l99 241h-339z" />
<glyph unicode="&#x2264;" horiz-adv-x="1236" d="M155 673q-43 18 -64.5 48.5t-21.5 66.5q0 45 28 74t84 53l766 315q20 8 44.5 17t41.5 9q19 0 36 -7.5t30 -21t20.5 -31t7.5 -36.5t-8.5 -34t-23 -27t-34 -22t-41.5 -19l-668 -271l669 -279q43 -18 74.5 -41.5t31.5 -60.5q0 -19 -7 -36t-19 -30t-29 -21t-37 -8 q-18 0 -41.5 9t-43.5 17zM173 -10q-21 0 -36.5 8t-25.5 20.5t-14.5 28t-4.5 30.5q0 46 30 66t87 20h790q21 0 39 -4.5t32 -14.5t22 -27t8 -41q0 -48 -32.5 -67t-86.5 -19h-808z" />
<glyph unicode="&#x2265;" horiz-adv-x="1236" d="M232 322q-11 -3 -20.5 -4t-17.5 -1q-20 0 -37 8t-29 21t-19 30.5t-7 36.5q0 37 31.5 60.5t78.5 42.5q168 68 332 134t332 135q-168 69 -334 139t-334 140q-21 9 -40.5 18.5t-34.5 21.5t-23.5 27t-8.5 35q0 17 6.5 34t18.5 30.5t28.5 22t37.5 8.5q19 0 42.5 -9t45.5 -18 l769 -323q50 -21 80.5 -51t30.5 -76q0 -43 -28 -73t-84 -53zM201 -10q-21 0 -36.5 8t-25.5 20.5t-14.5 28t-4.5 30.5q0 46 30 66t87 20h790q21 0 39 -4.5t32 -14.5t22 -27t8 -41q0 -50 -33 -68t-86 -18h-808z" />
<glyph unicode="&#x25ca;" horiz-adv-x="1351" d="M787 -34q-22 -38 -53.5 -56.5t-63.5 -18.5q-25 0 -46.5 13.5t-40.5 35t-35.5 48.5t-31.5 54l-387 687q103 186 206 368t206 368q29 53 60.5 84t75.5 31q25 0 47 -13.5t41.5 -35t37 -49.5t33.5 -56q97 -175 193.5 -348.5t194.5 -348.5zM677 1285h-7l-307 -549l310 -554h7 l306 541z" />
<glyph unicode="&#x25fc;" horiz-adv-x="1004" d="M0 1005h1005v-1005h-1005v1005z" />
<glyph unicode="&#xf8ff;" horiz-adv-x="0" />
<glyph unicode="&#xfb01;" horiz-adv-x="1296" d="M859 819h-362v-605q0 -44 -8.5 -83t-27.5 -68t-49.5 -45.5t-74.5 -16.5q-82 0 -120.5 53.5t-38.5 159.5v605h-46q-64 0 -101 22t-37 73q0 41 29 68t92 27h63v47q0 105 18 182.5t58.5 128.5t106 76t159.5 25q42 0 85.5 -3t78.5 -15t57 -36t22 -67q0 -30 -11 -49 t-30.5 -30.5t-45 -15.5t-54.5 -4q-41 0 -66 -7.5t-38 -30t-17 -64.5t-4 -110v-27h480q43 0 80 -6.5t64 -29t42.5 -65t15.5 -114.5v-560q0 -47 -5.5 -88.5t-22 -73.5t-47.5 -50.5t-82 -18.5q-86 0 -124.5 56t-38.5 174v586zM1192 1330q0 -33 -15 -58.5t-39 -42.5t-55.5 -25.5 t-64.5 -8.5q-35 0 -66.5 9t-55.5 26.5t-38 42.5t-14 57q0 29 13.5 53.5t36.5 42.5t55 28t70 10q33 0 64.5 -9t55.5 -26t38.5 -42t14.5 -57z" />
<glyph unicode="&#xfb02;" horiz-adv-x="1296" d="M497 819v-605q0 -44 -8.5 -83t-27.5 -68t-49.5 -45.5t-74.5 -16.5q-76 0 -117.5 48.5t-41.5 145.5v624h-46q-64 0 -101 22t-37 73q0 41 29 68t92 27h63v65q0 103 26.5 176.5t72 120t105.5 68.5t127 22q64 0 117.5 -11.5t94 -29.5t68 -40t39.5 -42q14 53 56 82.5t98 29.5 q74 0 116.5 -48t42.5 -146v-1023q0 -45 -4.5 -86.5t-21 -73.5t-47.5 -51t-83 -19q-85 0 -124.5 56t-39.5 173v1050h-197q-38 0 -62.5 -11.5t-39 -38.5t-20 -71t-5.5 -109v-43h70q60 0 98.5 -22t38.5 -73q0 -52 -41 -73.5t-112 -21.5h-54z" />
<glyph horiz-adv-x="0" />
</font>
</defs>
</svg>
