<?xml version="1.0" standalone="no"?>
<!DOCTYPE svg PUBLIC "-//W3C//DTD SVG 1.1//EN" "http://www.w3.org/Graphics/SVG/1.1/DTD/svg11.dtd" >
<svg xmlns="http://www.w3.org/2000/svg">
<metadata></metadata>
<defs>
<font id="playfair_displayblack_italic" horiz-adv-x="1305" >
<font-face units-per-em="2048" ascent="1638" descent="-410" />
<missing-glyph horiz-adv-x="526" />
<glyph unicode="fi" horiz-adv-x="1268" d="M392 1327q75 106 186 168q108 60 231.5 83.5t292.5 23.5q109 0 170 -30q78 -34 78 -110q0 -63 -33.5 -111.5t-91 -75t-127.5 -26.5q-89 0 -134.5 34.5t-45.5 100.5q0 128 102 178q-106 -12 -174 -57q-61 -39 -102.5 -110t-73.5 -185l-40 -149h236q213 3 371 31l-264 -918 q-9 -27 -9 -50q0 -36 33 -36q61 0 109 129l43 115h39l-51 -150q-41 -115 -126 -163t-177 -48q-100 0 -151.5 53t-51.5 151q0 65 24 149l199 696h-235l-367 -1376q-203 -3 -371 -29l378 1405h-163l13 41h161q47 160 122 266z" />
<glyph unicode="fl" horiz-adv-x="1286" d="M1204 332l-51 -150q-41 -119 -121 -165t-170 -46q-102 0 -159 53t-57 155q0 63 24 145l313 1042q10 37 10 57q0 39 -29 57.5t-97 20.5q-58 -2 -93 -28q-43 -37 -69 -134l-74 -278h162l-13 -41h-160l-368 -1376q-203 -3 -371 -29l378 1405h-163l13 41h161q39 136 94 229 t134 150q139 100 370 104q163 1 293 22t256 62l-432 -1454q-6 -22 -6 -38q0 -25 11.5 -36.5t27.5 -11.5q20 0 47.5 25.5t56.5 103.5l43 115h39z" />
<glyph unicode="f&#xef;" horiz-adv-x="1268" d="M964 124q0 -36 33 -36q61 0 109 129l43 115h39l-51 -150q-41 -115 -126 -163t-177 -48q-100 0 -151.5 53t-51.5 151q0 65 24 149l199 696h-235l-367 -1376q-203 -3 -371 -29l378 1405h-163l13 41h161q50 169 114 279.5t153 172.5q128 89 321 89q57 0 104 -19t69 -54 q30 -40 30 -108q0 -67 -29 -111t-76 -64.5t-100 -20.5q-78 0 -115 41t-37 114q0 90 48 140t122 59h-2q-115 0 -176 -55q-80 -70 -80 -244q0 -43 6 -118.5t5 -100.5h239q213 3 371 31l-264 -918q-9 -27 -9 -50zM1510.5 1538.5q37.5 -42.5 37.5 -117.5q0 -67 -29 -111 t-75.5 -64.5t-100.5 -20.5q-78 0 -114.5 41t-36.5 114q0 100 58.5 150.5t144.5 50.5q78 0 115.5 -42.5z" />
<glyph unicode="f&#xec;" horiz-adv-x="1268" d="M1188 332l-51 -150q-41 -115 -126 -163t-177 -48q-100 0 -151.5 53t-51.5 151q0 65 24 149l199 696h-233l-369 -1376q-203 -3 -371 -29l378 1405h-163l13 41h161q132 452 488 452q38 0 71 -8q-17 19 -29 39q-22 38 -22 78q0 33 14.5 61t42.5 46q31 20 70 20t74 -19 t53 -49q21 -32 30 -66.5t24 -143.5t54 -230l-24 -14q-55 62 -100.5 105t-82.5 75t-54 47q-33 21 -60 21q-41 0 -72 -49.5t-63 -168.5l-52 -196h234q213 3 371 31l-264 -918q-9 -27 -9 -50q0 -36 33 -36q61 0 109 129l43 115h39z" />
<glyph unicode="ffb" horiz-adv-x="2497" d="M2004 1032.5q72 59.5 165 59.5q141 0 211 -86t70 -248q0 -169 -81.5 -353t-232.5 -309t-348 -125q-97 0 -162 45q-37 10 -81 10q-102 0 -261 -59l-30 15q22 44 45 120l356 1264q6 30 6 53q0 42 -22.5 61.5t-74.5 20.5q-52 0 -86.5 -14.5t-59 -49.5t-43.5 -98l-74 -278 h162l-13 -41h-160l-368 -1376q-203 -3 -371 -29l378 1405h-273l-371 -1376q-203 -3 -371 -29l362 1348l17 57h-207l12 41h208q90 258 241 362q136 97 334 97q177 0 289 -84q146 107 405 108q286 3 514 84l-222 -786q65 131 137 190.5zM1142 1414q-65 40 -151 40 q-73 0 -128 -28t-99.5 -100.5t-79.5 -203.5l-16 -61h272q72 241 202 353zM1696 39q88 0 175 128.5t142.5 317t55.5 353.5q0 67 -12 91.5t-37 24.5q-46 0 -98 -71t-97 -189l-183 -646q27 -9 54 -9z" />
<glyph unicode="ffh" horiz-adv-x="2525" d="M2442 332l-52 -150q-72 -211 -293 -211q-103 0 -159.5 48.5t-56.5 144.5q0 71 30 160l176 530q18 51 18 79q0 32 -26 32q-47 0 -123.5 -126.5t-159 -328.5t-143.5 -415l-19 -65l-6 -24v2l-2 -8h-362l385 1366q7 39 7 58q0 40 -21 58t-71 19q-53 0 -88 -14t-59.5 -49 t-41.5 -99l-74 -278h162l-13 -41h-160l-368 -1376q-203 -3 -371 -29l378 1405h-273l-371 -1376q-203 -3 -371 -29l362 1348l17 57h-207l12 41h208q90 258 241 362q136 97 334 97q177 0 289 -84q147 108 409 108q150 1 269 22t235 62l-251 -895q64 138 130.5 216.5 t140.5 110.5t169 32q88 0 134 -46.5t46 -130.5q0 -63 -23 -133l-203 -608q-10 -29 -10 -48q0 -38 35 -38q61 0 109 129l43 115h39zM1141 1414q-64 40 -150 40q-73 0 -128 -28t-99.5 -100.5t-79.5 -203.5l-16 -61h272q71 241 201 353z" />
<glyph unicode="ffj" horiz-adv-x="1915" d="M547 1423q136 97 334 97q173 0 284 -80q38 31 81 55q112 60 240 83.5t304 23.5q103 0 165 -27q40 -16 61.5 -45.5t21.5 -67.5q0 -63 -33 -111.5t-90.5 -75t-128.5 -26.5q-89 0 -134.5 34.5t-45.5 100.5q0 129 103 178q-105 -11 -176.5 -51.5t-118 -114t-76.5 -186.5 l-40 -149h257q214 3 370 31l-237 -856q-39 -141 -74 -230t-75.5 -148t-98.5 -106q-165 -137 -405 -137q-261 0 -261 147q0 47 24 85t65.5 59.5t91.5 21.5q46 0 81.5 -19t54.5 -50.5t19 -67.5q0 -40 -23.5 -80t-68.5 -65q79 9 125 58t78 163l323 1153h-257l-271 -1020h-362 l273 1020h-271l-371 -1376q-203 -3 -371 -29l362 1348l17 57h-207l12 41h208q90 258 241 362zM1138 1416q-63 38 -147 38q-73 0 -128 -28t-99.5 -100.5t-79.5 -203.5l-16 -61h270q69 233 200 355z" />
<glyph unicode="ffk" horiz-adv-x="2494" d="M1938 696q44 63 86 186t88 162q29 24 64.5 36t66.5 12q76 0 129 -31.5t79.5 -85t26.5 -117.5q0 -65 -27.5 -111.5t-74 -71t-104.5 -24.5q-78 0 -122 40.5t-44 101.5q0 78 52 138.5t130 94.5q-7 12 -22 19.5t-29 7.5q-55 0 -94 -33t-79.5 -147.5t-80.5 -182.5t-128 -92 q375 -2 375 -232q0 -38 -8 -73l-24 -119q-6 -28 -6 -47q0 -39 30 -39q61 0 109 129l43 115h39l-51 -150q-79 -211 -328 -211q-198 0 -198 179q0 42 10 86l34 145q15 51 15 87q0 47 -25.5 73t-81.5 38l-162 -579h-362l385 1366q12 39 12 66q0 36 -22.5 52.5t-71.5 16.5 q-54 0 -89.5 -13.5t-60.5 -49t-42 -99.5l-74 -278h162l-13 -41h-160l-368 -1376q-203 -3 -371 -29l378 1405h-273l-371 -1376q-203 -3 -371 -29l362 1348l17 57h-207l12 41h208q90 258 241 362q136 97 334 97q177 0 289 -84q147 108 409 108q157 1 263.5 20.5t240.5 63.5 l-285 -1014q96 19 140 82zM1141 1414q-64 40 -150 40q-73 0 -128 -28t-99.5 -100.5t-79.5 -203.5l-16 -61h272q71 241 201 353z" />
<glyph unicode="Th" horiz-adv-x="2451" d="M2367 332l-51 -150q-72 -211 -293 -211q-103 0 -159.5 48.5t-56.5 144.5q0 71 30 160l176 530q18 51 18 79q0 32 -26 32q-54 0 -128.5 -110t-158.5 -326.5t-164 -522.5v3l-2 -9h-362l364 1363q-98 -24 -239 -24q-51 0 -126 6l-292 -1107q-14 -54 -14 -89q0 -55 38 -78.5 t130 -29.5l-9 -41q-144 6 -428 6q-272 0 -401 -6l8 41q88 3 136.5 21t76 58t47.5 118l307 1151q-118 12 -192 12q-161 0 -234 -35q81 -11 132 -63.5t51 -135.5q0 -58 -26.5 -104.5t-72 -73t-100.5 -26.5q-57 0 -99 27t-63.5 72.5t-21.5 98.5q0 65 34.5 126.5t114.5 101.5 q101 49 275 49q93 0 187.5 -8t279.5 -29t282 -21q142 0 231 28l38 142q201 18 383 78l-254 -950q69 161 139 251t147.5 126.5t178.5 36.5q88 0 134.5 -46.5t46.5 -130.5q0 -59 -24 -133l-203 -608q-10 -29 -10 -48q0 -38 35 -38q61 0 109 129l43 115h38z" />
<glyph unicode="fb" horiz-adv-x="1827" d="M1334 1032.5q72 59.5 165 59.5q141 0 211 -86t70 -248q0 -169 -81.5 -353t-232.5 -309t-348 -125q-97 0 -162 45q-37 10 -81 10q-102 0 -261 -59l-30 15q22 44 45 120l356 1264q6 30 6 53q0 42 -22.5 61.5t-74.5 20.5q-52 0 -86.5 -14.5t-59 -49.5t-43.5 -98l-74 -278 h162l-13 -41h-160l-368 -1376q-203 -3 -371 -29l378 1405h-163l13 41h161q51 170 129.5 275t201 156t304.5 52q286 3 514 84l-222 -786q65 131 137 190.5zM1026 39q88 0 175 128t142.5 317t55.5 354q0 66 -12 91t-37 25q-46 0 -98 -71.5t-97 -189.5l-183 -646q27 -8 54 -8z " />
<glyph unicode="fh" horiz-adv-x="1855" d="M1772 332l-52 -150q-72 -211 -293 -211q-103 0 -159.5 48.5t-56.5 144.5q0 71 30 160l176 530q18 51 18 79q0 32 -26 32q-47 0 -123.5 -126.5t-159 -328.5t-143.5 -415l-19 -65l-6 -24v2l-2 -8h-362l385 1366q7 39 7 58q0 40 -21 58t-71 19q-53 0 -88 -14t-59.5 -49 t-41.5 -99l-74 -278h162l-13 -41h-160l-368 -1376q-203 -3 -371 -29l378 1405h-163l13 41h161q50 171 129 276t202.5 156t307.5 51q150 1 269 22t235 62l-251 -895q64 138 130.5 216.5t140.5 110.5t169 32q88 0 134 -46.5t46 -130.5q0 -63 -23 -133l-203 -608 q-10 -29 -10 -48q0 -38 35 -38q61 0 109 129l43 115h39z" />
<glyph unicode="fj" horiz-adv-x="1247" d="M392 1327q75 106 186 168q112 60 240 83.5t304 23.5q104 0 165 -27q40 -16 61.5 -45.5t21.5 -67.5q0 -63 -33 -111.5t-90.5 -75t-128.5 -26.5q-89 0 -134.5 34.5t-45.5 100.5q0 128 103 178q-104 -11 -176 -51.5t-118.5 -114t-76.5 -186.5l-40 -149h257q214 3 370 31 l-237 -856q-39 -141 -74 -230t-75.5 -148t-98.5 -106q-165 -137 -405 -137q-261 0 -261 147q0 47 24 85t65.5 59.5t91.5 21.5q46 0 81.5 -19t54.5 -50.5t19 -67.5q0 -40 -23.5 -80t-68.5 -65q79 9 125 58t78 163l323 1153h-257l-271 -1020h-362l273 1020h-163l13 41h161 q47 160 122 266z" />
<glyph unicode="fk" horiz-adv-x="1825" d="M1268 696q44 63 86 186t88 162q29 24 64.5 36t66.5 12q76 0 129 -31.5t79.5 -85t26.5 -117.5q0 -65 -27.5 -111.5t-74 -71t-104.5 -24.5q-78 0 -122 40.5t-44 101.5q0 78 52 138.5t130 94.5q-7 12 -22 19.5t-29 7.5q-55 0 -94 -33q-40 -33 -80 -147.5t-80 -182.5 t-128 -92q375 -2 375 -232q0 -38 -8 -73l-24 -119q-6 -29 -6 -47q0 -39 30 -39q61 0 109 129l43 115h39l-51 -150q-79 -211 -328 -211q-198 0 -198 179q0 42 10 86l34 145q15 51 15 87q0 47 -25.5 73t-81.5 38l-162 -579h-362l385 1366q12 39 12 66q0 36 -22.5 52.5 t-71.5 16.5q-54 0 -89.5 -13.5t-60.5 -49t-42 -99.5l-74 -278h162l-13 -41h-160l-368 -1376q-203 -3 -371 -29l378 1405h-163l13 41h161q50 171 129 276t202.5 156t307.5 51q157 1 263.5 20.5t240.5 63.5l-285 -1014q96 19 140 82z" />
<glyph unicode="&#xd;" horiz-adv-x="0" />
<glyph unicode=" "  horiz-adv-x="526" />
<glyph unicode="&#x09;" horiz-adv-x="526" />
<glyph unicode="&#xa0;" horiz-adv-x="526" />
<glyph unicode="!" horiz-adv-x="713" d="M309 701q0 68 -7 207.5t-7 213.5q0 117 27.5 226t93 181.5t172.5 72.5q82 0 127 -47.5t45 -141.5q0 -104 -49 -213.5t-195.5 -360t-200.5 -438.5l-36 7q30 130 30 293zM104 218.5q30 49.5 82 77.5t117 28q79 0 120.5 -35.5t41.5 -104.5q0 -54 -31 -103t-84 -79.5 t-116 -30.5q-79 0 -119.5 34.5t-40.5 100.5q0 63 30 112.5z" />
<glyph unicode="&#x22;" horiz-adv-x="930" d="M722.5 1097q-20.5 66 -30.5 104.5t-10 76.5q0 57 26.5 107t75 80t109.5 30q59 0 95.5 -31t38.5 -86q0 -60 -35 -120t-108.5 -155t-100.5 -145h-29q-11 73 -31.5 139zM316.5 1097q-20.5 66 -30.5 104.5t-10 76.5q0 57 26.5 107t75 80t109.5 30q59 0 95.5 -31t38.5 -86 q0 -60 -35 -120t-108.5 -155t-100.5 -145h-29q-11 73 -31.5 139z" />
<glyph unicode="#" horiz-adv-x="1262" d="M804 547h294l-21 -41h-292l-138 -299h-49l138 299h-334l-138 -299h-49l138 299h-300l19 41h300l159 342h-300l17 41h302l140 303h49l-140 -303h334l140 303h49l-140 -303h292l-17 -41h-294zM580 889l-159 -342h334l159 342h-334z" />
<glyph unicode="$" horiz-adv-x="1329" d="M1184 1384q153 -91 153 -256q0 -69 -22 -124t-63 -87t-95 -32q-78 0 -126 55t-48 145q0 79 31.5 150t75.5 139q-44 27 -108 42l-139 -501q123 -106 189 -170.5t116 -147.5t50 -171q0 -167 -96 -267.5t-235 -142.5t-286 -45l-67 -241h-45l67 241q-68 1 -125 9l-69 -250 h-45l71 257q-107 21 -204 79q-154 91 -154 256q0 69 22 124t63 87t95 32q79 0 127 -55t48 -145q0 -79 -31.5 -150t-75.5 -139q50 -31 122 -46l152 547q-88 82 -147 148t-98 141.5t-39 155.5q0 166 81 268t202.5 145.5t251.5 43.5l67 241h45l-67 -242q68 -1 124 -10l70 252 h45l-72 -260q97 -21 189 -76zM819 1432h-4l-108 -390q37 -40 100 -95l133 477q-55 8 -121 8zM645.5 1369q-47.5 -47 -47.5 -124q0 -75 74 -165l97 348q-76 -12 -123.5 -59zM522 18h27l120 431q-33 33 -101 95l-144 -520q45 -6 98 -6zM756.5 83.5q46.5 50.5 46.5 135.5 q0 83 -99 193l-109 -391q115 12 161.5 62.5z" />
<glyph unicode="%" horiz-adv-x="1671" d="M28 -86l1706 1774l31 -27l-1706 -1774zM293 1344q64 95 175.5 155t246.5 60t212 -67.5t77 -186.5q0 -98 -63.5 -193t-174.5 -155t-246 -60q-136 0 -213.5 66.5t-77.5 187.5q0 98 64 193zM587.5 1452q-47.5 -80 -73 -193.5t-25.5 -207.5q0 -60 12 -93.5t34 -33.5 q63 0 110.5 80t72.5 194t25 209q0 59 -11.5 92t-33.5 33q-63 0 -110.5 -80zM822 418q64 95 175.5 155t245.5 60q135 0 212 -67t77 -187q0 -98 -63.5 -193t-174.5 -155t-245 -60q-137 0 -214 66.5t-77 187.5q0 98 64 193zM1116.5 526q-47.5 -80 -73 -193.5t-25.5 -207.5 q0 -60 11.5 -93.5t33.5 -33.5q63 0 110.5 80t73 194t25.5 209q0 58 -12 91.5t-33 33.5q-63 0 -110.5 -80z" />
<glyph unicode="&#x26;" horiz-adv-x="1831" d="M1137 353.5q-35 -36.5 -88.5 -61t-120.5 -24.5q-68 0 -127.5 26.5t-97 84t-37.5 143.5q0 130 92 226.5t278 152.5q122 37 258 77.5t285 86.5q93 28 142.5 48t90.5 60.5t41 104.5q0 51 -27 89t-73 57.5t-102 19.5q-33 0 -56 -8q119 -46 119 -148q0 -52 -31 -90.5 t-80.5 -59t-103.5 -20.5q-53 0 -95.5 20.5t-66.5 57t-24 82.5q0 61 38.5 104.5t104.5 67.5q70 29 178 29q293 0 293 -299q0 -129 -54.5 -217.5t-157 -147.5t-263.5 -108q47 -77 47 -177q0 -133 -86 -262t-262.5 -213t-431.5 -84q-192 0 -344 51t-240 155t-88 255 q0 139 75 254.5t216 196.5t334 116q-105 28 -155 81.5t-50 121.5q0 76 56 129.5t146.5 80t192.5 26.5q133 0 197.5 -42.5t64.5 -113.5q0 -44 -22.5 -74.5t-56.5 -45.5t-68 -15l-2 37q43 0 72.5 27t29.5 65q0 36 -30 58t-82 22q-67 0 -129.5 -35.5t-102 -100.5t-39.5 -147 q0 -31 6 -61q75 12 129 12q74 0 74 -43q0 -22 -18.5 -32.5t-44.5 -10.5q-49 0 -142 45q-58 -26 -106.5 -92t-76.5 -156.5t-28 -187.5q0 -189 110 -286t321 -97q136 0 258.5 40t201 125.5t78.5 215.5q0 88 -38 151q-128 -39 -236 -71.5t-197 -59.5q-92 -27 -134 -64.5 t-42 -90.5q0 -54 36.5 -76.5t90.5 -22.5q80 0 137 41t80 90l35 -14q-16 -38 -51 -74.5z" />
<glyph unicode="'" horiz-adv-x="524" d="M316.5 1097q-20.5 66 -30.5 104.5t-10 76.5q0 57 26.5 107t75 80t109.5 30q59 0 95.5 -31t38.5 -86q0 -60 -35 -120t-108.5 -155t-100.5 -145h-29q-11 73 -31.5 139z" />
<glyph unicode="(" horiz-adv-x="860" d="M284 -124q-101 121 -157.5 264t-56.5 317q0 222 130 443.5t358.5 414.5t521.5 336l20 -27q-213 -161 -359.5 -341t-227.5 -408t-81 -512q0 -197 34.5 -358t109.5 -351l-37 -27q-154 128 -255 249z" />
<glyph unicode=")" horiz-adv-x="862" d="M597 1402q101 -121 157.5 -264t56.5 -317q0 -222 -130 -443.5t-358.5 -414.5t-521.5 -336l-20 27q213 161 359.5 341t227.5 408t81 512q0 197 -34.5 358t-109.5 351l37 27q154 -128 255 -249z" />
<glyph unicode="*" horiz-adv-x="977" d="M1042 1236q0 -73 -84 -114q-35 -18 -79.5 -26.5t-124.5 -17.5t-126 -16q39 -6 117.5 -16t118.5 -19t64 -26q39 -25 39 -66t-39 -89q-50 -63 -108 -63q-30 0 -56 18t-46.5 50.5t-52.5 95.5t-51 97q6 -38 15.5 -90.5t15 -91t5.5 -67.5q0 -31 -7 -56q-14 -57 -54 -83.5 t-87 -26.5q-42 0 -68.5 18t-26.5 57q0 13 5 35q9 36 33 77t73.5 114t76.5 115q-37 -35 -102 -100t-101 -97t-68 -49q-37 -18 -65 -18q-30 0 -50.5 18t-28.5 45q-7 18 -7 41q0 73 83 114q36 18 81 26.5t126.5 17.5t128.5 16q-40 6 -120 16t-120.5 19t-64.5 26q-39 25 -39 67 q0 43 39 89q50 63 108 63q30 0 56 -18q27 -18 47.5 -51t52.5 -97t51 -100q-5 41 -15 95t-16 92.5t-6 67.5q0 28 6 54q15 57 55 84t89 27q40 0 66 -19t26 -58q0 -18 -4 -34q-9 -34 -32.5 -73.5t-72 -112t-76.5 -116.5q35 33 99.5 97.5t101 96.5t68.5 49q38 18 65 18 q30 0 50 -17.5t28 -45.5q8 -21 8 -42z" />
<glyph unicode="+" horiz-adv-x="1165" d="M727 1241h74l-137 -483h475l-19 -62h-475l-137 -481h-74l137 481h-477l19 62h477z" />
<glyph unicode="," horiz-adv-x="635" d="M230.5 -133q64.5 75 70.5 168q-61 -64 -143 -64q-77 0 -118.5 34.5t-41.5 100.5q0 63 30 112.5t82 77.5t117 28q166 0 166 -168q0 -144 -82 -260.5t-225 -178.5l-10 37q90 38 154.5 113z" />
<glyph unicode="-" horiz-adv-x="1038" d="M848 455h-739l55 202h739z" />
<glyph unicode="." horiz-adv-x="618" d="M28 218.5q30 49.5 82 77.5t117 28q79 0 120.5 -35.5t41.5 -104.5q0 -54 -31 -103t-84 -79.5t-116 -30.5q-79 0 -119.5 34.5t-40.5 100.5q0 63 30 112.5z" />
<glyph unicode="/" horiz-adv-x="934" d="M1094 1479l-1123 -1508h-67l1122 1508h68z" />
<glyph unicode="0" horiz-adv-x="1350" d="M1058 1045.5q103 -46.5 158.5 -132.5t55.5 -202q0 -183 -107 -354.5t-286.5 -278.5t-382.5 -107q-139 0 -242 46.5t-159 132.5t-56 202q0 183 106.5 354.5t285.5 278.5t384 107q140 0 243 -46.5zM588.5 941q-85.5 -114 -131 -290t-45.5 -354q0 -144 31.5 -216.5 t80.5 -72.5q112 0 197.5 114.5t131.5 291t46 352.5q0 145 -31.5 217t-81.5 72q-112 0 -197.5 -114z" />
<glyph unicode="1" horiz-adv-x="801" d="M82 0l254 850q-68 -21 -250 -59l6 43q153 33 269.5 74t197.5 82.5t170 94.5h41l-326 -1085h-362z" />
<glyph unicode="2" horiz-adv-x="1139" d="M390.5 599q-59.5 -24 -114.5 -24q-63 0 -108 31t-45 109q0 92 69 179t194.5 142.5t285.5 55.5q111 0 192.5 -28t125.5 -79t44 -117q0 -120 -122.5 -215.5t-309 -194.5t-240.5 -136q41 0 113 -18.5t119 -29t104 -10.5q88 0 143.5 25.5t55.5 72.5q0 54 -66 91l21 26 q62 -35 88.5 -78t26.5 -104q0 -80 -38.5 -150.5t-120 -114.5t-202.5 -44q-69 0 -156 19t-151.5 31t-136.5 12q-63 0 -107.5 -11.5t-109.5 -38.5l10 43q24 20 228 173.5t350.5 328t146.5 323.5q0 80 -42 119t-114 39q-83 0 -165 -45.5t-134.5 -117.5t-52.5 -146 q0 -50 27.5 -74.5t89.5 -24.5q55 0 97 20t93 64l25 -28q-54 -51 -113.5 -75z" />
<glyph unicode="3" horiz-adv-x="1104" d="M287 637q-63 0 -108.5 31t-45.5 108q0 75 68 148.5t185.5 120.5t256.5 47q114 0 199 -26t130.5 -73t45.5 -108q0 -92 -76 -167.5t-191.5 -127t-238.5 -78.5q198 -3 314 -65.5t116 -198.5q0 -158 -181.5 -284t-447 -198t-499.5 -75l10 37q171 11 342.5 79.5t286 192.5 t114.5 293q0 82 -24 132t-68 54q-48 -19 -72 -27t-47 -8q-36 0 -36 21q0 2 2 10q8 38 97 38q26 0 40 -1q100 46 160.5 124.5t60.5 184.5q0 87 -54 136t-153 49q-73 0 -140.5 -33t-109 -86.5t-41.5 -108.5q0 -50 28 -74t91 -24q69 0 127 31l23 -31q-80 -43 -164 -43z" />
<glyph unicode="4" horiz-adv-x="1124" d="M715 111l-107 -400h-362l108 400h-481l12 43l1041 938h53l-252 -938h262l-12 -43h-262zM501 654l-555 -500h420z" />
<glyph unicode="5" horiz-adv-x="983" d="M780.5 846.5q-81.5 -86.5 -184.5 -86.5q-30 0 -63 9.5t-106.5 36t-114.5 26.5q-13 0 -19 -1l-164 -370q133 74 336 74q375 0 375 -250q0 -173 -166 -305t-407 -205t-457 -78l10 37q144 0 293.5 68t248.5 192.5t99 286.5q0 95 -41 143.5t-135 48.5q-88 0 -185 -55l-20 10 l268 633q41 2 78 -4t118.5 -26.5t145.5 -20.5q72 0 120 20t83 72l25 -15q-56 -154 -137.5 -240.5z" />
<glyph unicode="6" horiz-adv-x="1214" d="M806 1222q-171 -162 -280.5 -418t-109.5 -573q0 -86 8.5 -133.5t26 -66.5t45.5 -19q72 0 134.5 100t100 243t37.5 257q0 88 -22.5 126t-57.5 38q-42 0 -83 -46t-66 -140l-35 10q41 157 124 227t206 70q90 0 160 -35t110.5 -105.5t40.5 -170.5q0 -158 -97 -300 t-261 -228.5t-355 -86.5q-387 0 -387 383q0 275 180.5 520.5t440.5 407t481 197.5l12 -41q-182 -54 -353 -216z" />
<glyph unicode="7" horiz-adv-x="1053" d="M853 675q-105 -132 -176.5 -280t-127.5 -370q-22 -90 -26 -118t-7 -44q-14 -73 -70.5 -119.5t-150.5 -46.5q-161 0 -161 147q0 41 13 90q50 183 224 373t403.5 394t295.5 269q-56 -36 -168 -111t-175.5 -102.5t-134.5 -27.5q-45 0 -80 9t-98.5 34t-114.5 25 q-58 0 -94.5 -27t-36.5 -84q0 -71 59 -117.5t164 -70.5l-10 -35q-303 62 -303 299q0 81 35.5 151.5t112.5 115t194 44.5q90 0 198.5 -29.5t176 -45t160.5 -15.5q56 0 98.5 16.5t74.5 61.5h60q-230 -254 -335 -386z" />
<glyph unicode="8" horiz-adv-x="1219" d="M809 844q22 -19 102 -88t122 -144.5t42 -160.5q0 -134 -93.5 -244t-247.5 -173t-326 -63q-121 0 -218.5 29t-155 90t-57.5 152q0 147 154 272t383 211q-68 63 -108 108.5t-67.5 104t-27.5 129.5q0 120 79.5 214t211.5 146t283 52q167 0 272 -56.5t105 -165.5 q0 -211 -453 -413zM875 1055q36 108 36 223q0 164 -86 164q-47 0 -91.5 -42t-72.5 -108.5t-28 -136.5q0 -85 38.5 -151.5t108.5 -132.5q59 76 95 184zM592 57q63 49 102 128.5t39 166.5q0 74 -26 135t-66.5 109t-102.5 106q-87 -83 -141.5 -215.5t-54.5 -279.5 q0 -96 28 -147.5t93 -51.5q66 0 129 49z" />
<glyph unicode="9" horiz-adv-x="1192" d="M541 236q-83 -70 -205 -70q-90 0 -160 35t-110.5 105.5t-40.5 170.5q0 158 96.5 300t260.5 228.5t355 86.5q387 0 387 -383q0 -266 -177.5 -505.5t-433 -397.5t-470.5 -191l-12 41q176 51 343 210.5t273.5 409t106.5 555.5q0 86 -9 134t-26 67t-45 19q-72 0 -135 -100 t-100.5 -242.5t-37.5 -257.5q0 -88 22.5 -126t57.5 -38q42 0 83 46t67 140l35 -10q-42 -157 -125 -227z" />
<glyph unicode=":" horiz-adv-x="682" d="M55 218.5q30 49.5 82 77.5t117 28q79 0 120.5 -35.5t41.5 -104.5q0 -54 -31 -103t-84 -79.5t-116 -30.5q-79 0 -119.5 34.5t-40.5 100.5q0 63 30 112.5zM259 986.5q30 49.5 82 77.5t117 28q79 0 120.5 -35.5t41.5 -104.5q0 -54 -31 -103t-84 -79.5t-116 -30.5 q-79 0 -119.5 34.5t-40.5 100.5q0 63 30 112.5z" />
<glyph unicode=";" horiz-adv-x="692" d="M276 986.5q30 49.5 82 77.5t117 28q79 0 120.5 -35.5t41.5 -104.5q0 -54 -31 -103t-84 -79.5t-116 -30.5q-79 0 -119.5 34.5t-40.5 100.5q0 63 30 112.5zM244.5 -133q64.5 75 70.5 168q-61 -64 -143 -64q-77 0 -118.5 34.5t-41.5 100.5q0 63 30 112.5t82 77.5t117 28 q166 0 166 -168q0 -144 -82 -260.5t-225 -178.5l-10 37q90 38 154.5 113z" />
<glyph unicode="&#x3c;" horiz-adv-x="1204" d="M248 719l678 -357l-33 -65l-799 430l1131 465l20 -59z" />
<glyph unicode="=" horiz-adv-x="1313" d="M1247 901l-18 -61h-1026l18 61h1026zM1165 614l-18 -61h-1026l18 61h1026z" />
<glyph unicode="&#x3e;" horiz-adv-x="1210" d="M1034 770l-758 406l33 59l879 -473l-1075 -445l-21 60z" />
<glyph unicode="?" horiz-adv-x="1061" d="M449 1513q50 3 97 -16.5t76 -57.5t29 -85q0 -49 -25 -91t-68.5 -67t-96.5 -25q-47 0 -90 21t-70 60.5t-27 93.5q0 96 70.5 153t172.5 80t208 23q118 0 221 -29.5t166.5 -89t63.5 -144.5q0 -58 -40.5 -117t-121.5 -128.5t-223 -171.5q-140 -100 -208.5 -161t-94 -106.5 t-25.5 -101.5q0 -55 35 -90t100 -35q74 0 131 29q-53 17 -90 59.5t-37 106.5q0 47 22 84.5t61.5 59t90.5 21.5q40 0 75 -19t56 -52.5t21 -73.5q0 -92 -65 -150.5t-159.5 -84t-187.5 -25.5q-103 0 -184.5 27.5t-129.5 83.5t-48 139q0 73 38.5 136t94 113t168.5 142 q23 18 125 100.5t141 143t39 121.5q0 74 -41.5 117.5t-118.5 43.5q-93 0 -151 -37zM261 218.5q30 49.5 82 77.5t117 28q79 0 120.5 -35.5t41.5 -104.5q0 -54 -31 -103t-84 -79.5t-116 -30.5q-79 0 -119.5 34.5t-40.5 100.5q0 63 30 112.5z" />
<glyph unicode="@" horiz-adv-x="1788" d="M1111 -250.5q-141 -38.5 -304 -38.5q-200 0 -370 62t-276 202.5t-106 362.5q0 233 118 451.5t346.5 357.5t541.5 139q203 0 351 -62.5t229 -187t81 -305.5q0 -213 -103.5 -367t-254 -232.5t-285.5 -78.5q-171 0 -171 146q0 16 2 40q-98 -186 -283 -186q-108 0 -178 59.5 t-70 192.5q0 138 76 297.5t203.5 268t273.5 108.5q79 0 114.5 -35.5t38.5 -104.5l33 111q193 0 309 29l-217 -731q-13 -45 -13 -74q0 -45 38 -45q60 0 167.5 69t192 204.5t84.5 326.5q0 174 -77 290t-215.5 173t-325.5 57q-297 0 -516 -133.5t-333 -343t-114 -430.5 q0 -206 98 -340t258 -195t351 -61q146 0 284.5 34.5t251.5 98.5l13 -26q-102 -65 -243 -103.5zM1061 796q0 95 -62 95q-52 0 -123.5 -90t-123.5 -227.5t-52 -274.5q0 -65 15.5 -94t52.5 -29q55 0 99.5 57t86.5 175l103 339q4 27 4 49z" />
<glyph unicode="A" horiz-adv-x="1370" d="M1167 74q29 -31 66 -33l-8 -41q-120 6 -346 6q-238 0 -349 -6l9 41q66 3 103 15.5t55.5 43t18.5 87.5q0 17 -1 26l-18 336h-402l-199 -281q-48 -70 -48 -117q0 -96 188 -110l-9 -41q-211 6 -290 6q-70 0 -134 -6l9 41q40 11 74 36.5t73.5 73t101.5 134.5l836 1175 q33 -4 79 -4t75 4l82 -1288q5 -67 34 -98zM670 1079l-346 -489h371z" />
<glyph unicode="B" horiz-adv-x="1454" d="M637 1444q83 0 166.5 2t138.5 2q496 0 496 -277q0 -110 -75.5 -202t-220 -148.5t-343.5 -62.5q169 2 292 -37t187.5 -109t64.5 -161q0 -142 -85.5 -243.5t-246.5 -154.5t-384 -53q-46 0 -145.5 3t-217.5 3q-233 0 -362 -6l8 41q74 3 110.5 16t58.5 48t42 112l270 1016 q18 67 18 99q0 40 -30 57.5t-109 19.5l11 41q126 -6 356 -6zM889 836q73 66 110 172.5t37 226.5q0 83 -24 128.5t-90 45.5q-30 0 -48 -12t-31.5 -42.5t-29.5 -90.5l-130 -494h30q103 0 176 66zM521 124q0 -77 81 -77q86 0 156.5 64.5t110.5 167.5t40 213q0 107 -45.5 175 t-150.5 68h-39l-137 -518q-16 -60 -16 -93z" />
<glyph unicode="C" horiz-adv-x="1450" d="M1442 979h-45q20 118 20 177q0 90 -35 149q-38 65 -92 90.5t-133 25.5q-161 0 -301.5 -133.5t-224.5 -355.5t-84 -475q0 -207 70.5 -307.5t197.5 -100.5q69 0 141.5 31.5t124.5 87.5q54 58 94 129t91 195h45q-97 -355 -121 -492h-45q6 44 6 70q0 52 -26 52q-16 0 -42 -18 q-192 -133 -409 -133q-305 0 -451.5 136t-146.5 389q0 246 135.5 473t373.5 368.5t529 141.5q112 0 181 -35.5t122 -97.5q15 -18 30 -18q38 0 83 122h43q-68 -177 -131 -471z" />
<glyph unicode="D" horiz-adv-x="1642" d="M597 1443l75 1q171 6 303 6q307 0 476 -130t169 -384q0 -222 -106.5 -436.5t-339.5 -357t-590 -142.5q-43 0 -133 3t-191 3q-225 0 -348 -6l6 41q70 3 105.5 16t57.5 48.5t42 111.5l268 1016q13 49 13 80q0 44 -29.5 68t-102.5 28l7 41q163 -7 318 -7zM514 91 q0 -30 19 -42t67 -12q180 0 316.5 149.5t209 376t72.5 447.5q0 403 -260 403q-46 0 -65.5 -12t-30 -40.5t-35.5 -123.5l-268 -1024q-25 -93 -25 -122z" />
<glyph unicode="E" d="M991 1444q295 0 424 6q-50 -129 -78 -242q-11 -46 -26 -127h-45q1 119 -26.5 190t-82 101.5t-139.5 30.5h-6q-71 0 -106.5 -12t-57 -46.5t-41.5 -111.5l-128 -483h36q64 0 123 31.5t103 84t67 113.5h45q-26 -79 -43.5 -148.5t-26.5 -101.5q-27 -102 -53 -250h-45 q0 54 -19 106.5t-63.5 88t-116.5 35.5h-18l-131 -492q-18 -70 -18 -100q0 -29 13.5 -44t41.5 -20.5t79 -5.5h27q100 0 175.5 34.5t140.5 113t132 215.5h46q-14 -36 -44 -148q-32 -117 -53 -262q-139 6 -463 6q-475 0 -712 -6l8 41q74 3 110.5 16t58.5 48t42 112l270 1016 q17 65 17 98q0 31 -13.5 47t-42.5 22.5t-82 8.5l11 41q235 -6 710 -6z" />
<glyph unicode="F" horiz-adv-x="1235" d="M991 1444q295 0 424 6q-41 -108 -78 -242q-36 -130 -47 -188h-45q3 39 3 73q0 166 -66 238t-185 72h-6q-64 0 -96 -12t-51 -46.5t-37 -111.5l-128 -483h56q92 0 169 61.5t124 167.5h45q-38 -115 -69 -250q-25 -99 -64 -311h-45q0 141 -49 216t-139 75h-39l-131 -492 q-15 -57 -15 -91t17 -51.5t53.5 -24.5t105.5 -9l-8 -41q-138 6 -407 6q-258 0 -381 -6l8 41q74 3 110.5 16t58.5 48t42 112l270 1016q17 65 17 98q0 31 -13.5 47t-42.5 22.5t-82 8.5l11 41q235 -6 710 -6z" />
<glyph unicode="G" horiz-adv-x="1559" d="M1434 1133q0 48 -6 81.5t-23 67.5q-39 77 -119 118.5t-196 41.5q-186 0 -325.5 -178t-213.5 -430.5t-74 -460.5q0 -183 62.5 -272t189.5 -89q68 0 107 29q28 20 42 52.5t35 111.5l48 180q18 68 18 106q0 36 -17 54.5t-52.5 26t-102.5 10.5l10 41q129 -7 389 -7 q234 0 338 7l-10 -41q-49 -4 -73 -16.5t-41 -46.5t-38 -113l-108 -406h-41q1 62 -19 89.5t-61 27.5q-38 0 -79.5 -15.5t-85.5 -37t-70 -33.5q-129 -60 -263 -60q-184 0 -317.5 55t-205 160.5t-71.5 253.5q0 237 134.5 479.5t373 401t533.5 158.5q84 0 145 -17t104 -45 t87 -71q19 -19 35 -19q39 0 81 123h45q-67 -180 -131 -471h-45q11 83 11 154z" />
<glyph unicode="H" horiz-adv-x="1733" d="M1509 1444q261 0 387 6l-10 -41q-75 -3 -111.5 -16t-58 -48t-41.5 -112l-270 -1016q-18 -70 -18 -100t13.5 -45.5t42.5 -22t83 -8.5l-8 -41q-123 6 -385 6q-237 0 -363 -6l8 41q74 3 111 16t58.5 48t41.5 112l131 492h-452l-131 -492q-18 -70 -18 -100t13.5 -45.5 t42.5 -22t82 -8.5l-8 -41q-126 6 -362 6q-257 0 -383 -6l10 41q71 3 107 16t58 48.5t42 111.5l270 1016q17 65 17 98q0 31 -13.5 47t-42.5 22.5t-82 8.5l11 41q118 -6 383 -6q220 0 364 6l-10 -41q-75 -3 -111.5 -16t-58 -48t-41.5 -112l-128 -483h452l129 483q17 65 17 98 q0 31 -14 47t-42.5 22.5t-81.5 8.5l10 41q123 -6 360 -6z" />
<glyph unicode="I" horiz-adv-x="864" d="M519 117q0 -30 13.5 -45.5t42.5 -22t82 -8.5l-8 -41q-132 6 -383 6q-242 0 -362 -6l10 41q71 3 107 16t58 48.5t42 111.5l270 1016q17 65 17 98q0 31 -13.5 47t-42.5 22.5t-82 8.5l11 41q113 -6 362 -6q232 0 385 6l-10 -41q-75 -3 -111.5 -16t-58 -48t-41.5 -112 l-270 -1016q-18 -70 -18 -100z" />
<glyph unicode="J" horiz-adv-x="1464" d="M985 977q88 99 194 177.5t265 176.5q-111 -31 -228.5 -96t-188.5 -94t-179 -29q-58 0 -111 14t-145 47t-141 33q-52 0 -84.5 -25.5t-32.5 -78.5q0 -147 282 -164l-4 -37q-206 13 -325 96.5t-119 229.5q0 132 82.5 209t243.5 77q144 0 270.5 -66t203 -99t201.5 -33 q80 0 173 17.5t163 53.5q79 120 128 120q14 0 28 -11q13 -11 13 -25q0 -50 -150 -106q-104 -95 -174 -244t-132 -370h205l-6 -41h-210l-21 -80l-127 -496q-60 -234 -225.5 -376t-464.5 -142q-154 0 -246 43t-92 139q0 80 55.5 129t157.5 49q90 0 148.5 -38.5t58.5 -110.5 q0 -116 -134 -172q21 -4 48 -4q60 0 100.5 39.5t72.5 120t74 231.5l142 496q26 92 61 172h-280l6 41h293q63 128 151 227z" />
<glyph unicode="K" horiz-adv-x="1604" d="M934 645q0 62 -38 90q-90 -23 -128 -23q-47 0 -47 30q0 4 2 14q5 21 18 31t40 10q37 0 115 -21q120 18 173.5 109t103 277t105.5 249q60 68 162 68q69 0 124 -28.5t86 -80.5t31 -121q0 -61 -27.5 -117.5t-80 -92t-123.5 -35.5q-46 0 -85.5 19t-64 57.5t-24.5 93.5 q0 81 57 153t154 107q-20 10 -53 10q-43 0 -72 -14.5t-53 -43.5q-49 -59 -98 -229t-96 -265.5t-152 -126.5q133 -9 211 -42t111.5 -88t33.5 -136q0 -40 -8 -93l-33 -205q-1 -4 -1 -11q0 -20 13 -32.5t33 -12.5q56 0 88 99l35 104h41l-53 -158q-37 -110 -115 -164.5 t-176 -54.5q-89 0 -152 28t-95.5 78t-32.5 116q0 21 5 51l58 323q8 50 8 78zM519 117q0 -30 13.5 -45.5t42.5 -22t82 -8.5l-8 -41q-126 6 -362 6q-257 0 -383 -6l10 41q71 3 107 16t58 48.5t42 111.5l270 1016q17 65 17 98q0 31 -13.5 47t-42.5 22.5t-82 8.5l11 41 q119 -6 383 -6q220 0 364 6l-10 -41q-75 -3 -111.5 -16t-58 -48t-41.5 -112l-270 -1016q-18 -70 -18 -100z" />
<glyph unicode="L" horiz-adv-x="1264" d="M1139 262q-32 -108 -54 -262q-139 6 -462 6q-484 0 -721 -6l8 41q74 3 110.5 16t58.5 48t42 112l270 1016q17 65 17 98q0 31 -13.5 47t-42.5 22.5t-82 8.5l11 41q119 -6 387 -6q214 0 358 6l-10 -41q-75 -3 -111.5 -16t-58 -48t-41.5 -112l-270 -1016q-18 -70 -18 -100 q0 -29 13.5 -44t41.5 -20.5t79 -5.5h37q75 0 158.5 38.5t162.5 124.5t134 220h45q-21 -54 -49 -168z" />
<glyph unicode="M" horiz-adv-x="1944" d="M2107 1450l-10 -41q-75 -3 -111.5 -16t-58 -48t-41.5 -112l-270 -1016q-17 -65 -17 -98q0 -31 13.5 -47t42.5 -22.5t82 -8.5l-8 -41q-151 6 -377 6q-252 0 -369 -6l8 41q75 3 111.5 16t58 48t41.5 112l297 1104l-850 -1331h-45l-182 1196l-238 -905q-15 -55 -15 -98 q0 -137 181 -142l-8 -41q-73 6 -244 6q-126 0 -194 -6l8 41q96 4 148 69.5t79 170.5l254 952q17 65 17 98q0 31 -13.5 47t-42.5 22.5t-82 8.5l11 41q112 -6 346 -6q109 0 188 6l119 -934l592 928h201q225 0 378 6z" />
<glyph unicode="N" horiz-adv-x="1763" d="M1532 1413q90 131 221 131q71 0 125.5 -29t84.5 -79t30 -111q0 -64 -30.5 -113t-83 -75.5t-116.5 -26.5q-84 0 -133 40t-49 112q0 60 27.5 109t76 80.5t109.5 41.5q-16 16 -51 16q-50 0 -94.5 -30.5t-79.5 -81.5q-91 -136 -189 -477t-223 -930h-45l-536 975 q-173 -831 -291 -988q-45 -60 -95.5 -94.5t-123.5 -34.5q-71 0 -125.5 29t-84.5 79t-30 112q0 64 30.5 113t82.5 75.5t116 26.5q84 0 133.5 -40.5t49.5 -111.5q0 -60 -28 -109t-76.5 -80.5t-108.5 -41.5q15 -17 51 -17q103 0 176 115q77 120 158.5 430t177.5 801v4 q12 57 12 91t-14.5 51.5t-47.5 24.5t-96 9l11 41q64 -6 182 -6q95 0 166 6l447 -870q157 649 284 833z" />
<glyph unicode="O" horiz-adv-x="1657" d="M194.5 932q124.5 237 348.5 392t504 155q188 0 324 -58t209 -169t73 -267q0 -231 -125.5 -467.5t-350 -391.5t-503.5 -155q-188 0 -324 58t-208 168.5t-72 265.5q0 232 124.5 469zM779 1294.5q-120 -147.5 -193.5 -381.5t-73.5 -477q0 -131 23 -228t64 -148.5t93 -51.5 q129 0 249 147.5t193.5 381.5t73.5 477q0 131 -23 228t-63.5 148.5t-93.5 51.5q-129 0 -249 -147.5z" />
<glyph unicode="P" horiz-adv-x="1391" d="M521 135q0 -45 30.5 -67.5t103.5 -26.5l-8 -41q-141 6 -356 6q-266 0 -389 -6l8 41q74 3 110.5 16t58.5 48t42 112l270 1016q14 78 14 94q0 41 -29 59.5t-106 22.5l11 41q119 -6 374 -6q49 0 148.5 2t150.5 2q270 0 400.5 -76t130.5 -233q0 -155 -107 -279.5t-301 -198 t-445 -79.5l-97 -365q-14 -50 -14 -82zM878 723.5q92 89.5 133.5 216.5t41.5 254q0 106 -38 160.5t-120 54.5q-33 0 -44.5 -19t-23.5 -69t-22 -88l-162 -609q143 10 235 99.5z" />
<glyph unicode="Q" horiz-adv-x="1772" d="M1553 230q59 -53 59 -154q0 -112 -74.5 -219t-211.5 -174.5t-316 -67.5q-134 0 -242.5 38t-188.5 92t-176 136q-152 -49 -260 -49q-99 0 -156 42.5t-57 131.5q0 74 40.5 134t112 94t159.5 34q78 0 159.5 -27t158 -69.5t177.5 -107.5q177 96 307.5 236t202.5 321.5 t72 394.5q0 205 -72 315.5t-209 110.5q-131 0 -232.5 -96t-157.5 -246.5t-56 -306.5q0 -73 16 -122.5t58.5 -77.5t119.5 -28q78 0 146.5 28t118 77t75.5 112q22 51 25 109q-21 -75 -79 -109t-122 -34q-54 0 -95 24.5t-63 68t-22 97.5q0 65 31 118t83.5 83t114.5 30 q93 0 146 -66t53 -177q0 -128 -69.5 -225t-194 -150t-283.5 -53q-141 0 -253 42.5t-176 125.5t-64 200q0 169 129.5 310t343.5 222t456 81q192 0 344.5 -51.5t239 -144.5t86.5 -214q0 -156 -142 -345t-368.5 -369t-474.5 -313q118 -76 196 -121t165 -76t170 -31 q104 0 160.5 44.5t80.5 104.5q-70 -67 -174 -67q-55 0 -100.5 21t-72 62t-26.5 99q0 60 29 106.5t81 72.5t118 26q95 0 154 -53zM370 -91q-90 75 -154.5 112.5t-135.5 37.5q-51 0 -77 -20t-26 -57q0 -52 47 -83.5t132 -31.5q81 0 214 42z" />
<glyph unicode="R" horiz-adv-x="1520" d="M1475 248l-9 -27q-40 -130 -125.5 -190t-232.5 -60q-148 0 -221.5 56t-73.5 159q0 28 4 52l39 233q6 36 6 69q0 74 -44.5 114t-153.5 45l-127 -482q-20 -76 -20 -100q0 -38 30 -55t108 -21l-8 -41q-141 6 -364 6q-258 0 -381 -6l8 41q74 3 110.5 16t58.5 48t42 112 l268 1016q18 72 18 96q0 39 -30 57t-107 23l11 41q119 -6 348 -6q81 0 168.5 2t144.5 2q189 0 308 -28t177 -90t58 -165q0 -124 -79.5 -220t-225.5 -155t-343 -76q135 -9 227.5 -31t148 -71.5t55.5 -135.5q0 -25 -4 -48l-35 -213q-5 -30 -5 -48q0 -79 66 -79q42 0 72.5 32.5 t54.5 98.5l10 29h48zM863.5 793.5q91.5 53.5 150.5 158.5t59 256q0 201 -143 201q-43 0 -66.5 -22.5t-40.5 -83.5l-149 -568q98 5 189.5 58.5z" />
<glyph unicode="S" horiz-adv-x="1247" d="M1208 1047h-41q13 55 13 112q0 124 -78.5 194t-216.5 70q-97 0 -159 -48t-62 -150q0 -135 150 -309t228 -282t78 -249q0 -139 -95 -232.5t-233 -137.5t-268 -44q-104 0 -170.5 10t-114 29t-112.5 56q-54 30 -70 30q-19 0 -31.5 -9t-24.5 -31.5t-32 -69.5h-41 q68 162 140 491h41q-19 -53 -19 -141q0 -157 87 -237.5t247 -80.5q133 0 186.5 50t53.5 139q0 116 -52.5 211t-206 288t-153.5 357q0 135 82.5 229t207 140.5t249.5 46.5q87 0 156.5 -16t103.5 -31t102 -48q11 -5 34.5 -16.5t33.5 -11.5q16 0 31.5 25.5t35.5 82.5h41 q-78 -190 -121 -417z" />
<glyph unicode="T" horiz-adv-x="1423" d="M594 1401q-161 0 -234 -35q81 -11 132 -63.5t51 -135.5q0 -58 -26.5 -104.5t-72 -73t-100.5 -26.5q-57 0 -99 27t-63.5 72.5t-21.5 98.5q0 65 34.5 126.5t114.5 101.5q101 49 275 49q90 0 182 -5t272.5 -18.5t274.5 -13.5q105 0 184 15q-36 33 -59 83t-23 111 q0 62 26 108t72 71.5t105 25.5t105 -25t71 -65.5t25 -86.5q0 -150 -172 -223q-135 -55 -355 -55l-59 1l-297 -1123q-15 -54 -15 -89q0 -54 38.5 -78t130.5 -30l-9 -41q-144 6 -428 6q-272 0 -401 -6l8 41q88 3 136.5 21t76 58t47.5 118l307 1152q-149 11 -233 11z" />
<glyph unicode="U" horiz-adv-x="1438" d="M1378 1281q0 41 -15.5 66t-49.5 39t-94 23l12 41q80 -6 227 -6q108 0 172 6l-12 -41q-67 -14 -105 -44t-65 -91.5t-59 -183.5l-127 -494q-75 -285 -201 -434q-75 -88 -185 -139.5t-235 -51.5q-179 0 -292.5 52.5t-162.5 142.5q-42 78 -42 183q0 98 38 241l170 643 q17 65 17 98q0 31 -13.5 47t-42.5 22.5t-82 8.5l13 41q120 -6 387 -6q214 0 358 6l-12 -41q-75 -3 -111.5 -16t-58 -48t-41.5 -112l-180 -678q-51 -191 -51 -309q0 -203 145 -203q215 0 338.5 139.5t189.5 390.5l125 476q45 170 45 232z" />
<glyph unicode="V" horiz-adv-x="1393" d="M1497 1444q90 0 154 6l-11 -41q-53 -16 -92 -40t-81 -71.5t-97 -132.5l-764 -1175q-37 3 -76 3q-38 0 -77 -3l-162 1288q-8 66 -39.5 97.5t-67.5 33.5l11 41q116 -6 344 -6q236 0 356 6l-10 -41q-62 -3 -97 -13.5t-52 -37.5t-17 -78q0 -27 2 -43l93 -856l521 801 q46 70 46 119q0 95 -185 108l10 41q58 -6 291 -6z" />
<glyph unicode="W" horiz-adv-x="2120" d="M2212 1444q89 0 153 6l-10 -41q-57 -17 -96.5 -39t-82 -70t-91.5 -135l-670 -1175h-153l-113 902l-551 -902h-154l-161 1288q-9 67 -40 98t-67 33l10 41q117 -6 344 -6q194 0 295 6l-10 -41q-39 -3 -60.5 -14t-32 -38t-10.5 -78q0 -27 1 -42l90 -831l338 547l-41 325 q-7 66 -32.5 97.5t-53.5 33.5l10 41q111 -6 324 -6q236 0 356 6l-10 -41q-62 -3 -97 -13.5t-52 -37.5t-17 -78q0 -27 2 -43l88 -810l432 755q42 74 42 122q0 51 -46 75t-135 30l10 41q59 -6 291 -6z" />
<glyph unicode="X" horiz-adv-x="1575" d="M1165.5 1215.5q80.5 123.5 151.5 189.5q92 74 186 74q66 0 116 -31.5t77.5 -85.5t27.5 -121q0 -71 -29.5 -124.5t-80.5 -83t-113 -29.5q-77 0 -122.5 45.5t-45.5 126.5q0 60 27 112.5t75.5 88.5t110.5 50q-15 17 -53 17q-63 0 -135 -51q-70 -59 -159 -193t-174 -323 l81 -662q12 -78 86 -78q84 0 121 107l35 104h41l-54 -158q-43 -117 -118 -168t-189 -51q-120 0 -192 36.5t-108 105.5t-50 178l-23 183q-73 -135 -161.5 -251.5t-171.5 -183.5q-94 -68 -193 -68q-66 0 -116 31.5t-77.5 85.5t-27.5 121q0 71 29.5 124.5t80.5 83t113 29.5 q77 0 122.5 -45.5t45.5 -126.5q0 -60 -27 -112.5t-75.5 -88.5t-110.5 -50q15 -17 53 -17q58 0 140 51q76 55 175.5 181t192.5 300l-88 707q-6 44 -25.5 63t-56.5 19q-83 0 -125 -121l-35 -104h-41l54 158q43 116 126.5 167.5t207.5 51.5q107 0 174 -34t103.5 -104t49.5 -182 l26 -213q68 146 148.5 269.5z" />
<glyph unicode="Y" horiz-adv-x="1589" d="M327.5 1422q91.5 57 211.5 57q152 0 234 -80t120.5 -227.5t69.5 -415.5q128 395 303 600q105 123 243 123q71 0 125.5 -29t84.5 -79t30 -111q0 -64 -30.5 -113.5t-82.5 -76t-116 -26.5q-84 0 -133.5 40.5t-49.5 111.5q0 60 28 109t76.5 80.5t108.5 41.5q-15 17 -51 17 q-33 0 -63.5 -11t-67.5 -38q-53 -39 -126.5 -146t-148.5 -272.5t-130 -367.5l-99 -392q-11 -46 -11 -73q0 -41 19 -62.5t55.5 -29.5t98.5 -11l-10 -41q-129 6 -418 6q-251 0 -371 -6l11 41q74 3 111 16t59 48.5t41 111.5l105 419q-18 167 -50 318.5t-78.5 250t-103.5 98.5 q-36 0 -57 -27t-36 -70l-34 -104h-45l43 131q43 132 134.5 189z" />
<glyph unicode="Z" horiz-adv-x="1356" d="M823 1077q-82 0 -144.5 12.5t-145.5 37t-125 24.5q-60 0 -60 -47q0 -67 150 -96l-11 -39q-127 19 -213 77t-86 160q0 79 40.5 141t115 97t174.5 35q87 0 153.5 -20t200 -79t258.5 -59q70 0 160 31q37 54 78 86.5t73 32.5q16 0 29 -11q12 -11 12 -27q0 -29 -38 -63 t-115 -63l-567 -557h311l-16 -41h-336l-553 -543q218 207 432 207q82 0 144.5 -12.5t146 -37t125.5 -24.5q59 0 59 47q0 67 -149 96l8 39q127 -19 213 -77t86 -160q0 -79 -40.5 -141t-115 -97t-174.5 -35q-86 0 -153 20t-200.5 79t-258.5 59q-70 0 -160 -31q-36 -53 -78 -86 t-73 -33q-16 0 -29 11q-12 10 -12 27q0 28 38 62.5t115 63.5l576 566h-332l14 41h359l539 529q-214 -202 -425 -202z" />
<glyph unicode="[" horiz-adv-x="827" d="M995 1581l-8 -39h-166l-469 -1874h166l-8 -39h-553l485 1952h553z" />
<glyph unicode="\" horiz-adv-x="1004" d="M731 -29l-463 1508h64l467 -1508h-68z" />
<glyph unicode="]" horiz-adv-x="829" d="M-166 -371l8 39h166l469 1874h-166l8 39h553l-485 -1952h-553z" />
<glyph unicode="^" horiz-adv-x="1071" d="M512 741q-149 -73 -389 -123l-8 29q159 69 300 186.5t228 247.5h37q21 -134 99 -249t208 -183l-12 -31q-236 28 -463 123z" />
<glyph unicode="_" horiz-adv-x="1366" d="M936 -371h-1055l86 227h1055z" />
<glyph unicode="`" horiz-adv-x="457" d="M321.5 1332q-45.5 43 -117 105t-98.5 107q-22 38 -22 78q0 33 14.5 61t42.5 46q31 20 70 20t74 -19t53 -49q21 -32 30 -66.5t24 -143.5t54 -230l-24 -14q-55 62 -100.5 105z" />
<glyph unicode="a" horiz-adv-x="1192" d="M1106 332l-51 -150q-74 -211 -293 -211q-126 0 -178 72q-34 48 -34 126q0 23 1 36q-49 -127 -127 -180.5t-184 -53.5q-127 0 -190.5 65.5t-63.5 190.5q0 193 103 395.5t258 336t296 133.5q116 0 128 -118l26 87q203 3 370 31l-276 -918q-9 -27 -9 -50q0 -36 33 -36 q61 0 109 129l43 115h39zM752 934q0 57 -39 57q-58 0 -140.5 -118.5t-142 -298.5t-59.5 -355q0 -60 10 -84t37 -24q40 0 81 57.5t91 205.5l160 530q2 20 2 30z" />
<glyph unicode="b" horiz-adv-x="1178" d="M698 1042.5q67 49.5 152 49.5q140 0 210 -86t70 -248q0 -169 -81 -353.5t-232 -309t-348 -124.5q-97 0 -161 44q-42 11 -82 11q-102 0 -261 -59l-31 15q23 43 46 120l376 1264q10 37 10 57q0 41 -32 59.5t-107 18.5l15 43q162 1 292.5 22t256.5 62l-220 -742 q60 107 127 156.5zM377 39q88 0 175 128t142.5 317t55.5 354q0 67 -12 91.5t-38 24.5q-38 0 -81 -51t-84 -139l-212 -716q27 -9 54 -9z" />
<glyph unicode="c" horiz-adv-x="991" d="M369 -29q-107 0 -189.5 35.5t-129 108t-46.5 180.5q0 182 94.5 368t266.5 307.5t391 121.5q82 0 142.5 -29t92 -77.5t31.5 -106.5q0 -65 -33 -127.5t-88.5 -102t-118.5 -39.5q-37 0 -68.5 16.5t-51 49t-19.5 78.5q0 64 29 120t76.5 95.5t103.5 56.5q-28 25 -70 25 q-99 0 -190.5 -109.5t-148 -282.5t-56.5 -352q0 -106 43.5 -157.5t120.5 -51.5q65 0 125 37t121 127l41 -16q-177 -275 -469 -275z" />
<glyph unicode="d" horiz-adv-x="1235" d="M1157 332l-51 -150q-72 -211 -293 -211q-130 0 -184 78q-30 44 -30 115q0 43 10 91q-65 -146 -145.5 -215t-201.5 -69q-74 0 -133.5 31.5t-95 98.5t-35.5 169q0 162 83.5 356t241.5 330t369 136q99 0 125 -51l86 325q10 37 10 57q0 41 -32 59.5t-107 18.5l14 43 q308 3 555 84l-401 -1454q-10 -29 -10 -48q0 -38 35 -38q60 0 108 129l43 115h39zM782 1032q-14 12 -43 12q-63 0 -149 -121.5t-147.5 -313.5t-61.5 -394q0 -62 10.5 -89.5t38.5 -27.5q29 0 70 44.5t88.5 142.5t93.5 247l62 234l1 4v-1l59 225q-8 26 -22 38z" />
<glyph unicode="e" horiz-adv-x="1016" d="M655 50q-133 -79 -307 -79q-98 0 -178.5 33.5t-128 98.5t-47.5 157q0 201 103.5 394t283 315.5t395.5 122.5q115 0 184.5 -46t69.5 -135q0 -117 -93 -215t-240 -167t-313 -107q-7 -55 -7 -105q0 -112 43 -155t127 -43q51 0 131.5 35t155.5 108l32 -16q-78 -117 -211 -196 zM603 964.5q-71 -88.5 -130 -227t-83 -278.5q106 59 188 139q186 184 186 403q0 52 -33 52q-57 0 -128 -88.5z" />
<glyph unicode="f" horiz-adv-x="727" d="M526 1511q122 91 310 91q99 0 171.5 -28t111 -80t38.5 -122q0 -49 -28 -96.5t-78.5 -78t-114.5 -30.5q-76 0 -120 36.5t-44 103.5q0 79 48.5 144t133.5 97q-29 13 -53 13q-62 0 -100 -33q-58 -49 -99 -203l-73 -272h207l-13 -41h-205l-366 -1368q-203 -3 -371 -29 l376 1397h-161l13 41h159q89 333 258 458z" />
<glyph unicode="g" horiz-adv-x="997" d="M51 71q-37 36 -37 87q0 57 50.5 104.5t132.5 87.5t217 94q-153 3 -245.5 61.5t-92.5 174.5q0 100 70 194.5t199 155t298 60.5q48 0 91 -5q48 103 91 172t93 109q58 47 129 47q69 0 110 -36.5t41 -104.5q0 -53 -25.5 -102.5t-70 -80t-96.5 -30.5q-56 0 -89.5 33t-33.5 84 q0 41 25 84.5t73 82.5q-10 5 -17 5q-19 0 -34 -17q-33 -30 -78.5 -102t-78.5 -150q104 -20 163 -75.5t59 -147.5q0 -94 -60.5 -183t-172.5 -150.5t-259 -75.5q-169 -60 -169 -109q0 -16 17 -26.5t55 -24.5l186 -70q233 -87 233 -240q0 -122 -102.5 -203.5t-250.5 -120 t-284 -38.5q-127 0 -218.5 20t-140 56.5t-48.5 85.5q0 73 67.5 105.5t197 60.5t180.5 48l-81 25q-57 19 -94 55zM560 545.5q41 64.5 64.5 167.5t24.5 213q0 65 -10.5 96t-42.5 31q-45 0 -86.5 -64t-66.5 -168t-25 -219q0 -69 11.5 -95t39.5 -26q50 0 91 64.5zM171.5 -170 q-26.5 -71 -26.5 -121q0 -32 17 -45.5t51 -13.5q72 0 149.5 23.5t129 66.5t51.5 98q0 27 -16 43.5t-37 24.5t-66 22l-167 53q-59 -80 -85.5 -151z" />
<glyph unicode="h" horiz-adv-x="1212" d="M1128 332l-51 -150q-72 -211 -293 -211q-111 0 -163 52t-52 143q0 73 29 158l176 530q18 52 18 80q0 31 -22 31q-46 0 -114.5 -106t-143.5 -280t-138 -370l-57 -195l-2 -8v2l-2 -8h-362l405 1366q10 37 10 57q0 41 -32 59.5t-107 18.5l15 43q162 1 292.5 22t256.5 62 l-265 -904q67 145 132 225t132 111.5t152 31.5q201 0 201 -170q0 -59 -27 -140l-203 -608q-10 -30 -10 -48q0 -38 35 -38q61 0 109 129l43 115h38z" />
<glyph unicode="i" horiz-adv-x="688" d="M415 1546.5q69 55.5 181 55.5q89 0 135.5 -35.5t46.5 -104.5q0 -63 -33 -111.5t-90.5 -75t-128.5 -26.5q-88 0 -134 34.5t-46 100.5q0 107 69 162.5zM271 940q0 35 -29 35q-32 0 -59 -29t-54 -100l-47 -125h-39l57 160q77 211 306 211q110 0 161.5 -53t51.5 -136 q0 -49 -17 -98l-213 -631q-10 -30 -10 -50q0 -36 35 -36q60 0 108 129l43 115h39l-51 -150q-72 -211 -293 -211q-104 0 -161 49t-57 145q0 68 30 159l188 565q11 29 11 51z" />
<glyph unicode="j" horiz-adv-x="651" d="M406.5 1546.5q68.5 55.5 181.5 55.5q89 0 135.5 -35.5t46.5 -104.5q0 -63 -33.5 -111.5t-91 -75t-127.5 -26.5q-89 0 -134.5 34.5t-45.5 100.5q0 107 68.5 162.5zM360.5 7q-35.5 -89 -76.5 -148.5t-98 -106.5q-165 -137 -405 -137q-260 0 -260 147q0 47 24 85t65.5 59.5 t90.5 21.5q46 0 81.5 -19.5t55 -51t19.5 -66.5q0 -40 -24 -80t-69 -65q79 9 125 58t78 163l287 1022q9 35 9 53q0 33 -30 33q-61 0 -110 -129l-47 -125h-39l57 160q41 110 124.5 160.5t184.5 50.5q108 0 155 -50.5t47 -132.5q0 -47 -15 -104l-156 -569q-38 -140 -73.5 -229z " />
<glyph unicode="k" horiz-adv-x="1182" d="M627.5 699q42.5 62 84 184t87.5 161q29 24 64.5 36t66.5 12q76 0 129 -31.5t79.5 -85t26.5 -117.5q0 -65 -27.5 -111.5t-74.5 -71t-105 -24.5q-77 0 -121 40.5t-44 101.5q0 78 52 138.5t130 94.5q-7 12 -22 19.5t-29 7.5q-54 0 -95 -33q-39 -33 -79 -147.5t-80 -182.5 t-128 -92q375 -2 375 -232q0 -38 -8 -73l-24 -119q-6 -29 -6 -47q0 -39 30 -39q61 0 109 129l43 115h39l-51 -150q-79 -211 -328 -211q-198 0 -198 181q0 39 9 84l35 145q15 51 15 87q0 45 -24 71t-76 38l-169 -577h-362l405 1366q10 37 10 57q0 41 -32 59.5t-107 18.5 l15 43q162 1 292.5 22t256.5 62l-297 -1012q91 21 133.5 83z" />
<glyph unicode="l" horiz-adv-x="647" d="M340 136q0 -25 11.5 -36.5t27.5 -11.5q20 0 47.5 25.5t56.5 103.5l43 115h39l-51 -150q-41 -119 -121 -165t-170 -46q-102 0 -159 53t-57 155q0 63 24 145l313 1042q10 37 10 57q0 41 -32 59.5t-107 18.5l14 43q163 1 293 22t256 62l-432 -1454q-6 -22 -6 -38z" />
<glyph unicode="m" horiz-adv-x="1817" d="M1731 332l-52 -150q-72 -211 -293 -211q-137 0 -190 86q-27 46 -27 108q0 69 31 159l176 530q15 44 15 66q0 24 -17 24q-40 0 -95 -61.5t-125 -208t-144 -384.5l-84 -290h-365l246 854q16 55 16 70q0 20 -20 20q-73 0 -163.5 -165t-188.5 -462l-82 -317h-363l250 889 q9 33 9 51q0 35 -32 35q-59 0 -108 -129l-47 -125h-39l57 160q40 109 117.5 160t177.5 51q106 0 153 -51.5t47 -135.5q0 -46 -13 -100l-23 -90q58 134 122.5 217t142 121.5t175.5 38.5q180 0 180 -163q0 -63 -24 -147l-11 -37q62 133 129 209.5t138 107t156 30.5 q184 0 184 -161q0 -64 -29 -149l-202 -608q-10 -30 -10 -49q0 -37 34 -37q61 0 109 129l43 115h39z" />
<glyph unicode="n" horiz-adv-x="1268" d="M1184 332l-51 -150q-74 -211 -293 -211q-132 0 -185 74q-34 46 -34 115q0 65 32 164l176 530q18 52 18 80q0 31 -22 31q-53 0 -137.5 -143.5t-171 -367t-145.5 -448.5l1 4l-3 -10h-363l250 889q12 45 12 59q0 27 -30 27q-32 0 -59 -29t-54 -100l-47 -125h-39l57 160 q38 108 107 159.5t174 51.5q115 0 165.5 -54t50.5 -139q0 -44 -13 -94l-56 -213q80 200 153.5 308.5t148.5 150t171 41.5q201 0 201 -170q0 -59 -27 -140l-202 -608q-10 -30 -10 -49q0 -37 34 -37q61 0 109 129l43 115h39z" />
<glyph unicode="o" horiz-adv-x="1141" d="M92 672q80 179 241 299.5t392 120.5q178 0 271.5 -90t93.5 -259q0 -173 -80 -352t-241.5 -299.5t-391.5 -120.5q-178 0 -271.5 90t-93.5 258q0 174 80 353zM569.5 897q-87.5 -154 -152.5 -372t-65 -398q0 -63 9.5 -89t29.5 -26q55 0 142 148t152 363.5t65 408.5 q0 71 -9.5 95t-25.5 24q-58 0 -145.5 -154z" />
<glyph unicode="p" horiz-adv-x="1239" d="M744 1035.5q73 56.5 163 56.5q141 0 211 -86t70 -248q0 -169 -76 -353.5t-217.5 -309t-327.5 -124.5q-115 0 -195 42l-42 -150q-16 -59 -16 -90q0 -58 40 -78.5t129 -22.5l-12 -43q-31 1 -140.5 5t-215.5 4q-97 0 -201 -4t-129 -5l12 43q50 0 80 11.5t48 38.5t32 77 l365 1317q-54 -125 -124 -225.5t-169 -208.5l-23 27q88 99 145 174t115.5 184.5t116.5 267.5q201 18 383 78l-156 -554q61 120 134 176.5zM434 39q89 0 176 115.5t142 291.5t55 342q0 70 -6 106t-16.5 48t-26.5 12q-45 0 -96.5 -69.5t-96.5 -185.5l-183 -652q26 -8 52 -8z " />
<glyph unicode="q" horiz-adv-x="1190" d="M845 -235q0 -45 32 -66.5t102 -26.5l-12 -43q-28 1 -136 5t-210 4q-103 0 -213 -4t-138 -5l13 43q66 2 107 19.5t64.5 50t37.5 84.5l125 461q-72 -166 -150.5 -241t-181.5 -75q-141 0 -211 86t-70 248q0 164 89 349.5t241.5 311.5t331.5 126q51 0 96.5 -14.5t74.5 -36.5 q31 -8 72 -8q108 0 262 59l31 -15q-26 -54 -45 -121l-303 -1132q-9 -35 -9 -59zM758 1024q-87 0 -174 -135t-143 -326t-56 -338q0 -56 11.5 -76t37.5 -20q43 0 91.5 60.5t93 163t73.5 222.5l-9 -46l132 485q-29 10 -57 10z" />
<glyph unicode="r" horiz-adv-x="1022" d="M401 1092q101 0 145.5 -54.5t44.5 -140.5q0 -12 -2 -38q40 87 83.5 138t94 73t116.5 22q62 0 106.5 -26t68 -71.5t23.5 -101.5q0 -68 -30 -127t-82.5 -94t-118.5 -35q-75 0 -114.5 39t-39.5 115q0 59 30.5 113t82 91.5t111.5 48.5q-21 7 -29 7q-66 0 -118.5 -26.5 t-117.5 -130.5t-135 -319l-151 -575h-363l250 889q9 33 9 53q0 33 -27 33q-32 0 -59 -29t-54 -100l-47 -125h-39l57 160q77 211 305 211z" />
<glyph unicode="s" horiz-adv-x="913" d="M244 14q64 0 105.5 42.5t41.5 113.5q0 64 -30.5 137.5t-88.5 167.5q-48 78 -69.5 117t-37 88t-15.5 102q0 89 45.5 159t137 110.5t224.5 40.5q151 0 251.5 -54t100.5 -182q0 -44 -17 -86t-49.5 -69t-78.5 -27q-61 0 -96 47.5t-35 124.5q0 60 20 112.5t45 79.5 q-18 9 -51 9q-72 0 -108.5 -42t-36.5 -122q0 -50 22 -99t53 -99.5t46 -76.5q68 -116 95 -188t27 -141q0 -86 -47 -156t-139.5 -111t-222.5 -41q-165 0 -272 61t-107 201q0 78 38 130.5t101 52.5q60 0 96.5 -49.5t36.5 -130.5q0 -40 -9.5 -78.5t-23 -72t-24.5 -56.5 q31 -15 72 -15z" />
<glyph unicode="t" horiz-adv-x="748" d="M389 135q0 -47 43 -47q40 0 81.5 44.5t66.5 111.5l32 88h39l-39 -113q-40 -118 -124 -183t-201 -65q-114 0 -170.5 60t-56.5 162q0 60 20 131l198 688h-188l10 41h190l89 311q218 3 373 29l-100 -340h204l-6 -41h-210l-245 -838q-6 -22 -6 -39z" />
<glyph unicode="u" horiz-adv-x="1264" d="M1188 342l-58 -160q-39 -109 -116 -160t-176 -51q-136 0 -183 80q-24 41 -24 99q0 49 16 108l46 176q-78 -187 -150 -287.5t-146.5 -138t-171.5 -37.5q-93 0 -142.5 43.5t-49.5 127.5q0 58 26 139l199 608q10 30 10 49q0 37 -35 37q-60 0 -108 -129l-43 -115h-39l51 150 q74 211 293 211q103 0 159.5 -48.5t56.5 -144.5q0 -71 -30 -160l-176 -530q-17 -54 -17 -80q0 -31 21 -31q50 0 127 125t159 324.5t144 411.5l27 104q226 3 371 29l-258 -918q-13 -42 -13 -59q0 -27 31 -27q32 0 59 29t54 100l47 125h39z" />
<glyph unicode="v" horiz-adv-x="1063" d="M563 777.5q-70 -163.5 -109.5 -311.5t-39.5 -247q0 -72 21 -105.5t73 -33.5q102 0 189.5 73.5t151.5 193.5t99 259q-105 48 -170 132t-65 186q0 78 41.5 123t117.5 45q156 0 156 -201q0 -205 -75.5 -418.5t-229 -357.5t-373.5 -144q-175 0 -250 72.5t-75 181.5 q0 185 157 375.5t441 403.5q-62 -3 -104.5 -30.5t-108.5 -94t-119 -66.5q-15 0 -28 4t-38 15.5t-43 11.5q-25 0 -39.5 -18t-27.5 -60l-15 -43h-39l45 149q63 222 193 222q35 0 75 -19.5t70 -30t80 -10.5q72 0 133 31l21 39l43 -21q-88 -142 -158 -305.5z" />
<glyph unicode="w" horiz-adv-x="1384" d="M586.5 777.5q-97.5 -161.5 -152.5 -310.5t-55 -258q0 -64 21.5 -96.5t74.5 -32.5q52 0 100 27q-30 60 -30 145q0 122 57 234t139 180.5t152 68.5q84 0 84 -129q0 -216 -139 -390q50 -75 151 -75q82 0 140 67t89 177.5t35 241.5q-93 43 -158.5 84t-112 102.5t-46.5 144.5 q0 32 15 62.5t46.5 51t79.5 20.5q83 0 132 -72.5t68 -171t19 -189.5q0 -174 -54.5 -332t-159 -257t-246.5 -99q-75 0 -139 25t-103 80q-122 -105 -315 -105q-91 0 -156.5 34t-99 93.5t-33.5 134.5q0 118 85 230t204 209t431 332q-74 -2 -126.5 -31t-130 -94.5t-131.5 -65.5 q-19 0 -33 4.5t-38 15.5t-42 11q-25 0 -39 -17.5t-29 -60.5l-14 -43h-39l45 149q35 119 85 164t112 45q36 0 83.5 -15t84.5 -23.5t96 -8.5q82 0 151 31l21 39l43 -21q-125 -144 -222.5 -305.5zM850 643q-23 -47 -37 -122t-14 -156q0 -63 19 -111q53 77 82.5 165.5 t29.5 174.5q0 96 -33 96q-24 0 -47 -47z" />
<glyph unicode="x" horiz-adv-x="1210" d="M836 967q91 125 237 125q85 0 138 -46.5t53 -127.5q0 -53 -23.5 -94.5t-65.5 -65t-96 -23.5q-72 0 -131 47t-86 152q-62 -84 -112 -211l61 -543q9 -51 26 -72.5t44 -21.5q29 0 56 35.5t60 132.5l27 76h39l-51 -150q-39 -122 -120 -165.5t-183 -43.5q-116 0 -184.5 47.5 t-80.5 161.5l-10 90q-48 -105 -100 -174q-97 -125 -240 -125q-87 0 -137.5 44.5t-50.5 119.5q0 59 25.5 102.5t68 67t94.5 23.5q151 0 213 -199q65 88 117 223l-62 531q-7 48 -25 64t-48 16q-19 0 -35.5 -10.5t-36 -44t-41.5 -99.5l-26 -76h-39l51 150q39 122 121.5 165.5 t191.5 43.5q80 0 133 -20.5t85 -72.5t42 -145l6 -53q45 98 95 166z" />
<glyph unicode="y" horiz-adv-x="989" d="M870 614q-97 54 -155 135.5t-58 174.5q0 77 42 122.5t118 45.5q156 0 156 -199q0 -119 -54.5 -276t-147 -318t-202.5 -291q-129 -153 -269.5 -248.5t-279.5 -128.5q-69 -16 -120 -16q-82 0 -126 35.5t-44 99.5q0 41 20 75t57 54.5t87 20.5q147 0 251 -181q127 57 239 154 l-167 1014q-10 53 -17.5 70.5t-25.5 17.5q-14 0 -24.5 -10t-23.5 -36.5t-34 -82.5l-43 -115h-39l51 150q41 118 105.5 164.5t159.5 46.5q103 0 162 -54t79 -190l90 -656q138 209 213 422z" />
<glyph unicode="z" horiz-adv-x="975" d="M228 223.5q88 64.5 138 95.5t99 31q36 0 59 -9.5t56.5 -32.5t62.5 -23q25 0 38 16.5t13 34.5q0 71 -90 96l12 31q119 -28 173.5 -83.5t54.5 -148.5q0 -74 -31 -133t-92.5 -93t-149.5 -34q-63 0 -111.5 16t-145.5 62.5t-189 46.5q-59 0 -102 -21t-84 -75h-64l1043 944 q-74 -26 -179 -103.5t-162.5 -114t-111.5 -36.5q-35 0 -58 10t-56.5 33t-59.5 23q-25 0 -39 -15t-14 -36q0 -34 19.5 -54t70.5 -43l-13 -30q-227 50 -227 221q0 72 38 136.5t112.5 105t179.5 40.5q64 0 111.5 -15t138.5 -58t178 -43q63 0 105 21t83 75h64l-1018 -924 q60 22 148 86.5z" />
<glyph unicode="{" horiz-adv-x="815" d="M176 -341q-102 47 -113 145t35 285q68 275 68 376q-1 62 -24.5 90t-72.5 31h-10l6 37h11q66 5 110.5 49.5t83.5 148.5t86 300q47 195 128 299t203.5 143t317.5 39l-10 -39q-72 -1 -110 -28.5t-73 -117t-87 -296.5q-46 -183 -121.5 -286t-188.5 -153.5t-294 -76.5 q142 -28 223 -62.5t119 -90t38 -144.5q0 -83 -34 -219q-63 -253 -60 -332q0 -41 12.5 -63t37.5 -30.5t67 -9.5l-10 -39q-236 -3 -338 44z" />
<glyph unicode="|" horiz-adv-x="825" d="M309 -399v2156h246v-2156h-246z" />
<glyph unicode="}" horiz-adv-x="813" d="M641 1558q102 -47 113 -145t-35 -285q-68 -275 -68 -376q1 -62 24.5 -90t72.5 -31h10l-6 -37h-11q-66 -5 -110.5 -49.5t-83.5 -148.5t-86 -300q-47 -195 -128 -299t-203.5 -143t-317.5 -39l10 39q72 1 110 28.5t73 117t87 296.5q46 183 121.5 286t188.5 153.5t294 76.5 q-142 28 -223 62.5t-119 90t-38 144.5q0 83 34 219q63 253 60 332q0 41 -12.5 63t-37.5 30.5t-67 9.5l10 39q236 3 338 -44z" />
<glyph unicode="~" horiz-adv-x="1317" d="M1142 583.5q-70 -86.5 -159 -133.5t-188 -47q-71 0 -126 21t-160.5 80t-195.5 59q-135 0 -211 -119l-28 11q43 116 113 202.5t159.5 133.5t188.5 47q70 0 125 -21t160.5 -80t195.5 -59q135 0 211 119l28 -11q-43 -116 -113 -202.5z" />
<glyph unicode="&#xa1;" horiz-adv-x="672" d="M268 986.5q30 49.5 82 77.5t117 28q79 0 120.5 -35.5t41.5 -104.5q0 -54 -31 -103t-84 -79.5t-116 -30.5q-79 0 -119.5 34.5t-40.5 100.5q0 63 30 112.5zM323 397q0 -82 9 -186.5t14.5 -175.5t5.5 -144q0 -133 -70 -204.5t-204 -71.5q-81 0 -128.5 36t-47.5 111t42 162 t181.5 317.5t189.5 411.5l37 -6q-29 -111 -29 -250z" />
<glyph unicode="&#xa2;" horiz-adv-x="1038" d="M764 1092q82 0 142.5 -29t92 -77.5t31.5 -106.5q0 -65 -33 -127.5t-88.5 -102t-118.5 -39.5q-37 0 -68.5 16.5t-51 49t-19.5 78.5q0 64 29 120t76.5 95.5t103.5 56.5q-28 25 -70 25q-50 0 -100 -30l-239 -885q41 -38 108 -38q65 0 125 37t121 127l41 -16 q-167 -260 -439 -274l-92 -343h-45l92 342q-159 4 -254.5 85.5t-95.5 238.5q0 168 81 340.5t229 296.5t340 153l98 365h45l-97 -360q28 2 56 2zM511.5 806q-54.5 -107 -85.5 -238t-31 -261q0 -76 24 -126l214 796q-67 -64 -121.5 -171z" />
<glyph unicode="&#xa3;" horiz-adv-x="1442" d="M639.5 1341.5q184.5 165.5 484.5 165.5q77 0 136 -29t91.5 -79t32.5 -111q0 -76 -29 -134t-80 -90t-114 -32q-85 0 -133.5 42.5t-48.5 123.5q0 64 25.5 118t71.5 90t106 48q-25 23 -67 23q-85 0 -139.5 -56t-88.5 -186l-100 -381h278l-12 -41h-277q-29 -92 -75 -164h309 l-13 -41h-325q-63 -80 -180 -164.5t-185.5 -143.5t-126.5 -161q229 234 459 234q82 0 144.5 -12.5t146 -37t125.5 -24.5q59 0 59 47q0 67 -149 96l8 39q127 -19 213 -77t86 -160q0 -79 -40.5 -141t-115 -97t-174.5 -35q-86 0 -153 20t-200.5 79t-258.5 59q-97 0 -164 -23 q-33 -68 -88 -101.5t-115 -33.5q-14 0 -20 4.5t-6 16.5q0 26 21.5 56.5t67 56.5t113.5 36q43 84 77 169.5t69 217.5l21 80h-200l13 41h198l43 164h-198l12 41h197l12 45q72 277 256.5 442.5z" />
<glyph unicode="&#xa4;" horiz-adv-x="1468" d="M254 614q0 97 39 191l-139 139l252 252l137 -137q93 41 194 41q98 0 193 -41l139 139l252 -252l-139 -139q41 -93 41 -193q0 -101 -41 -194l139 -139l-252 -252l-141 141q-94 -39 -191 -39q-107 0 -192 39l-139 -139l-252 252l139 139q-39 85 -39 192zM576.5 498.5 q25.5 -48.5 68.5 -73t96 -24.5t96.5 24.5t69 73t25.5 115.5q0 68 -25.5 116.5t-69 73.5t-96.5 25t-96 -25t-68.5 -73.5t-25.5 -116.5q0 -67 25.5 -115.5z" />
<glyph unicode="&#xa5;" horiz-adv-x="1690" d="M376.5 1422q91.5 57 211.5 57q152 0 234 -80t120.5 -227.5t69.5 -415.5q128 395 303 600q105 123 243 123q71 0 125.5 -29t84.5 -79t30 -111q0 -64 -30.5 -113.5t-82.5 -76t-116 -26.5q-84 0 -133.5 40.5t-49.5 111.5q0 60 28 109t76.5 80.5t108.5 41.5q-15 17 -51 17 q-33 0 -63.5 -11t-67.5 -38q-53 -39 -126.5 -146t-148.5 -272.5t-130 -367.5v-1h264l-10 -41h-265l-31 -123h261l-10 -41h-261l-47 -186q-11 -46 -11 -73q0 -41 19 -62.5t55.5 -29.5t98.5 -11l-10 -41q-129 6 -418 6q-251 0 -371 -6l11 41q74 3 111 16t59 48.5t41 111.5 l47 186h-287l10 41h287l31 123h-283l10 41h283l7 28q-29 269 -89 468t-143 199q-36 0 -57 -27t-36 -70l-34 -104h-45l43 131q43 132 134.5 189z" />
<glyph unicode="&#xa6;" horiz-adv-x="831" d="M313 786v971h246v-971h-246zM559 668v-1067h-246v1067h246z" />
<glyph unicode="&#xa7;" horiz-adv-x="1272" d="M969.5 1444q47.5 59 115.5 90q-9 9 -45 19t-79 10q-71 0 -131 -30.5t-96 -86.5t-36 -129q0 -65 36 -109.5t98 -95.5t90 -74q117 -98 166.5 -144.5t82.5 -102t33 -121.5q0 -139 -93.5 -236.5t-247.5 -170.5q95 -107 95 -214q0 -141 -97 -239.5t-243.5 -146.5t-293.5 -48 q-132 0 -240.5 37.5t-108.5 146.5q0 59 30.5 111.5t83 84.5t116.5 32q69 0 108 -33.5t39 -87.5q0 -73 -46 -132t-118 -91q10 -10 46 -19.5t79 -9.5q71 0 131 30t95.5 86t35.5 130q0 64 -36.5 109t-98 95.5t-88.5 73.5q-118 100 -167 146t-82 101.5t-33 121.5 q0 139 93.5 236.5t247.5 170.5q-49 55 -72.5 106t-23.5 107q0 141 97 239.5t244 147t294 48.5q128 0 239 -39.5t111 -147.5q0 -59 -31 -111t-84 -83t-116 -31q-71 0 -109 35.5t-38 93.5q0 66 47.5 125zM881 468q0 42 -26 83.5t-83 93t-164 133.5q-98 77 -154 131 q-61 -72 -61 -153q0 -43 25 -85t83.5 -96.5t164.5 -136.5q98 -77 155 -132q37 42 53 112q7 25 7 50z" />
<glyph unicode="&#xa8;" horiz-adv-x="799" d="M5 1493q28 45 74 66.5t101 21.5q79 0 116.5 -42.5t37.5 -117.5q0 -67 -29 -111t-76 -64.5t-100 -20.5q-78 0 -115 41t-37 114q0 68 28 113zM523.5 1530.5q58.5 50.5 144.5 50.5q78 0 115.5 -42.5t37.5 -117.5q0 -67 -29 -111t-75.5 -64.5t-100.5 -20.5q-78 0 -114.5 41 t-36.5 114q0 100 58.5 150.5z" />
<glyph unicode="&#xa9;" horiz-adv-x="1847" d="M267.5 1195.5q109.5 187.5 296.5 297t409 109.5q221 0 408.5 -109.5t297 -297t109.5 -409.5q0 -221 -109.5 -408.5t-297 -297t-408.5 -109.5q-222 0 -409 109.5t-296.5 297t-109.5 408.5q0 222 109.5 409.5zM338.5 411q98.5 -172 266.5 -273t368 -101q199 0 367.5 101 t267 273t98.5 375q0 204 -98.5 376t-267 273t-367.5 101q-200 0 -368 -101t-266.5 -273t-98.5 -376q0 -203 98.5 -375zM1337.5 406q-55.5 -79 -142.5 -129t-202 -50q-223 0 -358 133.5t-135 425.5q0 190 68 316t186 186t272 60q97 0 186.5 -28.5t148 -90t58.5 -156.5 q0 -55 -25.5 -100.5t-70 -72t-100.5 -26.5q-89 0 -139 51t-50 134q0 74 48.5 129.5t119.5 75.5q-19 13 -51 21.5t-66 8.5q-72 0 -115.5 -41t-65 -145t-21.5 -293q0 -159 37 -254t94 -133.5t125 -38.5q148 0 247 199l35 -13q-28 -90 -83.5 -169z" />
<glyph unicode="&#xaa;" horiz-adv-x="1196" d="M1206 979l-20 -57q-67 -185 -279 -185q-190 0 -190 161q0 17 1 26q-55 -105 -127 -146t-161 -41q-223 0 -223 207q0 127 80 252t207.5 204t259.5 79q40 0 64.5 -14t28.5 -57l15 52q199 0 348 19l-168 -531q-9 -32 -9 -47q0 -37 38 -37q55 0 78 64l18 51h39zM816 1411 q-14 19 -34 19q-42 0 -94.5 -70t-89.5 -177t-37 -210q0 -111 45 -111q30 0 65 45t67 120l93 325q-1 40 -15 59z" />
<glyph unicode="&#xab;" horiz-adv-x="1294" d="M714.5 894q-68.5 -112 -143.5 -211.5t-131 -152.5q32 -52 61 -152t46 -211t16 -196h-37q-119 164 -237 295.5t-258 243.5l10 41q188 110 363 239.5t382 301.5h37q-40 -86 -108.5 -198zM1107 752q-95 -150 -163 -222q22 -45 42.5 -130.5t31.5 -180t8 -166.5h-37 q-118 150 -217.5 257.5t-218.5 199.5l10 41q162 92 311.5 201t333.5 258h37q-43 -108 -138 -258z" />
<glyph unicode="&#xac;" horiz-adv-x="1303" d="M1208 758l-121 -420h-73l102 358h-952l18 62h1026z" />
<glyph unicode="&#xad;" horiz-adv-x="1038" />
<glyph unicode="&#xae;" horiz-adv-x="1384" d="M1093 1525q131 -77 208 -208.5t77 -286.5t-77 -286t-208 -208t-286 -77t-286 77t-208 208t-77 286t77 286.5t208 208.5t286 77t286 -77zM1050.5 592.5q111.5 68.5 176.5 185t65 252.5q0 137 -65 253t-176 184.5t-244 68.5t-244 -68.5t-176 -184.5t-65 -253 q0 -136 65 -252.5t176.5 -185t243.5 -68.5t243.5 68.5zM1047 711q-145 0 -160 92l-27 147q-6 33 -14 50t-26 27t-54 14v-214q0 -32 3.5 -47t13 -20.5t30.5 -7.5v-31q-29 0 -65.5 1t-79.5 1q-52 0 -91.5 -1t-64.5 -1v31q21 2 30.5 7.5t13 20.5t3.5 47v449q0 33 -3.5 48.5 t-13 21.5t-30.5 8v30q33 -2 147 -2q68 0 112 1t65 1q138 0 198 -40.5t60 -120.5q0 -51 -50 -97.5t-168 -65.5q69 -6 109 -20t58.5 -37.5t25.5 -62.5l35 -145q5 -35 26 -35q12 0 23 8l12 -23q-41 -34 -118 -34zM860.5 1113q30.5 36 30.5 104q0 66 -22.5 101.5t-65.5 35.5 q-21 0 -29 -11t-8 -40v-226h8q56 0 86.5 36z" />
<glyph unicode="&#xaf;" horiz-adv-x="741" d="M195 1407l12 51h721l-13 -51h-720z" />
<glyph unicode="&#xb0;" horiz-adv-x="680" d="M659 1649q57 -30 91 -86t34 -129q0 -75 -34 -131t-91 -86.5t-124 -30.5t-123.5 30.5t-90.5 86.5t-34 131q0 73 34 129t90.5 86t123.5 30t124 -30zM629.5 1251q46.5 24 76 71t29.5 112q0 63 -30 109.5t-76 70.5t-94 24t-94 -24t-75.5 -70.5t-29.5 -109.5q0 -65 29.5 -112 t75 -71t94.5 -24q48 0 94.5 24z" />
<glyph unicode="&#xb1;" horiz-adv-x="1241" d="M977 62l-18 -62h-1026l18 62h1026zM774 1241h74l-137 -483h475l-19 -62h-475l-137 -481h-74l137 481h-477l19 62h477z" />
<glyph unicode="&#xb2;" horiz-adv-x="750" d="M419.5 1500.5q91.5 43.5 209.5 43.5q90 0 144 -28.5t54 -85.5q0 -73 -74.5 -134.5t-184.5 -125t-142 -85.5q34 0 90 -11.5t93 -18t65 -6.5q76 0 76 53q0 20 -9 37l35 14q41 -61 41 -123q0 -64 -48.5 -103.5t-143.5 -39.5q-32 0 -64.5 4t-112 17t-141.5 16 q-49 2 -79.5 -3.5t-80.5 -25.5l9 37q27 20 142.5 100t200.5 174t85 174q0 82 -95 82q-101 0 -194 -94l-29 23q62 66 153.5 109.5z" />
<glyph unicode="&#xb3;" horiz-adv-x="713" d="M431 1497.5q96 46.5 204 46.5q93 0 149 -28t56 -82q0 -55 -58 -103t-143 -82t-166 -49q305 -3 305 -151q0 -96 -111 -169t-275.5 -115t-321.5 -52v37q113 9 219.5 49.5t174.5 108.5t68 157q0 91 -71 106q-39 -20 -66 -20q-15 0 -26 6.5t-11 20.5q0 37 91 34q67 31 108 78 t41 96q0 40 -22 59t-60 19q-102 0 -211 -98l-29 25q59 60 155 106.5z" />
<glyph unicode="&#xb4;" horiz-adv-x="457" d="M373 1449.5q53 107.5 80.5 156.5t68.5 90q26 26 61 42t70 16q55 0 95 -40q34 -34 34 -77q0 -61 -67 -130q-32 -32 -74 -59t-154.5 -91.5t-205.5 -129.5l-21 20q60 95 113 202.5z" />
<glyph unicode="&#xb6;" horiz-adv-x="1544" d="M978 -249.5q-161 -135.5 -464 -135.5q-153 0 -245.5 43t-92.5 139q0 80 56 129t157 49q91 0 149 -38.5t58 -110.5q0 -116 -133 -172q20 -4 47 -4q56 0 93.5 32.5t67.5 100.5t66 190q-339 0 -495 131t-156 365q0 268 128.5 493.5t349.5 357.5t487 132q80 0 214 -3t195 -3 q168 0 246 4l-10 -39q-65 -3 -103 -18.5t-58.5 -44t-33.5 -76.5l-297 -1139q-65 -247 -226 -382.5zM786.5 359q-16.5 -145 -16.5 -222q0 -39 4 -39q52 193 191.5 716.5t142.5 528.5q-8 0 -49.5 -83.5t-95.5 -215t-99 -274.5q-139 0 -267 -10t-210.5 -22.5t-83.5 -18.5 q-1 -8 73.5 -19.5t198 -20.5t263.5 -9q-35 -166 -51.5 -311z" />
<glyph unicode="&#xb7;" horiz-adv-x="635" d="M141 630.5q30 49.5 82 77.5t117 28q79 0 120.5 -35.5t41.5 -104.5q0 -54 -31 -103t-84 -79.5t-116 -30.5q-79 0 -119.5 34.5t-40.5 100.5q0 63 30 112.5z" />
<glyph unicode="&#xb8;" horiz-adv-x="467" d="M287 -113q65 0 106 -22t41 -66q0 -64 -56 -105t-145 -60t-190 -19q-110 0 -197 37l13 33q60 -21 125 -21q59 0 113.5 18t54.5 68q0 22 -16 34.5t-42 12.5q-35 0 -63 -14l172 217h59l-102 -137q74 24 127 24z" />
<glyph unicode="&#xb9;" horiz-adv-x="569" d="M264 895l150 457q-131 -40 -201 -54l10 39q110 28 192.5 61.5t135.5 64.5t125 79h39l-207 -647h-244z" />
<glyph unicode="&#xba;" horiz-adv-x="1116" d="M281.5 1218.5q68.5 109.5 199.5 185t310 75.5q177 0 277.5 -69.5t100.5 -207.5q0 -95 -68 -204t-199 -184t-310 -75q-178 0 -278.5 69t-100.5 206q0 95 68.5 204.5zM672.5 1356.5q-55.5 -85.5 -91.5 -214t-36 -247.5t57 -119q53 0 108.5 85t91.5 213.5t36 248.5 q0 119 -58 119q-52 0 -107.5 -85.5z" />
<glyph unicode="&#xbb;" horiz-adv-x="1292" d="M968 793.5q118 -131.5 259 -242.5l-10 -41q-191 -110 -366 -238.5t-382 -300.5h-37q40 85 108.5 196.5t142.5 211t130 151.5q-31 53 -59.5 153.5t-45.5 212.5t-16 196h37q121 -167 239 -298.5zM484.5 749.5q98.5 -107.5 217.5 -198.5l-10 -41q-163 -93 -315 -203 t-328 -254h-37q44 108 137.5 257t159.5 220q-21 46 -41 132t-31 181.5t-8 166.5h37q120 -153 218.5 -260.5z" />
<glyph unicode="&#xbc;" horiz-adv-x="1452" d="M-201 -113l-31 27l1706 1774l31 -27zM264 895l150 457q-131 -40 -201 -54l10 39q110 28 192.5 61.5t135.5 64.5t125 79h39l-207 -647h-244zM984 129l-45 -145h-99l-46 -158h-189l46 158h-404l10 36l738 629h38l-151 -520h102zM776 413l-336 -284h253z" />
<glyph unicode="&#xbd;" horiz-adv-x="1292" d="M-201 -113l-31 27l1706 1774l31 -27zM264 895l150 457q-131 -40 -201 -54l10 39q110 28 192.5 61.5t135.5 64.5t125 79h39l-207 -647h-244zM742.5 605.5q91.5 43.5 209.5 43.5q90 0 144 -28.5t54 -85.5q0 -73 -74.5 -134.5t-184.5 -125t-142 -85.5q34 0 90 -11.5t93 -18 t65 -6.5q76 0 76 53q0 20 -9 37l35 14q41 -61 41 -123q0 -64 -48.5 -103.5t-143.5 -39.5q-32 0 -64.5 4t-112 17t-141.5 16q-49 2 -79.5 -3.5t-80.5 -25.5l9 37q27 20 142.5 100t200.5 174t85 174q0 82 -95 82q-101 0 -194 -94l-29 23q62 66 153.5 109.5z" />
<glyph unicode="&#xbe;" horiz-adv-x="1595" d="M4 -113l-31 27l1706 1774l31 -27zM431 1497.5q96 46.5 204 46.5q93 0 149 -28t56 -82q0 -55 -58 -103t-143 -82t-166 -49q305 -3 305 -151q0 -96 -111 -169t-275.5 -115t-321.5 -52v37q113 9 219.5 49.5t174.5 108.5t68 157q0 91 -71 106q-39 -20 -66 -20q-15 0 -26 6.5 t-11 20.5q0 37 91 34q67 31 108 78t41 96q0 40 -22 59t-60 19q-102 0 -211 -98l-29 25q59 60 155 106.5zM1189 129l-45 -145h-99l-46 -158h-189l46 158h-404l10 36l738 629h38l-151 -520h102zM981 413l-336 -284h253z" />
<glyph unicode="&#xbf;" horiz-adv-x="1057" d="M470 986.5q30 49.5 82 77.5t117 28q79 0 120.5 -35.5t41.5 -104.5q0 -54 -31 -103t-84 -79.5t-116 -30.5q-79 0 -119.5 34.5t-40.5 100.5q0 63 30 112.5zM598 -315q-71 8 -119.5 52t-48.5 107q0 45 25.5 82t68 57.5t92.5 20.5q70 0 120 -40t50 -116q0 -87 -67.5 -139 t-167.5 -73t-209 -21q-132 0 -230.5 29.5t-152 85.5t-53.5 133q0 59 33 108t93 96t181 128q98 66 150 107.5t80 85.5t28 97q0 117 -131 117q-67 0 -117 -20q33 -2 63.5 -19.5t50 -48t19.5 -68.5q0 -40 -22.5 -72t-61.5 -50.5t-88 -18.5q-64 0 -103.5 33t-39.5 94 q0 80 66 128.5t161.5 68.5t192.5 20q114 0 206 -26t145.5 -76t53.5 -119q0 -61 -41 -117t-99.5 -101.5t-150.5 -107.5q-108 -72 -162 -114t-83 -85t-29 -96q0 -70 46.5 -105.5t121.5 -35.5q80 0 129 19z" />
<glyph unicode="&#xc0;" horiz-adv-x="1370" d="M1167 74q29 -31 66 -33l-8 -41q-120 6 -346 6q-238 0 -349 -6l9 41q66 3 103 15.5t55.5 43t18.5 87.5q0 17 -1 26l-18 336h-402l-199 -281q-48 -70 -48 -117q0 -96 188 -110l-9 -41q-211 6 -290 6q-70 0 -134 -6l9 41q40 11 74 36.5t73.5 73t101.5 134.5l836 1175 q33 -4 79 -4t75 4l82 -1288q5 -67 34 -98zM670 1079l-346 -489h371zM950 1618q-61 13 -154.5 28t-139.5 40q-37 19 -59 51.5t-22 70.5q0 28 13 54q18 37 53.5 56.5t75.5 19.5q35 0 64 -15q35 -16 60.5 -40.5t95.5 -109t167 -167.5l-14 -25q-79 24 -140 37z" />
<glyph unicode="&#xc1;" horiz-adv-x="1370" d="M1167 74q29 -31 66 -33l-8 -41q-120 6 -346 6q-238 0 -349 -6l9 41q66 3 103 15.5t55.5 43t18.5 87.5q0 17 -1 26l-18 336h-402l-199 -281q-48 -70 -48 -117q0 -96 188 -110l-9 -41q-211 6 -290 6q-70 0 -134 -6l9 41q40 11 74 36.5t73.5 73t101.5 134.5l836 1175 q33 -4 79 -4t75 4l82 -1288q5 -67 34 -98zM670 1079l-346 -489h371zM1008 1768q82 88 122.5 127t92.5 67q43 24 94 24q88 0 127 -71q15 -29 15 -55q0 -75 -107 -136q-39 -21 -87 -35t-174 -43.5t-235 -64.5l-14 25q84 74 166 162z" />
<glyph unicode="&#xc2;" horiz-adv-x="1370" d="M1167 74q29 -31 66 -33l-8 -41q-120 6 -346 6q-238 0 -349 -6l9 41q66 3 103 15.5t55.5 43t18.5 87.5q0 17 -1 26l-18 336h-402l-199 -281q-48 -70 -48 -117q0 -96 188 -110l-9 -41q-211 6 -290 6q-70 0 -134 -6l9 41q40 11 74 36.5t73.5 73t101.5 134.5l836 1175 q33 -4 79 -4t75 4l82 -1288q5 -67 34 -98zM670 1079l-346 -489h371zM1170.5 1626.5q-101.5 25.5 -195.5 61.5q-200 -68 -460 -111l-11 29q182 57 343.5 152t260.5 200h37q41 -126 104.5 -207t180.5 -145l-8 -29q-150 24 -251.5 49.5z" />
<glyph unicode="&#xc3;" horiz-adv-x="1370" d="M1167 74q29 -31 66 -33l-8 -41q-120 6 -346 6q-238 0 -349 -6l9 41q66 3 103 15.5t55.5 43t18.5 87.5q0 17 -1 26l-18 336h-402l-199 -281q-48 -70 -48 -117q0 -96 188 -110l-9 -41q-211 6 -290 6q-70 0 -134 -6l9 41q40 11 74 36.5t73.5 73t101.5 134.5l836 1175 q33 -4 79 -4t75 4l82 -1288q5 -67 34 -98zM670 1079l-346 -489h371zM694.5 1859q104.5 83 221.5 83q77 0 128 -21.5t131 -75t153 -53.5q48 0 88.5 28t79.5 91l37 -10q-62 -169 -167 -251.5t-222 -82.5q-77 0 -128.5 21t-131 74.5t-152.5 53.5q-49 0 -89 -28t-79 -91l-37 11 q63 168 167.5 251z" />
<glyph unicode="&#xc4;" horiz-adv-x="1370" d="M1167 74q29 -31 66 -33l-8 -41q-120 6 -346 6q-238 0 -349 -6l9 41q66 3 103 15.5t55.5 43t18.5 87.5q0 17 -1 26l-18 336h-402l-199 -281q-48 -70 -48 -117q0 -96 188 -110l-9 -41q-211 6 -290 6q-70 0 -134 -6l9 41q40 11 74 36.5t73.5 73t101.5 134.5l836 1175 q33 -4 79 -4t75 4l82 -1288q5 -67 34 -98zM670 1079l-346 -489h371zM579 1829q28 45 74 66.5t101 21.5q78 0 116 -43t38 -117q0 -67 -29 -111t-76 -64.5t-100 -20.5q-78 0 -115 41t-37 114q0 68 28 113zM1108 1829q28 45 73.5 66.5t100.5 21.5q78 0 116 -43t38 -117 q0 -67 -29 -111t-75.5 -64.5t-100.5 -20.5q-78 0 -114.5 41t-36.5 114q0 68 28 113z" />
<glyph unicode="&#xc5;" horiz-adv-x="1370" d="M1167 74q29 -31 66 -33l-8 -41q-120 6 -346 6q-238 0 -349 -6l9 41q66 3 103 15.5t55.5 43t18.5 87.5q0 17 -1 26l-18 336h-402l-199 -281q-48 -70 -48 -117q0 -96 188 -110l-9 -41q-211 6 -290 6q-70 0 -134 -6l9 41q40 11 74 36.5t73.5 73t101.5 134.5l836 1175 q33 -4 79 -4t75 4l82 -1288q5 -67 34 -98zM670 1079l-346 -489h371zM1149.5 1912.5q49.5 -22.5 78 -64t28.5 -95.5q0 -63 -38 -116.5t-100.5 -85t-133.5 -31.5q-60 0 -107.5 22t-74.5 64t-27 98q0 64 35 117t95.5 83.5t133.5 30.5q61 0 110.5 -22.5zM1095 1588q48 25 78 68 t30 93q0 46 -25 78.5t-64 48.5t-81 16q-54 0 -101 -26.5t-74.5 -70t-27.5 -91.5q0 -44 23 -76t61 -48.5t80 -16.5q53 0 101 25z" />
<glyph unicode="&#xc6;" horiz-adv-x="1864" d="M1550 1444q295 0 424 6q-26 -71 -48.5 -146t-29.5 -96q-18 -61 -26 -127h-45q15 86 15 145q0 96 -42.5 136.5t-138.5 40.5h-88q-71 0 -106.5 -12t-57 -46.5t-41.5 -111.5l-128 -483h118q58 0 96.5 30.5t62 76t52.5 122.5h45q-26 -79 -43.5 -148.5t-26.5 -101.5 q-25 -92 -53 -250h-45q0 20 5 63t5 63q0 46 -22.5 73t-83.5 31h-121l-131 -492q-18 -70 -18 -100q0 -29 13.5 -44t41.5 -20.5t79 -5.5h109q99 0 162.5 34t109.5 111t95 218h45q-17 -42 -43 -148q-32 -108 -54 -262q-139 6 -462 6q-476 0 -713 -6l8 41q74 3 110.5 16t58.5 48 t42 112l131 492h-323l-427 -516q-58 -68 -58 -97q0 -45 126 -55v-41q-55 6 -176 6q-89 0 -137 -6v41q63 3 176 131l974 1179q-6 32 -36.5 43.5t-100.5 14.5l11 41l204 -4l113 137h53l-113 -137q177 -2 453 -2zM950 1233q7 29 12 50l-441 -533h301z" />
<glyph unicode="&#xc7;" horiz-adv-x="1450" d="M1442 979h-45q20 118 20 177q0 90 -35 149q-38 65 -92 90.5t-133 25.5q-161 0 -301.5 -133.5t-224.5 -355.5t-84 -475q0 -207 70.5 -307.5t197.5 -100.5q69 0 141.5 31.5t124.5 87.5q54 58 94 129t91 195h45q-97 -355 -121 -492h-45q6 44 6 70q0 52 -26 52q-16 0 -42 -18 q-192 -133 -409 -133q-305 0 -451.5 136t-146.5 389q0 246 135.5 473t373.5 368.5t529 141.5q112 0 181 -35.5t122 -97.5q15 -18 30 -18q38 0 83 122h43q-68 -177 -131 -471zM790 -92q73 0 115.5 -27t42.5 -82q0 -64 -53 -105t-137.5 -60t-180.5 -19q-69 0 -132.5 11.5 t-104.5 25.5l12 33q23 -6 74.5 -13.5t91.5 -7.5q168 0 168 86q0 47 -57 47q-32 0 -64 -14l100 231h56l-58 -131q62 25 127 25z" />
<glyph unicode="&#xc8;" d="M991 1444q295 0 424 6q-50 -129 -78 -242q-11 -46 -26 -127h-45q1 119 -26.5 190t-82 101.5t-139.5 30.5h-6q-71 0 -106.5 -12t-57 -46.5t-41.5 -111.5l-128 -483h36q64 0 123 31.5t103 84t67 113.5h45q-26 -79 -43.5 -148.5t-26.5 -101.5q-27 -102 -53 -250h-45 q0 54 -19 106.5t-63.5 88t-116.5 35.5h-18l-131 -492q-18 -70 -18 -100q0 -29 13.5 -44t41.5 -20.5t79 -5.5h27q100 0 175.5 34.5t140.5 113t132 215.5h46q-14 -36 -44 -148q-32 -117 -53 -262q-139 6 -463 6q-475 0 -712 -6l8 41q74 3 110.5 16t58.5 48t42 112l270 1016 q17 65 17 98q0 31 -13.5 47t-42.5 22.5t-82 8.5l11 41q235 -6 710 -6zM860 1618q-61 13 -154.5 28t-139.5 40q-37 19 -59 51.5t-22 70.5q0 28 13 54q18 37 53.5 56.5t75.5 19.5q35 0 64 -15q35 -16 60.5 -40.5t95.5 -109t167 -167.5l-14 -25q-79 24 -140 37z" />
<glyph unicode="&#xc9;" d="M991 1444q295 0 424 6q-50 -129 -78 -242q-11 -46 -26 -127h-45q1 119 -26.5 190t-82 101.5t-139.5 30.5h-6q-71 0 -106.5 -12t-57 -46.5t-41.5 -111.5l-128 -483h36q64 0 123 31.5t103 84t67 113.5h45q-26 -79 -43.5 -148.5t-26.5 -101.5q-27 -102 -53 -250h-45 q0 54 -19 106.5t-63.5 88t-116.5 35.5h-18l-131 -492q-18 -70 -18 -100q0 -29 13.5 -44t41.5 -20.5t79 -5.5h27q100 0 175.5 34.5t140.5 113t132 215.5h46q-14 -36 -44 -148q-32 -117 -53 -262q-139 6 -463 6q-475 0 -712 -6l8 41q74 3 110.5 16t58.5 48t42 112l270 1016 q17 65 17 98q0 31 -13.5 47t-42.5 22.5t-82 8.5l11 41q235 -6 710 -6zM918 1768q82 88 122.5 127t92.5 67q43 24 94 24q88 0 127 -71q15 -29 15 -55q0 -75 -107 -136q-39 -21 -87 -35t-174 -43.5t-235 -64.5l-14 25q84 74 166 162z" />
<glyph unicode="&#xca;" d="M991 1444q295 0 424 6q-50 -129 -78 -242q-11 -46 -26 -127h-45q1 119 -26.5 190t-82 101.5t-139.5 30.5h-6q-71 0 -106.5 -12t-57 -46.5t-41.5 -111.5l-128 -483h36q64 0 123 31.5t103 84t67 113.5h45q-26 -79 -43.5 -148.5t-26.5 -101.5q-27 -102 -53 -250h-45 q0 54 -19 106.5t-63.5 88t-116.5 35.5h-18l-131 -492q-18 -70 -18 -100q0 -29 13.5 -44t41.5 -20.5t79 -5.5h27q100 0 175.5 34.5t140.5 113t132 215.5h46q-14 -36 -44 -148q-32 -117 -53 -262q-139 6 -463 6q-475 0 -712 -6l8 41q74 3 110.5 16t58.5 48t42 112l270 1016 q17 65 17 98q0 31 -13.5 47t-42.5 22.5t-82 8.5l11 41q235 -6 710 -6zM1080.5 1626.5q-101.5 25.5 -195.5 61.5q-200 -68 -460 -111l-11 29q182 57 343.5 152t260.5 200h37q41 -126 104.5 -207t180.5 -145l-8 -29q-150 24 -251.5 49.5z" />
<glyph unicode="&#xcb;" d="M991 1444q295 0 424 6q-50 -129 -78 -242q-11 -46 -26 -127h-45q1 119 -26.5 190t-82 101.5t-139.5 30.5h-6q-71 0 -106.5 -12t-57 -46.5t-41.5 -111.5l-128 -483h36q64 0 123 31.5t103 84t67 113.5h45q-26 -79 -43.5 -148.5t-26.5 -101.5q-27 -102 -53 -250h-45 q0 54 -19 106.5t-63.5 88t-116.5 35.5h-18l-131 -492q-18 -70 -18 -100q0 -29 13.5 -44t41.5 -20.5t79 -5.5h27q100 0 175.5 34.5t140.5 113t132 215.5h46q-14 -36 -44 -148q-32 -117 -53 -262q-139 6 -463 6q-475 0 -712 -6l8 41q74 3 110.5 16t58.5 48t42 112l270 1016 q17 65 17 98q0 31 -13.5 47t-42.5 22.5t-82 8.5l11 41q235 -6 710 -6zM489 1829q28 45 74 66.5t101 21.5q78 0 116 -43t38 -117q0 -67 -29 -111t-76 -64.5t-100 -20.5q-78 0 -115 41t-37 114q0 68 28 113zM1018 1829q28 45 73.5 66.5t100.5 21.5q78 0 116 -43t38 -117 q0 -67 -29 -111t-75.5 -64.5t-100.5 -20.5q-78 0 -114.5 41t-36.5 114q0 68 28 113z" />
<glyph unicode="&#xcc;" horiz-adv-x="864" d="M519 117q0 -30 13.5 -45.5t42.5 -22t82 -8.5l-8 -41q-132 6 -383 6q-242 0 -362 -6l10 41q71 3 107 16t58 48.5t42 111.5l270 1016q17 65 17 98q0 31 -13.5 47t-42.5 22.5t-82 8.5l11 41q113 -6 362 -6q232 0 385 6l-10 -41q-75 -3 -111.5 -16t-58 -48t-41.5 -112 l-270 -1016q-18 -70 -18 -100zM688 1618q-61 13 -154.5 28t-139.5 40q-37 19 -59 51.5t-22 70.5q0 28 13 54q18 37 53.5 56.5t75.5 19.5q35 0 64 -15q35 -16 60.5 -40.5t95.5 -109t167 -167.5l-14 -25q-79 24 -140 37z" />
<glyph unicode="&#xcd;" horiz-adv-x="864" d="M519 117q0 -30 13.5 -45.5t42.5 -22t82 -8.5l-8 -41q-132 6 -383 6q-242 0 -362 -6l10 41q71 3 107 16t58 48.5t42 111.5l270 1016q17 65 17 98q0 31 -13.5 47t-42.5 22.5t-82 8.5l11 41q113 -6 362 -6q232 0 385 6l-10 -41q-75 -3 -111.5 -16t-58 -48t-41.5 -112 l-270 -1016q-18 -70 -18 -100zM746 1768q82 88 122.5 127t92.5 67q43 24 94 24q88 0 127 -71q15 -29 15 -55q0 -75 -107 -136q-39 -21 -87 -35t-174 -43.5t-235 -64.5l-14 25q84 74 166 162z" />
<glyph unicode="&#xce;" horiz-adv-x="864" d="M519 117q0 -30 13.5 -45.5t42.5 -22t82 -8.5l-8 -41q-132 6 -383 6q-242 0 -362 -6l10 41q71 3 107 16t58 48.5t42 111.5l270 1016q17 65 17 98q0 31 -13.5 47t-42.5 22.5t-82 8.5l11 41q113 -6 362 -6q232 0 385 6l-10 -41q-75 -3 -111.5 -16t-58 -48t-41.5 -112 l-270 -1016q-18 -70 -18 -100zM908.5 1626.5q-101.5 25.5 -195.5 61.5q-200 -68 -460 -111l-11 29q182 57 343.5 152t260.5 200h37q41 -126 104.5 -207t180.5 -145l-8 -29q-150 24 -251.5 49.5z" />
<glyph unicode="&#xcf;" horiz-adv-x="864" d="M519 117q0 -30 13.5 -45.5t42.5 -22t82 -8.5l-8 -41q-132 6 -383 6q-242 0 -362 -6l10 41q71 3 107 16t58 48.5t42 111.5l270 1016q17 65 17 98q0 31 -13.5 47t-42.5 22.5t-82 8.5l11 41q113 -6 362 -6q232 0 385 6l-10 -41q-75 -3 -111.5 -16t-58 -48t-41.5 -112 l-270 -1016q-18 -70 -18 -100zM317 1829q28 45 74 66.5t101 21.5q78 0 116 -43t38 -117q0 -67 -29 -111t-76 -64.5t-100 -20.5q-78 0 -115 41t-37 114q0 68 28 113zM846 1829q28 45 73.5 66.5t100.5 21.5q78 0 116 -43t38 -117q0 -67 -29 -111t-75.5 -64.5t-100.5 -20.5 q-78 0 -114.5 41t-36.5 114q0 68 28 113z" />
<glyph unicode="&#xd0;" horiz-adv-x="1642" d="M597 1443l75 1q171 6 303 6q307 0 476 -130t169 -384q0 -222 -106.5 -436.5t-339.5 -357t-590 -142.5q-43 0 -133 3t-191 3q-225 0 -348 -6l6 41q70 3 105.5 16t57.5 48.5t42 111.5l268 1016q13 49 13 80q0 44 -29.5 68t-102.5 28l7 41q163 -7 318 -7zM514 91 q0 -30 19 -42t67 -12q180 0 316.5 149.5t209 376t72.5 447.5q0 403 -260 403q-46 0 -65.5 -12t-30 -40.5t-35.5 -123.5l-268 -1024q-25 -93 -25 -122zM112 706l13 52h884l-12 -52h-885z" />
<glyph unicode="&#xd1;" horiz-adv-x="1763" d="M1532 1413q90 131 221 131q71 0 125.5 -29t84.5 -79t30 -111q0 -64 -30.5 -113t-83 -75.5t-116.5 -26.5q-84 0 -133 40t-49 112q0 60 27.5 109t76 80.5t109.5 41.5q-16 16 -51 16q-50 0 -94.5 -30.5t-79.5 -81.5q-91 -136 -189 -477t-223 -930h-45l-536 975 q-173 -831 -291 -988q-45 -60 -95.5 -94.5t-123.5 -34.5q-71 0 -125.5 29t-84.5 79t-30 112q0 64 30.5 113t82.5 75.5t116 26.5q84 0 133.5 -40.5t49.5 -111.5q0 -60 -28 -109t-76.5 -80.5t-108.5 -41.5q15 -17 51 -17q103 0 176 115q77 120 158.5 430t177.5 801v4 q12 57 12 91t-14.5 51.5t-47.5 24.5t-96 9l11 41q64 -6 182 -6q95 0 166 6l447 -870q157 649 284 833zM878.5 1859q104.5 83 221.5 83q77 0 128 -21.5t131 -75t153 -53.5q48 0 88.5 28t79.5 91l37 -10q-62 -169 -167 -251.5t-222 -82.5q-77 0 -128.5 21t-131 74.5 t-152.5 53.5q-49 0 -89 -28t-79 -91l-37 11q63 168 167.5 251z" />
<glyph unicode="&#xd2;" horiz-adv-x="1657" d="M194.5 932q124.5 237 348.5 392t504 155q188 0 324 -58t209 -169t73 -267q0 -231 -125.5 -467.5t-350 -391.5t-503.5 -155q-188 0 -324 58t-208 168.5t-72 265.5q0 232 124.5 469zM779 1294.5q-120 -147.5 -193.5 -381.5t-73.5 -477q0 -131 23 -228t64 -148.5t93 -51.5 q129 0 249 147.5t193.5 381.5t73.5 477q0 131 -23 228t-63.5 148.5t-93.5 51.5q-129 0 -249 -147.5zM1079 1618q-61 13 -154.5 28t-139.5 40q-37 19 -59 51.5t-22 70.5q0 28 13 54q18 37 53.5 56.5t75.5 19.5q35 0 64 -15q35 -16 60.5 -40.5t95.5 -109t167 -167.5l-14 -25 q-79 24 -140 37z" />
<glyph unicode="&#xd3;" horiz-adv-x="1657" d="M194.5 932q124.5 237 348.5 392t504 155q188 0 324 -58t209 -169t73 -267q0 -231 -125.5 -467.5t-350 -391.5t-503.5 -155q-188 0 -324 58t-208 168.5t-72 265.5q0 232 124.5 469zM779 1294.5q-120 -147.5 -193.5 -381.5t-73.5 -477q0 -131 23 -228t64 -148.5t93 -51.5 q129 0 249 147.5t193.5 381.5t73.5 477q0 131 -23 228t-63.5 148.5t-93.5 51.5q-129 0 -249 -147.5zM1137 1768q82 88 122.5 127t92.5 67q43 24 94 24q88 0 127 -71q15 -29 15 -55q0 -75 -107 -136q-39 -21 -87 -35t-174 -43.5t-235 -64.5l-14 25q84 74 166 162z" />
<glyph unicode="&#xd4;" horiz-adv-x="1657" d="M194.5 932q124.5 237 348.5 392t504 155q188 0 324 -58t209 -169t73 -267q0 -231 -125.5 -467.5t-350 -391.5t-503.5 -155q-188 0 -324 58t-208 168.5t-72 265.5q0 232 124.5 469zM779 1294.5q-120 -147.5 -193.5 -381.5t-73.5 -477q0 -131 23 -228t64 -148.5t93 -51.5 q129 0 249 147.5t193.5 381.5t73.5 477q0 131 -23 228t-63.5 148.5t-93.5 51.5q-129 0 -249 -147.5zM1299.5 1626.5q-101.5 25.5 -195.5 61.5q-200 -68 -460 -111l-11 29q182 57 343.5 152t260.5 200h37q41 -126 104.5 -207t180.5 -145l-8 -29q-150 24 -251.5 49.5z" />
<glyph unicode="&#xd5;" horiz-adv-x="1657" d="M194.5 932q124.5 237 348.5 392t504 155q188 0 324 -58t209 -169t73 -267q0 -231 -125.5 -467.5t-350 -391.5t-503.5 -155q-188 0 -324 58t-208 168.5t-72 265.5q0 232 124.5 469zM779 1294.5q-120 -147.5 -193.5 -381.5t-73.5 -477q0 -131 23 -228t64 -148.5t93 -51.5 q129 0 249 147.5t193.5 381.5t73.5 477q0 131 -23 228t-63.5 148.5t-93.5 51.5q-129 0 -249 -147.5zM823.5 1859q104.5 83 221.5 83q77 0 128 -21.5t131 -75t153 -53.5q48 0 88.5 28t79.5 91l37 -10q-62 -169 -167 -251.5t-222 -82.5q-77 0 -128.5 21t-131 74.5t-152.5 53.5 q-49 0 -89 -28t-79 -91l-37 11q63 168 167.5 251z" />
<glyph unicode="&#xd6;" horiz-adv-x="1657" d="M194.5 932q124.5 237 348.5 392t504 155q188 0 324 -58t209 -169t73 -267q0 -231 -125.5 -467.5t-350 -391.5t-503.5 -155q-188 0 -324 58t-208 168.5t-72 265.5q0 232 124.5 469zM779 1294.5q-120 -147.5 -193.5 -381.5t-73.5 -477q0 -131 23 -228t64 -148.5t93 -51.5 q129 0 249 147.5t193.5 381.5t73.5 477q0 131 -23 228t-63.5 148.5t-93.5 51.5q-129 0 -249 -147.5zM708 1829q28 45 74 66.5t101 21.5q78 0 116 -43t38 -117q0 -67 -29 -111t-76 -64.5t-100 -20.5q-78 0 -115 41t-37 114q0 68 28 113zM1237 1829q28 45 73.5 66.5 t100.5 21.5q78 0 116 -43t38 -117q0 -67 -29 -111t-75.5 -64.5t-100.5 -20.5q-78 0 -114.5 41t-36.5 114q0 68 28 113z" />
<glyph unicode="&#xd7;" horiz-adv-x="993" d="M227 1085l54 37l251 -358l465 362l33 -45l-465 -360l256 -354l-51 -37l-254 354l-459 -356l-30 45l456 354z" />
<glyph unicode="&#xd8;" horiz-adv-x="1657" d="M1653 985q0 -231 -125.5 -467.5t-350 -391.5t-503.5 -155q-250 0 -405 101l-216 -222l-35 29l215 219q-163 129 -163 365q0 232 124.5 469t348.5 392t504 155q246 0 400 -98l193 202l31 -27l-189 -199q171 -131 171 -372zM1140.5 1363q-46.5 79 -112.5 79 q-129 0 -249 -147.5t-193.5 -381.5t-73.5 -477q0 -58 5 -110l685 816q-15 142 -61.5 221zM587 76q45 -68 105 -68q129 0 249 147.5t193.5 381.5t73.5 477q0 35 -2 68l-682 -815q18 -123 63 -191z" />
<glyph unicode="&#xd9;" horiz-adv-x="1438" d="M1378 1281q0 41 -15.5 66t-49.5 39t-94 23l12 41q80 -6 227 -6q108 0 172 6l-12 -41q-67 -14 -105 -44t-65 -91.5t-59 -183.5l-127 -494q-75 -285 -201 -434q-75 -88 -185 -139.5t-235 -51.5q-179 0 -292.5 52.5t-162.5 142.5q-42 78 -42 183q0 98 38 241l170 643 q17 65 17 98q0 31 -13.5 47t-42.5 22.5t-82 8.5l13 41q120 -6 387 -6q214 0 358 6l-12 -41q-75 -3 -111.5 -16t-58 -48t-41.5 -112l-180 -678q-51 -191 -51 -309q0 -203 145 -203q215 0 338.5 139.5t189.5 390.5l125 476q45 170 45 232zM997 1618q-61 13 -154.5 28 t-139.5 40q-37 19 -59 51.5t-22 70.5q0 28 13 54q18 37 53.5 56.5t75.5 19.5q35 0 64 -15q35 -16 60.5 -40.5t95.5 -109t167 -167.5l-14 -25q-79 24 -140 37z" />
<glyph unicode="&#xda;" horiz-adv-x="1438" d="M1378 1281q0 41 -15.5 66t-49.5 39t-94 23l12 41q80 -6 227 -6q108 0 172 6l-12 -41q-67 -14 -105 -44t-65 -91.5t-59 -183.5l-127 -494q-75 -285 -201 -434q-75 -88 -185 -139.5t-235 -51.5q-179 0 -292.5 52.5t-162.5 142.5q-42 78 -42 183q0 98 38 241l170 643 q17 65 17 98q0 31 -13.5 47t-42.5 22.5t-82 8.5l13 41q120 -6 387 -6q214 0 358 6l-12 -41q-75 -3 -111.5 -16t-58 -48t-41.5 -112l-180 -678q-51 -191 -51 -309q0 -203 145 -203q215 0 338.5 139.5t189.5 390.5l125 476q45 170 45 232zM1055 1768q82 88 122.5 127t92.5 67 q43 24 94 24q88 0 127 -71q15 -29 15 -55q0 -75 -107 -136q-39 -21 -87 -35t-174 -43.5t-235 -64.5l-14 25q84 74 166 162z" />
<glyph unicode="&#xdb;" horiz-adv-x="1438" d="M1378 1281q0 41 -15.5 66t-49.5 39t-94 23l12 41q80 -6 227 -6q108 0 172 6l-12 -41q-67 -14 -105 -44t-65 -91.5t-59 -183.5l-127 -494q-75 -285 -201 -434q-75 -88 -185 -139.5t-235 -51.5q-179 0 -292.5 52.5t-162.5 142.5q-42 78 -42 183q0 98 38 241l170 643 q17 65 17 98q0 31 -13.5 47t-42.5 22.5t-82 8.5l13 41q120 -6 387 -6q214 0 358 6l-12 -41q-75 -3 -111.5 -16t-58 -48t-41.5 -112l-180 -678q-51 -191 -51 -309q0 -203 145 -203q215 0 338.5 139.5t189.5 390.5l125 476q45 170 45 232zM1217.5 1626.5 q-101.5 25.5 -195.5 61.5q-200 -68 -460 -111l-11 29q182 57 343.5 152t260.5 200h37q41 -126 104.5 -207t180.5 -145l-8 -29q-150 24 -251.5 49.5z" />
<glyph unicode="&#xdc;" horiz-adv-x="1438" d="M1378 1281q0 41 -15.5 66t-49.5 39t-94 23l12 41q80 -6 227 -6q108 0 172 6l-12 -41q-67 -14 -105 -44t-65 -91.5t-59 -183.5l-127 -494q-75 -285 -201 -434q-75 -88 -185 -139.5t-235 -51.5q-179 0 -292.5 52.5t-162.5 142.5q-42 78 -42 183q0 98 38 241l170 643 q17 65 17 98q0 31 -13.5 47t-42.5 22.5t-82 8.5l13 41q120 -6 387 -6q214 0 358 6l-12 -41q-75 -3 -111.5 -16t-58 -48t-41.5 -112l-180 -678q-51 -191 -51 -309q0 -203 145 -203q215 0 338.5 139.5t189.5 390.5l125 476q45 170 45 232zM626 1829q28 45 74 66.5t101 21.5 q78 0 116 -43t38 -117q0 -67 -29 -111t-76 -64.5t-100 -20.5q-78 0 -115 41t-37 114q0 68 28 113zM1155 1829q28 45 73.5 66.5t100.5 21.5q78 0 116 -43t38 -117q0 -67 -29 -111t-75.5 -64.5t-100.5 -20.5q-78 0 -114.5 41t-36.5 114q0 68 28 113z" />
<glyph unicode="&#xdd;" horiz-adv-x="1589" d="M327.5 1422q91.5 57 211.5 57q152 0 234 -80t120.5 -227.5t69.5 -415.5q128 395 303 600q105 123 243 123q71 0 125.5 -29t84.5 -79t30 -111q0 -64 -30.5 -113.5t-82.5 -76t-116 -26.5q-84 0 -133.5 40.5t-49.5 111.5q0 60 28 109t76.5 80.5t108.5 41.5q-15 17 -51 17 q-33 0 -63.5 -11t-67.5 -38q-53 -39 -126.5 -146t-148.5 -272.5t-130 -367.5l-99 -392q-11 -46 -11 -73q0 -41 19 -62.5t55.5 -29.5t98.5 -11l-10 -41q-129 6 -418 6q-251 0 -371 -6l11 41q74 3 111 16t59 48.5t41 111.5l105 419q-18 167 -50 318.5t-78.5 250t-103.5 98.5 q-36 0 -57 -27t-36 -70l-34 -104h-45l43 131q43 132 134.5 189zM1034 1768q82 88 122.5 127t92.5 67q43 24 94 24q88 0 127 -71q15 -29 15 -55q0 -75 -107 -136q-39 -21 -87 -35t-174 -43.5t-235 -64.5l-14 25q84 74 166 162z" />
<glyph unicode="&#xde;" horiz-adv-x="1430" d="M519 117q0 -30 13.5 -45.5t42.5 -22t82 -8.5l-8 -41q-132 6 -383 6q-242 0 -362 -6l10 41q71 3 107 16t58 48.5t42 111.5l270 1016q17 65 17 98q0 31 -13.5 47t-42.5 22.5t-82 8.5l11 41q113 -6 362 -6q232 0 385 6l-10 -41q-75 -3 -111.5 -16t-58 -48t-41.5 -112 l-26 -98q77 2 126 2q177 0 295.5 -38t177 -107.5t58.5 -164.5q0 -158 -112 -284.5t-313.5 -199t-461.5 -73.5l-14 -53q-18 -70 -18 -100zM805 389.5q100 78.5 150.5 204t50.5 266.5q0 68 -23.5 122t-68.5 85t-107 31h-36l-209 -787h1q142 0 242 78.5z" />
<glyph unicode="&#xdf;" horiz-adv-x="1327" d="M376.5 1367q80.5 119 208 177t318.5 58q155 0 256 -28.5t147 -74t46 -98.5q0 -71 -51 -120t-178.5 -130t-202.5 -139q-56 -44 -83 -72t-33.5 -43.5t-6.5 -32.5q0 -56 46 -107.5t102 -97t77 -63.5q13 -11 80.5 -67t96 -109t28.5 -113q0 -111 -66 -187t-173.5 -112.5 t-233.5 -36.5q-96 0 -163.5 32.5t-101.5 88.5t-34 127q0 49 18 92t51 69t76 26q41 0 73 -25.5t50 -70.5t18 -101q0 -53 -19 -107.5t-52 -85.5q12 -4 28 -4q31 0 56.5 24.5t40 68.5t14.5 98q0 55 -9.5 100.5t-22 89t-17.5 60.5q-7 23 -26 84t-30.5 113.5t-11.5 92.5 q0 69 28.5 113.5t77 92.5t76.5 77q123 127 123 363q0 94 -39 138t-98 44q-65 0 -110 -67t-80 -201l-437 -1659q-212 -3 -368 -29l381 1440q50 193 130.5 312z" />
<glyph unicode="&#xe0;" horiz-adv-x="1192" d="M1106 332l-51 -150q-74 -211 -293 -211q-126 0 -178 72q-34 48 -34 126q0 23 1 36q-49 -127 -127 -180.5t-184 -53.5q-127 0 -190.5 65.5t-63.5 190.5q0 193 103 395.5t258 336t296 133.5q116 0 128 -118l26 87q203 3 370 31l-276 -918q-9 -27 -9 -50q0 -36 33 -36 q61 0 109 129l43 115h39zM752 934q0 57 -39 57q-58 0 -140.5 -118.5t-142 -298.5t-59.5 -355q0 -60 10 -84t37 -24q40 0 81 57.5t91 205.5l160 530q2 20 2 30zM692.5 1332q-45.5 43 -117 105t-98.5 107q-22 38 -22 78q0 33 14.5 61t42.5 46q31 20 70 20t74 -19t53 -49 q21 -32 30 -66.5t24 -143.5t54 -230l-24 -14q-55 62 -100.5 105z" />
<glyph unicode="&#xe1;" horiz-adv-x="1192" d="M1106 332l-51 -150q-74 -211 -293 -211q-126 0 -178 72q-34 48 -34 126q0 23 1 36q-49 -127 -127 -180.5t-184 -53.5q-127 0 -190.5 65.5t-63.5 190.5q0 193 103 395.5t258 336t296 133.5q116 0 128 -118l26 87q203 3 370 31l-276 -918q-9 -27 -9 -50q0 -36 33 -36 q61 0 109 129l43 115h39zM752 934q0 57 -39 57q-58 0 -140.5 -118.5t-142 -298.5t-59.5 -355q0 -60 10 -84t37 -24q40 0 81 57.5t91 205.5l160 530q2 20 2 30zM785 1449.5q53 107.5 80.5 156.5t68.5 90q26 26 61 42t70 16q55 0 95 -40q34 -34 34 -77q0 -61 -67 -130 q-32 -32 -74 -59t-154.5 -91.5t-205.5 -129.5l-21 20q60 95 113 202.5z" />
<glyph unicode="&#xe2;" horiz-adv-x="1192" d="M1106 332l-51 -150q-74 -211 -293 -211q-126 0 -178 72q-34 48 -34 126q0 23 1 36q-49 -127 -127 -180.5t-184 -53.5q-127 0 -190.5 65.5t-63.5 190.5q0 193 103 395.5t258 336t296 133.5q116 0 128 -118l26 87q203 3 370 31l-276 -918q-9 -27 -9 -50q0 -36 33 -36 q61 0 109 129l43 115h39zM752 934q0 57 -39 57q-58 0 -140.5 -118.5t-142 -298.5t-59.5 -355q0 -60 10 -84t37 -24q40 0 81 57.5t91 205.5l160 530q2 20 2 30zM758 1352q-154 -65 -378 -111l-11 29q158 69 297 186t226 248h36q33 -156 88.5 -257t155.5 -177l-8 -29 q-242 43 -406 111z" />
<glyph unicode="&#xe3;" horiz-adv-x="1192" d="M1106 332l-51 -150q-74 -211 -293 -211q-126 0 -178 72q-34 48 -34 126q0 23 1 36q-49 -127 -127 -180.5t-184 -53.5q-127 0 -190.5 65.5t-63.5 190.5q0 193 103 395.5t258 336t296 133.5q116 0 128 -118l26 87q203 3 370 31l-276 -918q-9 -27 -9 -50q0 -36 33 -36 q61 0 109 129l43 115h39zM752 934q0 57 -39 57q-58 0 -140.5 -118.5t-142 -298.5t-59.5 -355q0 -60 10 -84t37 -24q40 0 81 57.5t91 205.5l160 530q2 20 2 30zM566.5 1551.5q93.5 82.5 197.5 82.5q59 0 98 -21.5t98 -74.5t113 -53q42 0 77.5 28t70.5 91l37 -11 q-57 -168 -151 -250.5t-198 -82.5q-59 0 -97.5 21.5t-98 74.5t-113.5 53q-42 0 -77 -28t-70 -91l-37 10q57 169 150.5 251.5z" />
<glyph unicode="&#xe4;" horiz-adv-x="1192" d="M1106 332l-51 -150q-74 -211 -293 -211q-126 0 -178 72q-34 48 -34 126q0 23 1 36q-49 -127 -127 -180.5t-184 -53.5q-127 0 -190.5 65.5t-63.5 190.5q0 193 103 395.5t258 336t296 133.5q116 0 128 -118l26 87q203 3 370 31l-276 -918q-9 -27 -9 -50q0 -36 33 -36 q61 0 109 129l43 115h39zM752 934q0 57 -39 57q-58 0 -140.5 -118.5t-142 -298.5t-59.5 -355q0 -60 10 -84t37 -24q40 0 81 57.5t91 205.5l160 530q2 20 2 30zM442 1493q28 45 74 66.5t101 21.5q79 0 116.5 -42.5t37.5 -117.5q0 -67 -29 -111t-76 -64.5t-100 -20.5 q-78 0 -115 41t-37 114q0 68 28 113zM960.5 1530.5q58.5 50.5 144.5 50.5q78 0 115.5 -42.5t37.5 -117.5q0 -67 -29 -111t-75.5 -64.5t-100.5 -20.5q-78 0 -114.5 41t-36.5 114q0 100 58.5 150.5z" />
<glyph unicode="&#xe5;" horiz-adv-x="1192" d="M1106 332l-51 -150q-74 -211 -293 -211q-126 0 -178 72q-34 48 -34 126q0 23 1 36q-49 -127 -127 -180.5t-184 -53.5q-127 0 -190.5 65.5t-63.5 190.5q0 193 103 395.5t258 336t296 133.5q116 0 128 -118l26 87q203 3 370 31l-276 -918q-9 -27 -9 -50q0 -36 33 -36 q61 0 109 129l43 115h39zM752 934q0 57 -39 57q-58 0 -140.5 -118.5t-142 -298.5t-59.5 -355q0 -60 10 -84t37 -24q40 0 81 57.5t91 205.5l160 530q2 20 2 30zM981.5 1617.5q49.5 -22.5 78 -64t28.5 -95.5q0 -63 -38 -116.5t-100.5 -85t-133.5 -31.5q-60 0 -107.5 22 t-74.5 64t-27 98q0 64 35 117t95.5 83.5t133.5 30.5q61 0 110.5 -22.5zM927 1293q48 25 78 68t30 93q0 46 -25 78.5t-64 48.5t-81 16q-54 0 -101 -26.5t-74.5 -70t-27.5 -91.5q0 -44 23 -76t61 -48.5t80 -16.5q53 0 101 25z" />
<glyph unicode="&#xe6;" horiz-adv-x="1608" d="M1247 50q-133 -79 -307 -79q-115 0 -204 45t-127 129q-71 -85 -171 -129.5t-209 -44.5q-127 0 -190.5 65.5t-63.5 190.5q0 185 130 378t331.5 319.5t401.5 126.5q113 0 154 -68q176 109 376 109q114 0 184 -46t70 -135q0 -117 -93 -215t-240 -167t-313 -107 q-7 -55 -7 -105q0 -112 43 -155t127 -43q51 0 131.5 35t154.5 108l33 -16q-78 -117 -211 -196zM1194.5 964q-71.5 -89 -130.5 -228t-83 -279q123 59 184 114q92 83 141.5 193.5t49.5 236.5q0 52 -33 52q-57 0 -128.5 -89zM632 523.5q46 132.5 131 246.5t198 192 q-26 29 -72 29q-111 0 -235.5 -109t-209 -283t-84.5 -359q0 -65 30 -97t71 -32q37 0 68 14.5t68 52.5q-11 38 -11 82q0 131 46 263.5z" />
<glyph unicode="&#xe7;" horiz-adv-x="991" d="M369 -29q-107 0 -189.5 35.5t-129 108t-46.5 180.5q0 182 94.5 368t266.5 307.5t391 121.5q82 0 142.5 -29t92 -77.5t31.5 -106.5q0 -65 -33 -127.5t-88.5 -102t-118.5 -39.5q-37 0 -68.5 16.5t-51 49t-19.5 78.5q0 64 29 120t76.5 95.5t103.5 56.5q-28 25 -70 25 q-99 0 -190.5 -109.5t-148 -282.5t-56.5 -352q0 -106 43.5 -157.5t120.5 -51.5q65 0 125 37t121 127l41 -16q-177 -275 -469 -275zM429 -113q65 0 106 -22t41 -66q0 -64 -56 -105t-145 -60t-190 -19q-110 0 -197 37l13 33q60 -21 125 -21q59 0 113.5 18t54.5 68 q0 22 -16 34.5t-42 12.5q-35 0 -63 -14l172 217h59l-102 -137q74 24 127 24z" />
<glyph unicode="&#xe8;" horiz-adv-x="1016" d="M655 50q-133 -79 -307 -79q-98 0 -178.5 33.5t-128 98.5t-47.5 157q0 201 103.5 394t283 315.5t395.5 122.5q115 0 184.5 -46t69.5 -135q0 -117 -93 -215t-240 -167t-313 -107q-7 -55 -7 -105q0 -112 43 -155t127 -43q51 0 131.5 35t155.5 108l32 -16q-78 -117 -211 -196 zM603 964.5q-71 -88.5 -130 -227t-83 -278.5q106 59 188 139q186 184 186 403q0 52 -33 52q-57 0 -128 -88.5zM649.5 1332q-45.5 43 -117 105t-98.5 107q-22 38 -22 78q0 33 14.5 61t42.5 46q31 20 70 20t74 -19t53 -49q21 -32 30 -66.5t24 -143.5t54 -230l-24 -14 q-55 62 -100.5 105z" />
<glyph unicode="&#xe9;" horiz-adv-x="1016" d="M655 50q-133 -79 -307 -79q-98 0 -178.5 33.5t-128 98.5t-47.5 157q0 201 103.5 394t283 315.5t395.5 122.5q115 0 184.5 -46t69.5 -135q0 -117 -93 -215t-240 -167t-313 -107q-7 -55 -7 -105q0 -112 43 -155t127 -43q51 0 131.5 35t155.5 108l32 -16q-78 -117 -211 -196 zM603 964.5q-71 -88.5 -130 -227t-83 -278.5q106 59 188 139q186 184 186 403q0 52 -33 52q-57 0 -128 -88.5zM742 1449.5q53 107.5 80.5 156.5t68.5 90q26 26 61 42t70 16q55 0 95 -40q34 -34 34 -77q0 -61 -67 -130q-32 -32 -74 -59t-154.5 -91.5t-205.5 -129.5l-21 20 q60 95 113 202.5z" />
<glyph unicode="&#xea;" horiz-adv-x="1016" d="M655 50q-133 -79 -307 -79q-98 0 -178.5 33.5t-128 98.5t-47.5 157q0 201 103.5 394t283 315.5t395.5 122.5q115 0 184.5 -46t69.5 -135q0 -117 -93 -215t-240 -167t-313 -107q-7 -55 -7 -105q0 -112 43 -155t127 -43q51 0 131.5 35t155.5 108l32 -16q-78 -117 -211 -196 zM603 964.5q-71 -88.5 -130 -227t-83 -278.5q106 59 188 139q186 184 186 403q0 52 -33 52q-57 0 -128 -88.5zM715 1352q-154 -65 -378 -111l-11 29q158 69 297 186t226 248h36q33 -156 88.5 -257t155.5 -177l-8 -29q-242 43 -406 111z" />
<glyph unicode="&#xeb;" horiz-adv-x="1016" d="M655 50q-133 -79 -307 -79q-98 0 -178.5 33.5t-128 98.5t-47.5 157q0 201 103.5 394t283 315.5t395.5 122.5q115 0 184.5 -46t69.5 -135q0 -117 -93 -215t-240 -167t-313 -107q-7 -55 -7 -105q0 -112 43 -155t127 -43q51 0 131.5 35t155.5 108l32 -16q-78 -117 -211 -196 zM603 964.5q-71 -88.5 -130 -227t-83 -278.5q106 59 188 139q186 184 186 403q0 52 -33 52q-57 0 -128 -88.5zM399 1493q28 45 74 66.5t101 21.5q79 0 116.5 -42.5t37.5 -117.5q0 -67 -29 -111t-76 -64.5t-100 -20.5q-78 0 -115 41t-37 114q0 68 28 113zM917.5 1530.5 q58.5 50.5 144.5 50.5q78 0 115.5 -42.5t37.5 -117.5q0 -67 -29 -111t-75.5 -64.5t-100.5 -20.5q-78 0 -114.5 41t-36.5 114q0 100 58.5 150.5z" />
<glyph unicode="&#xec;" horiz-adv-x="686" d="M269 940q0 35 -29 35q-32 0 -59 -29t-54 -100l-47 -125h-39l57 160q77 211 305 211q110 0 162 -53t52 -136q0 -49 -17 -98l-213 -631q-10 -30 -10 -50q0 -36 35 -36q60 0 108 129l43 115h39l-51 -150q-72 -211 -293 -211q-104 0 -161 49t-57 145q0 68 30 159l188 565 q11 29 11 51zM366.5 1332q-45.5 43 -117 105t-98.5 107q-22 38 -22 78q0 33 14.5 61t42.5 46q31 20 70 20t74 -19t53 -49q21 -32 30 -66.5t24 -143.5t54 -230l-24 -14q-55 62 -100.5 105z" />
<glyph unicode="&#xed;" horiz-adv-x="686" d="M269 940q0 35 -29 35q-32 0 -59 -29t-54 -100l-47 -125h-39l57 160q77 211 305 211q110 0 162 -53t52 -136q0 -49 -17 -98l-213 -631q-10 -30 -10 -50q0 -36 35 -36q60 0 108 129l43 115h39l-51 -150q-72 -211 -293 -211q-104 0 -161 49t-57 145q0 68 30 159l188 565 q11 29 11 51zM459 1449.5q53 107.5 80.5 156.5t68.5 90q26 26 61 42t70 16q55 0 95 -40q34 -34 34 -77q0 -61 -67 -130q-32 -32 -74 -59t-154.5 -91.5t-205.5 -129.5l-21 20q60 95 113 202.5z" />
<glyph unicode="&#xee;" horiz-adv-x="686" d="M269 940q0 35 -29 35q-32 0 -59 -29t-54 -100l-47 -125h-39l57 160q77 211 305 211q110 0 162 -53t52 -136q0 -49 -17 -98l-213 -631q-10 -30 -10 -50q0 -36 35 -36q60 0 108 129l43 115h39l-51 -150q-72 -211 -293 -211q-104 0 -161 49t-57 145q0 68 30 159l188 565 q11 29 11 51zM432 1352q-154 -65 -378 -111l-11 29q158 69 297 186t226 248h36q33 -156 88.5 -257t155.5 -177l-8 -29q-242 43 -406 111z" />
<glyph unicode="&#xef;" horiz-adv-x="686" d="M269 940q0 35 -29 35q-32 0 -59 -29t-54 -100l-47 -125h-39l57 160q77 211 305 211q110 0 162 -53t52 -136q0 -49 -17 -98l-213 -631q-10 -30 -10 -50q0 -36 35 -36q60 0 108 129l43 115h39l-51 -150q-72 -211 -293 -211q-104 0 -161 49t-57 145q0 68 30 159l188 565 q11 29 11 51zM116 1493q28 45 74 66.5t101 21.5q79 0 116.5 -42.5t37.5 -117.5q0 -67 -29 -111t-76 -64.5t-100 -20.5q-78 0 -115 41t-37 114q0 68 28 113zM634.5 1530.5q58.5 50.5 144.5 50.5q78 0 115.5 -42.5t37.5 -117.5q0 -67 -29 -111t-75.5 -64.5t-100.5 -20.5 q-78 0 -114.5 41t-36.5 114q0 100 58.5 150.5z" />
<glyph unicode="&#xf0;" horiz-adv-x="1139" d="M1011 1122.5q79 -155.5 79 -327.5q0 -206 -83 -395.5t-245 -309t-385 -119.5q-166 0 -265.5 82.5t-99.5 268.5q0 164 77.5 342t220.5 297.5t327 119.5q33 0 56 -4q-22 136 -77 241l-331 -147l-13 37l325 144q-75 127 -208 215l25 35q192 -60 344 -178l299 132l12 -36 l-278 -122q141 -120 220 -275.5zM566.5 147q64.5 135 103.5 335.5t39 379.5q0 93 -10 174q-17 4 -31 4q-87 0 -149.5 -144.5t-94 -355t-31.5 -403.5q0 -55 3.5 -81t11.5 -35t24 -9q70 0 134.5 135z" />
<glyph unicode="&#xf1;" horiz-adv-x="1268" d="M1184 332l-51 -150q-74 -211 -293 -211q-132 0 -185 74q-34 46 -34 115q0 65 32 164l176 530q18 52 18 80q0 31 -22 31q-53 0 -137.5 -143.5t-171 -367t-145.5 -448.5l1 4l-3 -10h-363l250 889q12 45 12 59q0 27 -30 27q-32 0 -59 -29t-54 -100l-47 -125h-39l57 160 q38 108 107 159.5t174 51.5q115 0 165.5 -54t50.5 -139q0 -44 -13 -94l-56 -213q80 200 153.5 308.5t148.5 150t171 41.5q201 0 201 -170q0 -59 -27 -140l-202 -608q-10 -30 -10 -49q0 -37 34 -37q61 0 109 129l43 115h39zM537.5 1551.5q93.5 82.5 197.5 82.5q59 0 98 -21.5 t98 -74.5t113 -53q42 0 77.5 28t70.5 91l37 -11q-57 -168 -151 -250.5t-198 -82.5q-59 0 -97.5 21.5t-98 74.5t-113.5 53q-42 0 -77 -28t-70 -91l-37 10q57 169 150.5 251.5z" />
<glyph unicode="&#xf2;" horiz-adv-x="1141" d="M92 672q80 179 241 299.5t392 120.5q178 0 271.5 -90t93.5 -259q0 -173 -80 -352t-241.5 -299.5t-391.5 -120.5q-178 0 -271.5 90t-93.5 258q0 174 80 353zM569.5 897q-87.5 -154 -152.5 -372t-65 -398q0 -63 9.5 -89t29.5 -26q55 0 142 148t152 363.5t65 408.5 q0 71 -9.5 95t-25.5 24q-58 0 -145.5 -154zM663.5 1332q-45.5 43 -117 105t-98.5 107q-22 38 -22 78q0 33 14.5 61t42.5 46q31 20 70 20t74 -19t53 -49q21 -32 30 -66.5t24 -143.5t54 -230l-24 -14q-55 62 -100.5 105z" />
<glyph unicode="&#xf3;" horiz-adv-x="1141" d="M92 672q80 179 241 299.5t392 120.5q178 0 271.5 -90t93.5 -259q0 -173 -80 -352t-241.5 -299.5t-391.5 -120.5q-178 0 -271.5 90t-93.5 258q0 174 80 353zM569.5 897q-87.5 -154 -152.5 -372t-65 -398q0 -63 9.5 -89t29.5 -26q55 0 142 148t152 363.5t65 408.5 q0 71 -9.5 95t-25.5 24q-58 0 -145.5 -154zM756 1449.5q53 107.5 80.5 156.5t68.5 90q26 26 61 42t70 16q55 0 95 -40q34 -34 34 -77q0 -61 -67 -130q-32 -32 -74 -59t-154.5 -91.5t-205.5 -129.5l-21 20q60 95 113 202.5z" />
<glyph unicode="&#xf4;" horiz-adv-x="1141" d="M92 672q80 179 241 299.5t392 120.5q178 0 271.5 -90t93.5 -259q0 -173 -80 -352t-241.5 -299.5t-391.5 -120.5q-178 0 -271.5 90t-93.5 258q0 174 80 353zM569.5 897q-87.5 -154 -152.5 -372t-65 -398q0 -63 9.5 -89t29.5 -26q55 0 142 148t152 363.5t65 408.5 q0 71 -9.5 95t-25.5 24q-58 0 -145.5 -154zM729 1352q-154 -65 -378 -111l-11 29q158 69 297 186t226 248h36q33 -156 88.5 -257t155.5 -177l-8 -29q-242 43 -406 111z" />
<glyph unicode="&#xf5;" horiz-adv-x="1141" d="M92 672q80 179 241 299.5t392 120.5q178 0 271.5 -90t93.5 -259q0 -173 -80 -352t-241.5 -299.5t-391.5 -120.5q-178 0 -271.5 90t-93.5 258q0 174 80 353zM569.5 897q-87.5 -154 -152.5 -372t-65 -398q0 -63 9.5 -89t29.5 -26q55 0 142 148t152 363.5t65 408.5 q0 71 -9.5 95t-25.5 24q-58 0 -145.5 -154zM537.5 1551.5q93.5 82.5 197.5 82.5q59 0 98 -21.5t98 -74.5t113 -53q42 0 77.5 28t70.5 91l37 -11q-57 -168 -151 -250.5t-198 -82.5q-59 0 -97.5 21.5t-98 74.5t-113.5 53q-42 0 -77 -28t-70 -91l-37 10q57 169 150.5 251.5z " />
<glyph unicode="&#xf6;" horiz-adv-x="1141" d="M92 672q80 179 241 299.5t392 120.5q178 0 271.5 -90t93.5 -259q0 -173 -80 -352t-241.5 -299.5t-391.5 -120.5q-178 0 -271.5 90t-93.5 258q0 174 80 353zM569.5 897q-87.5 -154 -152.5 -372t-65 -398q0 -63 9.5 -89t29.5 -26q55 0 142 148t152 363.5t65 408.5 q0 71 -9.5 95t-25.5 24q-58 0 -145.5 -154zM413 1493q28 45 74 66.5t101 21.5q79 0 116.5 -42.5t37.5 -117.5q0 -67 -29 -111t-76 -64.5t-100 -20.5q-78 0 -115 41t-37 114q0 68 28 113zM931.5 1530.5q58.5 50.5 144.5 50.5q78 0 115.5 -42.5t37.5 -117.5q0 -67 -29 -111 t-75.5 -64.5t-100.5 -20.5q-78 0 -114.5 41t-36.5 114q0 100 58.5 150.5z" />
<glyph unicode="&#xf7;" horiz-adv-x="1274" d="M747 1101.5q43 33.5 89 33.5q39 0 63 -23.5t24 -59.5q0 -13 -5 -30q-14 -48 -57 -80.5t-91 -32.5q-38 0 -61.5 22.5t-23.5 58.5q0 14 5 32q14 46 57 79.5zM1192 758l-18 -62h-1026l18 62h1026zM577 512q43 33 89 33q39 0 63 -23t24 -59q0 -13 -5 -31q-14 -48 -57 -81.5 t-91 -33.5q-38 0 -61.5 24t-23.5 60q0 13 5 31q14 47 57 80z" />
<glyph unicode="&#xf8;" horiz-adv-x="1139" d="M1035.5 954.5q54.5 -83.5 54.5 -211.5q0 -173 -80 -352t-241.5 -299.5t-391.5 -120.5q-71 0 -129 15l-109 -170l-33 18l104 163q-97 36 -147.5 117.5t-50.5 204.5q0 174 80 353t241 299.5t392 120.5q62 0 114 -11l103 164l35 -16l-101 -158q105 -33 159.5 -116.5z M715 1051q-54 0 -134.5 -134.5t-145.5 -332.5t-80 -376l394 760q-4 83 -34 83zM361.5 38q9.5 -26 29.5 -26q54 0 138 140.5t149 348t71 397.5l-397 -771q0 -63 9.5 -89z" />
<glyph unicode="&#xf9;" horiz-adv-x="1264" d="M1188 342l-58 -160q-39 -109 -116 -160t-176 -51q-136 0 -183 80q-24 41 -24 99q0 49 16 108l46 176q-78 -187 -150 -287.5t-146.5 -138t-171.5 -37.5q-93 0 -142.5 43.5t-49.5 127.5q0 58 26 139l199 608q10 30 10 49q0 37 -35 37q-60 0 -108 -129l-43 -115h-39l51 150 q74 211 293 211q103 0 159.5 -48.5t56.5 -144.5q0 -71 -30 -160l-176 -530q-17 -54 -17 -80q0 -31 21 -31q50 0 127 125t159 324.5t144 411.5l27 104q226 3 371 29l-258 -918q-13 -42 -13 -59q0 -27 31 -27q32 0 59 29t54 100l47 125h39zM649.5 1332q-45.5 43 -117 105 t-98.5 107q-22 38 -22 78q0 33 14.5 61t42.5 46q31 20 70 20t74 -19t53 -49q21 -32 30 -66.5t24 -143.5t54 -230l-24 -14q-55 62 -100.5 105z" />
<glyph unicode="&#xfa;" horiz-adv-x="1264" d="M1188 342l-58 -160q-39 -109 -116 -160t-176 -51q-136 0 -183 80q-24 41 -24 99q0 49 16 108l46 176q-78 -187 -150 -287.5t-146.5 -138t-171.5 -37.5q-93 0 -142.5 43.5t-49.5 127.5q0 58 26 139l199 608q10 30 10 49q0 37 -35 37q-60 0 -108 -129l-43 -115h-39l51 150 q74 211 293 211q103 0 159.5 -48.5t56.5 -144.5q0 -71 -30 -160l-176 -530q-17 -54 -17 -80q0 -31 21 -31q50 0 127 125t159 324.5t144 411.5l27 104q226 3 371 29l-258 -918q-13 -42 -13 -59q0 -27 31 -27q32 0 59 29t54 100l47 125h39zM742 1449.5q53 107.5 80.5 156.5 t68.5 90q26 26 61 42t70 16q55 0 95 -40q34 -34 34 -77q0 -61 -67 -130q-32 -32 -74 -59t-154.5 -91.5t-205.5 -129.5l-21 20q60 95 113 202.5z" />
<glyph unicode="&#xfb;" horiz-adv-x="1264" d="M1188 342l-58 -160q-39 -109 -116 -160t-176 -51q-136 0 -183 80q-24 41 -24 99q0 49 16 108l46 176q-78 -187 -150 -287.5t-146.5 -138t-171.5 -37.5q-93 0 -142.5 43.5t-49.5 127.5q0 58 26 139l199 608q10 30 10 49q0 37 -35 37q-60 0 -108 -129l-43 -115h-39l51 150 q74 211 293 211q103 0 159.5 -48.5t56.5 -144.5q0 -71 -30 -160l-176 -530q-17 -54 -17 -80q0 -31 21 -31q50 0 127 125t159 324.5t144 411.5l27 104q226 3 371 29l-258 -918q-13 -42 -13 -59q0 -27 31 -27q32 0 59 29t54 100l47 125h39zM715 1352q-154 -65 -378 -111 l-11 29q158 69 297 186t226 248h36q33 -156 88.5 -257t155.5 -177l-8 -29q-242 43 -406 111z" />
<glyph unicode="&#xfc;" horiz-adv-x="1264" d="M1188 342l-58 -160q-39 -109 -116 -160t-176 -51q-136 0 -183 80q-24 41 -24 99q0 49 16 108l46 176q-78 -187 -150 -287.5t-146.5 -138t-171.5 -37.5q-93 0 -142.5 43.5t-49.5 127.5q0 58 26 139l199 608q10 30 10 49q0 37 -35 37q-60 0 -108 -129l-43 -115h-39l51 150 q74 211 293 211q103 0 159.5 -48.5t56.5 -144.5q0 -71 -30 -160l-176 -530q-17 -54 -17 -80q0 -31 21 -31q50 0 127 125t159 324.5t144 411.5l27 104q226 3 371 29l-258 -918q-13 -42 -13 -59q0 -27 31 -27q32 0 59 29t54 100l47 125h39zM399 1493q28 45 74 66.5t101 21.5 q79 0 116.5 -42.5t37.5 -117.5q0 -67 -29 -111t-76 -64.5t-100 -20.5q-78 0 -115 41t-37 114q0 68 28 113zM917.5 1530.5q58.5 50.5 144.5 50.5q78 0 115.5 -42.5t37.5 -117.5q0 -67 -29 -111t-75.5 -64.5t-100.5 -20.5q-78 0 -114.5 41t-36.5 114q0 100 58.5 150.5z" />
<glyph unicode="&#xfd;" horiz-adv-x="989" d="M870 614q-97 54 -155 135.5t-58 174.5q0 77 42 122.5t118 45.5q156 0 156 -199q0 -119 -54.5 -276t-147 -318t-202.5 -291q-129 -153 -269.5 -248.5t-279.5 -128.5q-69 -16 -120 -16q-82 0 -126 35.5t-44 99.5q0 41 20 75t57 54.5t87 20.5q147 0 251 -181q127 57 239 154 l-167 1014q-10 53 -17.5 70.5t-25.5 17.5q-14 0 -24.5 -10t-23.5 -36.5t-34 -82.5l-43 -115h-39l51 150q41 118 105.5 164.5t159.5 46.5q103 0 162 -54t79 -190l90 -656q138 209 213 422zM660 1449.5q53 107.5 80.5 156.5t68.5 90q26 26 61 42t70 16q55 0 95 -40 q34 -34 34 -77q0 -61 -67 -130q-32 -32 -74 -59t-154.5 -91.5t-205.5 -129.5l-21 20q60 95 113 202.5z" />
<glyph unicode="&#xfe;" horiz-adv-x="1241" d="M746.5 1036q72.5 56 162.5 56q141 0 211 -86t70 -248q0 -169 -76 -353.5t-217.5 -309t-327.5 -124.5q-115 0 -195 42l-42 -150q-16 -59 -16 -90q0 -58 40 -78.5t129 -22.5l-12 -43q-31 1 -140.5 5t-215.5 4q-97 0 -201 -4t-129 -5l12 43q50 0 80 11.5t48 38.5t32 77 l365 1312q-54 -123 -124 -222t-169 -207l-23 27q88 98 144.5 172.5t115 182.5t116.5 262l62 224q202 18 383 78l-216 -767q61 119 133.5 175zM436 39q89 0 176 115.5t142 291.5t55 342q0 70 -6 106t-16.5 48t-26.5 12q-45 0 -96 -69t-96 -183l-184 -655q26 -8 52 -8z" />
<glyph unicode="&#xff;" horiz-adv-x="989" d="M870 614q-97 54 -155 135.5t-58 174.5q0 77 42 122.5t118 45.5q156 0 156 -199q0 -119 -54.5 -276t-147 -318t-202.5 -291q-129 -153 -269.5 -248.5t-279.5 -128.5q-69 -16 -120 -16q-82 0 -126 35.5t-44 99.5q0 41 20 75t57 54.5t87 20.5q147 0 251 -181q127 57 239 154 l-167 1014q-10 53 -17.5 70.5t-25.5 17.5q-14 0 -24.5 -10t-23.5 -36.5t-34 -82.5l-43 -115h-39l51 150q41 118 105.5 164.5t159.5 46.5q103 0 162 -54t79 -190l90 -656q138 209 213 422zM317 1493q28 45 74 66.5t101 21.5q79 0 116.5 -42.5t37.5 -117.5q0 -67 -29 -111 t-76 -64.5t-100 -20.5q-78 0 -115 41t-37 114q0 68 28 113zM835.5 1530.5q58.5 50.5 144.5 50.5q78 0 115.5 -42.5t37.5 -117.5q0 -67 -29 -111t-75.5 -64.5t-100.5 -20.5q-78 0 -114.5 41t-36.5 114q0 100 58.5 150.5z" />
<glyph unicode="&#x100;" horiz-adv-x="1370" d="M1167 74q29 -31 66 -33l-8 -41q-120 6 -346 6q-238 0 -349 -6l9 41q66 3 103 15.5t55.5 43t18.5 87.5q0 17 -1 26l-18 336h-402l-199 -281q-48 -70 -48 -117q0 -96 188 -110l-9 -41q-211 6 -290 6q-70 0 -134 -6l9 41q40 11 74 36.5t73.5 73t101.5 134.5l836 1175 q33 -4 79 -4t75 4l82 -1288q5 -67 34 -98zM670 1079l-346 -489h371zM524 1677l13 52h884l-12 -52h-885z" />
<glyph unicode="&#x101;" horiz-adv-x="1192" d="M1106 332l-51 -150q-74 -211 -293 -211q-126 0 -178 72q-34 48 -34 126q0 23 1 36q-49 -127 -127 -180.5t-184 -53.5q-127 0 -190.5 65.5t-63.5 190.5q0 193 103 395.5t258 336t296 133.5q116 0 128 -118l26 87q203 3 370 31l-276 -918q-9 -27 -9 -50q0 -36 33 -36 q61 0 109 129l43 115h39zM752 934q0 57 -39 57q-58 0 -140.5 -118.5t-142 -298.5t-59.5 -355q0 -60 10 -84t37 -24q40 0 81 57.5t91 205.5l160 530q2 20 2 30zM466 1407l12 51h721l-13 -51h-720z" />
<glyph unicode="&#x102;" horiz-adv-x="1370" d="M1167 74q29 -31 66 -33l-8 -41q-120 6 -346 6q-238 0 -349 -6l9 41q66 3 103 15.5t55.5 43t18.5 87.5q0 17 -1 26l-18 336h-402l-199 -281q-48 -70 -48 -117q0 -96 188 -110l-9 -41q-211 6 -290 6q-70 0 -134 -6l9 41q40 11 74 36.5t73.5 73t101.5 134.5l836 1175 q33 -4 79 -4t75 4l82 -1288q5 -67 34 -98zM670 1079l-346 -489h371zM807 1831.5q80 -25.5 203 -25.5q147 0 262.5 28t214.5 87l25 -18q-55 -91 -141 -168.5t-191 -124.5t-213 -47q-142 0 -225.5 92t-110.5 241l31 17q65 -56 145 -81.5z" />
<glyph unicode="&#x103;" horiz-adv-x="1192" d="M1106 332l-51 -150q-74 -211 -293 -211q-126 0 -178 72q-34 48 -34 126q0 23 1 36q-49 -127 -127 -180.5t-184 -53.5q-127 0 -190.5 65.5t-63.5 190.5q0 193 103 395.5t258 336t296 133.5q116 0 128 -118l26 87q203 3 370 31l-276 -918q-9 -27 -9 -50q0 -36 33 -36 q61 0 109 129l43 115h39zM752 934q0 57 -39 57q-58 0 -140.5 -118.5t-142 -298.5t-59.5 -355q0 -60 10 -84t37 -24q40 0 81 57.5t91 205.5l160 530q2 20 2 30zM673.5 1524q59.5 -25 162.5 -25q235 0 410 115l24 -19q-49 -91 -124.5 -168.5t-169 -124.5t-189.5 -47 q-108 0 -171 92t-83 242l31 17q50 -57 109.5 -82z" />
<glyph unicode="&#x104;" horiz-adv-x="1370" d="M1167 74q29 -31 66 -33l-8 -41q-120 6 -346 6q-238 0 -349 -6l9 41q66 3 103 15.5t55.5 43t18.5 87.5q0 17 -1 26l-18 336h-402l-199 -281q-48 -70 -48 -117q0 -96 188 -110l-9 -41q-211 6 -290 6q-70 0 -134 -6l9 41q40 11 74 36.5t73.5 73t101.5 134.5l836 1175 q33 -4 79 -4t75 4l82 -1288q5 -67 34 -98zM670 1079l-346 -489h371zM1015 -60q-45 -40 -67 -84t-22 -83q0 -54 59 -54q62 0 146 39l22 -34q-155 -109 -321 -109q-86 0 -136.5 33t-50.5 92q0 89 125.5 157t317.5 109h36q-64 -26 -109 -66z" />
<glyph unicode="&#x105;" horiz-adv-x="1192" d="M1106 332l-51 -150q-74 -211 -293 -211q-126 0 -178 72q-34 48 -34 126q0 23 1 36q-49 -127 -127 -180.5t-184 -53.5q-127 0 -190.5 65.5t-63.5 190.5q0 193 103 395.5t258 336t296 133.5q116 0 128 -118l26 87q203 3 370 31l-276 -918q-9 -27 -9 -50q0 -36 33 -36 q61 0 109 129l43 115h39zM752 934q0 57 -39 57q-58 0 -140.5 -118.5t-142 -298.5t-59.5 -355q0 -60 10 -84t37 -24q40 0 81 57.5t91 205.5l160 530q2 20 2 30zM804 -60.5q-45 -40.5 -67 -85t-22 -85.5q0 -50 47 -50q28 0 60.5 17.5t60.5 44.5l30 -27q-116 -139 -293 -139 q-85 0 -135.5 33t-50.5 92q0 89 125.5 157t316.5 109h37q-64 -26 -109 -66.5z" />
<glyph unicode="&#x106;" horiz-adv-x="1450" d="M1442 979h-45q20 118 20 177q0 90 -35 149q-38 65 -92 90.5t-133 25.5q-161 0 -301.5 -133.5t-224.5 -355.5t-84 -475q0 -207 70.5 -307.5t197.5 -100.5q69 0 141.5 31.5t124.5 87.5q54 58 94 129t91 195h45q-97 -355 -121 -492h-45q6 44 6 70q0 52 -26 52q-16 0 -42 -18 q-192 -133 -409 -133q-305 0 -451.5 136t-146.5 389q0 246 135.5 473t373.5 368.5t529 141.5q112 0 181 -35.5t122 -97.5q15 -18 30 -18q38 0 83 122h43q-68 -177 -131 -471zM1079 1768q82 88 122.5 127t92.5 67q43 24 94 24q88 0 127 -71q15 -29 15 -55q0 -75 -107 -136 q-39 -21 -87 -35t-174 -43.5t-235 -64.5l-14 25q84 74 166 162z" />
<glyph unicode="&#x107;" horiz-adv-x="991" d="M369 -29q-107 0 -189.5 35.5t-129 108t-46.5 180.5q0 182 94.5 368t266.5 307.5t391 121.5q82 0 142.5 -29t92 -77.5t31.5 -106.5q0 -65 -33 -127.5t-88.5 -102t-118.5 -39.5q-37 0 -68.5 16.5t-51 49t-19.5 78.5q0 64 29 120t76.5 95.5t103.5 56.5q-28 25 -70 25 q-99 0 -190.5 -109.5t-148 -282.5t-56.5 -352q0 -106 43.5 -157.5t120.5 -51.5q65 0 125 37t121 127l41 -16q-177 -275 -469 -275zM711 1447.5q53 107.5 80.5 156.5t68.5 90q26 26 61 42t70 16q55 0 95 -40q34 -34 34 -77q0 -61 -67 -130q-32 -32 -74 -59t-154.5 -91.5 t-205.5 -129.5l-21 20q60 95 113 202.5z" />
<glyph unicode="&#x108;" horiz-adv-x="1450" d="M1442 979h-45q20 118 20 177q0 90 -35 149q-38 65 -92 90.5t-133 25.5q-161 0 -301.5 -133.5t-224.5 -355.5t-84 -475q0 -207 70.5 -307.5t197.5 -100.5q69 0 141.5 31.5t124.5 87.5q54 58 94 129t91 195h45q-97 -355 -121 -492h-45q6 44 6 70q0 52 -26 52q-16 0 -42 -18 q-192 -133 -409 -133q-305 0 -451.5 136t-146.5 389q0 246 135.5 473t373.5 368.5t529 141.5q112 0 181 -35.5t122 -97.5q15 -18 30 -18q38 0 83 122h43q-68 -177 -131 -471zM1241.5 1626.5q-101.5 25.5 -195.5 61.5q-200 -68 -460 -111l-11 29q182 57 343.5 152t260.5 200 h37q41 -126 104.5 -207t180.5 -145l-8 -29q-150 24 -251.5 49.5z" />
<glyph unicode="&#x109;" horiz-adv-x="991" d="M369 -29q-107 0 -189.5 35.5t-129 108t-46.5 180.5q0 182 94.5 368t266.5 307.5t391 121.5q82 0 142.5 -29t92 -77.5t31.5 -106.5q0 -65 -33 -127.5t-88.5 -102t-118.5 -39.5q-37 0 -68.5 16.5t-51 49t-19.5 78.5q0 64 29 120t76.5 95.5t103.5 56.5q-28 25 -70 25 q-99 0 -190.5 -109.5t-148 -282.5t-56.5 -352q0 -106 43.5 -157.5t120.5 -51.5q65 0 125 37t121 127l41 -16q-177 -275 -469 -275zM684 1350q-154 -65 -378 -111l-11 29q158 69 297 186t226 248h36q33 -156 88.5 -257t155.5 -177l-8 -29q-242 43 -406 111z" />
<glyph unicode="&#x10a;" horiz-adv-x="1450" d="M1442 979h-45q20 118 20 177q0 90 -35 149q-38 65 -92 90.5t-133 25.5q-161 0 -301.5 -133.5t-224.5 -355.5t-84 -475q0 -207 70.5 -307.5t197.5 -100.5q69 0 141.5 31.5t124.5 87.5q54 58 94 129t91 195h45q-97 -355 -121 -492h-45q6 44 6 70q0 52 -26 52q-16 0 -42 -18 q-192 -133 -409 -133q-305 0 -451.5 136t-146.5 389q0 246 135.5 473t373.5 368.5t529 141.5q112 0 181 -35.5t122 -97.5q15 -18 30 -18q38 0 83 122h43q-68 -177 -131 -471zM1002.5 1853.5q68.5 55.5 180.5 55.5q183 0 183 -140q0 -63 -33.5 -111.5t-91 -75t-127.5 -26.5 q-89 0 -134.5 35t-45.5 101q0 106 68.5 161.5z" />
<glyph unicode="&#x10b;" horiz-adv-x="991" d="M369 -29q-107 0 -189.5 35.5t-129 108t-46.5 180.5q0 182 94.5 368t266.5 307.5t391 121.5q82 0 142.5 -29t92 -77.5t31.5 -106.5q0 -65 -33 -127.5t-88.5 -102t-118.5 -39.5q-37 0 -68.5 16.5t-51 49t-19.5 78.5q0 64 29 120t76.5 95.5t103.5 56.5q-28 25 -70 25 q-99 0 -190.5 -109.5t-148 -282.5t-56.5 -352q0 -106 43.5 -157.5t120.5 -51.5q65 0 125 37t121 127l41 -16q-177 -275 -469 -275zM613.5 1544.5q68.5 55.5 181.5 55.5q89 0 135.5 -35.5t46.5 -104.5q0 -63 -33.5 -111.5t-91 -75t-127.5 -26.5q-89 0 -134.5 34.5 t-45.5 100.5q0 107 68.5 162.5z" />
<glyph unicode="&#x10c;" horiz-adv-x="1450" d="M1442 979h-45q20 118 20 177q0 90 -35 149q-38 65 -92 90.5t-133 25.5q-161 0 -301.5 -133.5t-224.5 -355.5t-84 -475q0 -207 70.5 -307.5t197.5 -100.5q69 0 141.5 31.5t124.5 87.5q54 58 94 129t91 195h45q-97 -355 -121 -492h-45q6 44 6 70q0 52 -26 52q-16 0 -42 -18 q-192 -133 -409 -133q-305 0 -451.5 136t-146.5 389q0 246 135.5 473t373.5 368.5t529 141.5q112 0 181 -35.5t122 -97.5q15 -18 30 -18q38 0 83 122h43q-68 -177 -131 -471zM1010.5 1888.5q101.5 -25.5 197.5 -61.5q202 68 461 110l10 -28q-183 -58 -344.5 -153 t-259.5 -200h-37q-40 125 -103.5 207t-180.5 146l8 28q147 -23 248.5 -48.5z" />
<glyph unicode="&#x10d;" horiz-adv-x="991" d="M369 -29q-107 0 -189.5 35.5t-129 108t-46.5 180.5q0 182 94.5 368t266.5 307.5t391 121.5q82 0 142.5 -29t92 -77.5t31.5 -106.5q0 -65 -33 -127.5t-88.5 -102t-118.5 -39.5q-37 0 -68.5 16.5t-51 49t-19.5 78.5q0 64 29 120t76.5 95.5t103.5 56.5q-28 25 -70 25 q-99 0 -190.5 -109.5t-148 -282.5t-56.5 -352q0 -106 43.5 -157.5t120.5 -51.5q65 0 125 37t121 127l41 -16q-177 -275 -469 -275zM855 1591q154 65 378 111l11 -29q-158 -69 -297 -186t-226 -248h-36q-33 156 -88.5 257t-155.5 177l8 29q242 -43 406 -111z" />
<glyph unicode="&#x10e;" horiz-adv-x="1642" d="M597 1443l75 1q171 6 303 6q307 0 476 -130t169 -384q0 -222 -106.5 -436.5t-339.5 -357t-590 -142.5q-43 0 -133 3t-191 3q-225 0 -348 -6l6 41q70 3 105.5 16t57.5 48.5t42 111.5l268 1016q13 49 13 80q0 44 -29.5 68t-102.5 28l7 41q163 -7 318 -7zM514 91 q0 -30 19 -42t67 -12q180 0 316.5 149.5t209 376t72.5 447.5q0 403 -260 403q-46 0 -65.5 -12t-30 -40.5t-35.5 -123.5l-268 -1024q-25 -93 -25 -122zM928.5 1888.5q101.5 -25.5 197.5 -61.5q202 68 461 110l10 -28q-183 -58 -344.5 -153t-259.5 -200h-37 q-40 125 -103.5 207t-180.5 146l8 28q147 -23 248.5 -48.5z" />
<glyph unicode="&#x10f;" horiz-adv-x="1235" d="M1157 332l-51 -150q-72 -211 -293 -211q-130 0 -184 78q-30 44 -30 115q0 43 10 91q-65 -146 -145.5 -215t-201.5 -69q-74 0 -133.5 31.5t-95 98.5t-35.5 169q0 162 83.5 356t241.5 330t369 136q99 0 125 -51l86 325q10 37 10 57q0 41 -32 59.5t-107 18.5l14 43 q308 3 555 84l-401 -1454q-10 -29 -10 -48q0 -38 35 -38q60 0 108 129l43 115h39zM782 1032q-14 12 -43 12q-63 0 -149 -121.5t-147.5 -313.5t-61.5 -394q0 -62 10.5 -89.5t38.5 -27.5q29 0 70 44.5t88.5 142.5t93.5 247l62 234l1 4v-1l59 225q-8 26 -22 38zM1405 1349 q31 106 31 152q0 39 -27 39l7 43q18 0 34 -1t31 -1q119 0 229 25q2 -4 2 -25q0 -76 -100 -206t-272 -277l-29 8q63 137 94 243z" />
<glyph unicode="&#x110;" horiz-adv-x="1642" d="M597 1443l75 1q171 6 303 6q307 0 476 -130t169 -384q0 -222 -106.5 -436.5t-339.5 -357t-590 -142.5q-43 0 -133 3t-191 3q-225 0 -348 -6l6 41q70 3 105.5 16t57.5 48.5t42 111.5l268 1016q13 49 13 80q0 44 -29.5 68t-102.5 28l7 41q163 -7 318 -7zM514 91 q0 -30 19 -42t67 -12q180 0 316.5 149.5t209 376t72.5 447.5q0 403 -260 403q-46 0 -65.5 -12t-30 -40.5t-35.5 -123.5l-268 -1024q-25 -93 -25 -122zM112 706l13 52h884l-12 -52h-885z" />
<glyph unicode="&#x111;" horiz-adv-x="1235" d="M932 126q0 -38 35 -38q60 0 108 129l43 115h39l-51 -150q-72 -211 -293 -211q-130 0 -184 78q-30 44 -30 115q0 42 10 91q-65 -146 -145.5 -215t-201.5 -69q-74 0 -133.5 31.5t-95 98.5t-35.5 169q0 162 83.5 356t241.5 330t369 136q99 0 125 -51l54 204h-318l12 41h317 l21 80q10 37 10 57q0 41 -32 59.5t-107 18.5l14 43q308 3 555 84l-94 -342h164l-12 -41h-164l-295 -1071q-10 -29 -10 -48zM782.5 1032q-14.5 12 -43.5 12q-63 0 -149 -121.5t-147.5 -313.5t-61.5 -394q0 -62 10.5 -89.5t38.5 -27.5q29 0 69.5 44.5t88.5 142.5t94 247 l62 234l1 4v-1l59 225q-7 26 -21.5 38z" />
<glyph unicode="&#x112;" d="M991 1444q295 0 424 6q-50 -129 -78 -242q-11 -46 -26 -127h-45q1 119 -26.5 190t-82 101.5t-139.5 30.5h-6q-71 0 -106.5 -12t-57 -46.5t-41.5 -111.5l-128 -483h36q64 0 123 31.5t103 84t67 113.5h45q-26 -79 -43.5 -148.5t-26.5 -101.5q-27 -102 -53 -250h-45 q0 54 -19 106.5t-63.5 88t-116.5 35.5h-18l-131 -492q-18 -70 -18 -100q0 -29 13.5 -44t41.5 -20.5t79 -5.5h27q100 0 175.5 34.5t140.5 113t132 215.5h46q-14 -36 -44 -148q-32 -117 -53 -262q-139 6 -463 6q-475 0 -712 -6l8 41q74 3 110.5 16t58.5 48t42 112l270 1016 q17 65 17 98q0 31 -13.5 47t-42.5 22.5t-82 8.5l11 41q235 -6 710 -6zM434 1677l13 52h884l-12 -52h-885z" />
<glyph unicode="&#x113;" horiz-adv-x="1016" d="M655 50q-133 -79 -307 -79q-98 0 -178.5 33.5t-128 98.5t-47.5 157q0 201 103.5 394t283 315.5t395.5 122.5q115 0 184.5 -46t69.5 -135q0 -117 -93 -215t-240 -167t-313 -107q-7 -55 -7 -105q0 -112 43 -155t127 -43q51 0 131.5 35t155.5 108l32 -16q-78 -117 -211 -196 zM603 964.5q-71 -88.5 -130 -227t-83 -278.5q106 59 188 139q186 184 186 403q0 52 -33 52q-57 0 -128 -88.5zM423 1407l12 51h721l-13 -51h-720z" />
<glyph unicode="&#x114;" d="M991 1444q295 0 424 6q-50 -129 -78 -242q-11 -46 -26 -127h-45q1 119 -26.5 190t-82 101.5t-139.5 30.5h-6q-71 0 -106.5 -12t-57 -46.5t-41.5 -111.5l-128 -483h36q64 0 123 31.5t103 84t67 113.5h45q-26 -79 -43.5 -148.5t-26.5 -101.5q-27 -102 -53 -250h-45 q0 54 -19 106.5t-63.5 88t-116.5 35.5h-18l-131 -492q-18 -70 -18 -100q0 -29 13.5 -44t41.5 -20.5t79 -5.5h27q100 0 175.5 34.5t140.5 113t132 215.5h46q-14 -36 -44 -148q-32 -117 -53 -262q-139 6 -463 6q-475 0 -712 -6l8 41q74 3 110.5 16t58.5 48t42 112l270 1016 q17 65 17 98q0 31 -13.5 47t-42.5 22.5t-82 8.5l11 41q235 -6 710 -6zM717 1831.5q80 -25.5 203 -25.5q147 0 262.5 28t214.5 87l25 -18q-55 -91 -141 -168.5t-191 -124.5t-213 -47q-142 0 -225.5 92t-110.5 241l31 17q65 -56 145 -81.5z" />
<glyph unicode="&#x115;" horiz-adv-x="1016" d="M655 50q-133 -79 -307 -79q-98 0 -178.5 33.5t-128 98.5t-47.5 157q0 201 103.5 394t283 315.5t395.5 122.5q115 0 184.5 -46t69.5 -135q0 -117 -93 -215t-240 -167t-313 -107q-7 -55 -7 -105q0 -112 43 -155t127 -43q51 0 131.5 35t155.5 108l32 -16q-78 -117 -211 -196 zM603 964.5q-71 -88.5 -130 -227t-83 -278.5q106 59 188 139q186 184 186 403q0 52 -33 52q-57 0 -128 -88.5zM630.5 1524q59.5 -25 162.5 -25q235 0 410 115l24 -19q-49 -91 -124.5 -168.5t-169 -124.5t-189.5 -47q-108 0 -171 92t-83 242l31 17q50 -57 109.5 -82z" />
<glyph unicode="&#x116;" d="M991 1444q295 0 424 6q-50 -129 -78 -242q-11 -46 -26 -127h-45q1 119 -26.5 190t-82 101.5t-139.5 30.5h-6q-71 0 -106.5 -12t-57 -46.5t-41.5 -111.5l-128 -483h36q64 0 123 31.5t103 84t67 113.5h45q-26 -79 -43.5 -148.5t-26.5 -101.5q-27 -102 -53 -250h-45 q0 54 -19 106.5t-63.5 88t-116.5 35.5h-18l-131 -492q-18 -70 -18 -100q0 -29 13.5 -44t41.5 -20.5t79 -5.5h27q100 0 175.5 34.5t140.5 113t132 215.5h46q-14 -36 -44 -148q-32 -117 -53 -262q-139 6 -463 6q-475 0 -712 -6l8 41q74 3 110.5 16t58.5 48t42 112l270 1016 q17 65 17 98q0 31 -13.5 47t-42.5 22.5t-82 8.5l11 41q235 -6 710 -6zM759.5 1853.5q68.5 55.5 180.5 55.5q183 0 183 -140q0 -63 -33.5 -111.5t-91 -75t-127.5 -26.5q-89 0 -134.5 35t-45.5 101q0 106 68.5 161.5z" />
<glyph unicode="&#x117;" horiz-adv-x="1016" d="M655 50q-133 -79 -307 -79q-98 0 -178.5 33.5t-128 98.5t-47.5 157q0 201 103.5 394t283 315.5t395.5 122.5q115 0 184.5 -46t69.5 -135q0 -117 -93 -215t-240 -167t-313 -107q-7 -55 -7 -105q0 -112 43 -155t127 -43q51 0 131.5 35t155.5 108l32 -16q-78 -117 -211 -196 zM603 964.5q-71 -88.5 -130 -227t-83 -278.5q106 59 188 139q186 184 186 403q0 52 -33 52q-57 0 -128 -88.5zM644.5 1546.5q68.5 55.5 181.5 55.5q89 0 135.5 -35.5t46.5 -104.5q0 -63 -33.5 -111.5t-91 -75t-127.5 -26.5q-89 0 -134.5 34.5t-45.5 100.5q0 107 68.5 162.5z " />
<glyph unicode="&#x118;" d="M991 1444q295 0 424 6q-50 -129 -78 -242q-11 -46 -26 -127h-45q1 119 -26.5 190t-82 101.5t-139.5 30.5h-6q-71 0 -106.5 -12t-57 -46.5t-41.5 -111.5l-128 -483h36q64 0 123 31.5t103 84t67 113.5h45q-26 -79 -43.5 -148.5t-26.5 -101.5q-27 -102 -53 -250h-45 q0 54 -19 106.5t-63.5 88t-116.5 35.5h-18l-131 -492q-18 -70 -18 -100q0 -29 13.5 -44t41.5 -20.5t79 -5.5h27q100 0 175.5 34.5t140.5 113t132 215.5h46q-14 -36 -44 -148q-32 -117 -53 -262q-139 6 -463 6q-475 0 -712 -6l8 41q74 3 110.5 16t58.5 48t42 112l270 1016 q17 65 17 98q0 31 -13.5 47t-42.5 22.5t-82 8.5l11 41q235 -6 710 -6zM964 -60q-45 -40 -67 -84t-22 -83q0 -54 59 -54q62 0 146 39l22 -34q-155 -109 -321 -109q-86 0 -136.5 33t-50.5 92q0 89 125.5 157t317.5 109h36q-64 -26 -109 -66z" />
<glyph unicode="&#x119;" horiz-adv-x="1016" d="M655 50q-133 -79 -307 -79q-98 0 -178.5 33.5t-128 98.5t-47.5 157q0 201 103.5 394t283 315.5t395.5 122.5q115 0 184.5 -46t69.5 -135q0 -117 -93 -215t-240 -167t-313 -107q-7 -55 -7 -105q0 -112 43 -155t127 -43q51 0 131.5 35t155.5 108l32 -16q-78 -117 -211 -196 zM603 964.5q-71 -88.5 -130 -227t-83 -278.5q106 59 188 139q186 184 186 403q0 52 -33 52q-57 0 -128 -88.5zM446 -60.5q-45 -40.5 -67 -85t-22 -85.5q0 -50 47 -50q28 0 60.5 17.5t60.5 44.5l30 -27q-116 -139 -293 -139q-85 0 -135.5 33t-50.5 92q0 89 125.5 157 t316.5 109h37q-64 -26 -109 -66.5z" />
<glyph unicode="&#x11a;" d="M991 1444q295 0 424 6q-50 -129 -78 -242q-11 -46 -26 -127h-45q1 119 -26.5 190t-82 101.5t-139.5 30.5h-6q-71 0 -106.5 -12t-57 -46.5t-41.5 -111.5l-128 -483h36q64 0 123 31.5t103 84t67 113.5h45q-26 -79 -43.5 -148.5t-26.5 -101.5q-27 -102 -53 -250h-45 q0 54 -19 106.5t-63.5 88t-116.5 35.5h-18l-131 -492q-18 -70 -18 -100q0 -29 13.5 -44t41.5 -20.5t79 -5.5h27q100 0 175.5 34.5t140.5 113t132 215.5h46q-14 -36 -44 -148q-32 -117 -53 -262q-139 6 -463 6q-475 0 -712 -6l8 41q74 3 110.5 16t58.5 48t42 112l270 1016 q17 65 17 98q0 31 -13.5 47t-42.5 22.5t-82 8.5l11 41q235 -6 710 -6zM849.5 1888.5q101.5 -25.5 197.5 -61.5q202 68 461 110l10 -28q-183 -58 -344.5 -153t-259.5 -200h-37q-40 125 -103.5 207t-180.5 146l8 28q147 -23 248.5 -48.5z" />
<glyph unicode="&#x11b;" horiz-adv-x="1016" d="M655 50q-133 -79 -307 -79q-98 0 -178.5 33.5t-128 98.5t-47.5 157q0 201 103.5 394t283 315.5t395.5 122.5q115 0 184.5 -46t69.5 -135q0 -117 -93 -215t-240 -167t-313 -107q-7 -55 -7 -105q0 -112 43 -155t127 -43q51 0 131.5 35t155.5 108l32 -16q-78 -117 -211 -196 zM603 964.5q-71 -88.5 -130 -227t-83 -278.5q106 59 188 139q186 184 186 403q0 52 -33 52q-57 0 -128 -88.5zM886 1593q154 65 378 111l11 -29q-158 -69 -297 -186t-226 -248h-36q-33 156 -88.5 257t-155.5 177l8 29q242 -43 406 -111z" />
<glyph unicode="&#x11c;" horiz-adv-x="1559" d="M1434 1133q0 48 -6 81.5t-23 67.5q-39 77 -119 118.5t-196 41.5q-186 0 -325.5 -178t-213.5 -430.5t-74 -460.5q0 -183 62.5 -272t189.5 -89q68 0 107 29q28 20 42 52.5t35 111.5l48 180q18 68 18 106q0 36 -17 54.5t-52.5 26t-102.5 10.5l10 41q129 -7 389 -7 q234 0 338 7l-10 -41q-49 -4 -73 -16.5t-41 -46.5t-38 -113l-108 -406h-41q1 62 -19 89.5t-61 27.5q-38 0 -79.5 -15.5t-85.5 -37t-70 -33.5q-129 -60 -263 -60q-184 0 -317.5 55t-205 160.5t-71.5 253.5q0 237 134.5 479.5t373 401t533.5 158.5q84 0 145 -17t104 -45 t87 -71q19 -19 35 -19q39 0 81 123h45q-67 -180 -131 -471h-45q11 83 11 154zM1284.5 1626.5q-101.5 25.5 -195.5 61.5q-200 -68 -460 -111l-11 29q182 57 343.5 152t260.5 200h37q41 -126 104.5 -207t180.5 -145l-8 -29q-150 24 -251.5 49.5z" />
<glyph unicode="&#x11d;" horiz-adv-x="997" d="M51 71q-37 36 -37 87q0 57 50.5 104.5t132.5 87.5t217 94q-153 3 -245.5 61.5t-92.5 174.5q0 100 70 194.5t199 155t298 60.5q48 0 91 -5q48 103 91 172t93 109q58 47 129 47q69 0 110 -36.5t41 -104.5q0 -53 -25.5 -102.5t-70 -80t-96.5 -30.5q-56 0 -89.5 33t-33.5 84 q0 41 25 84.5t73 82.5q-10 5 -17 5q-19 0 -34 -17q-33 -30 -78.5 -102t-78.5 -150q104 -20 163 -75.5t59 -147.5q0 -94 -60.5 -183t-172.5 -150.5t-259 -75.5q-169 -60 -169 -109q0 -16 17 -26.5t55 -24.5l186 -70q233 -87 233 -240q0 -122 -102.5 -203.5t-250.5 -120 t-284 -38.5q-127 0 -218.5 20t-140 56.5t-48.5 85.5q0 73 67.5 105.5t197 60.5t180.5 48l-81 25q-57 19 -94 55zM560 545.5q41 64.5 64.5 167.5t24.5 213q0 65 -10.5 96t-42.5 31q-45 0 -86.5 -64t-66.5 -168t-25 -219q0 -69 11.5 -95t39.5 -26q50 0 91 64.5zM171.5 -170 q-26.5 -71 -26.5 -121q0 -32 17 -45.5t51 -13.5q72 0 149.5 23.5t129 66.5t51.5 98q0 27 -16 43.5t-37 24.5t-66 22l-167 53q-59 -80 -85.5 -151zM633 1352q-154 -65 -378 -111l-11 29q158 69 297 186t226 248h36q33 -156 88.5 -257t155.5 -177l-8 -29q-242 43 -406 111z " />
<glyph unicode="&#x11e;" horiz-adv-x="1559" d="M1434 1133q0 48 -6 81.5t-23 67.5q-39 77 -119 118.5t-196 41.5q-186 0 -325.5 -178t-213.5 -430.5t-74 -460.5q0 -183 62.5 -272t189.5 -89q68 0 107 29q28 20 42 52.5t35 111.5l48 180q18 68 18 106q0 36 -17 54.5t-52.5 26t-102.5 10.5l10 41q129 -7 389 -7 q234 0 338 7l-10 -41q-49 -4 -73 -16.5t-41 -46.5t-38 -113l-108 -406h-41q1 62 -19 89.5t-61 27.5q-38 0 -79.5 -15.5t-85.5 -37t-70 -33.5q-129 -60 -263 -60q-184 0 -317.5 55t-205 160.5t-71.5 253.5q0 237 134.5 479.5t373 401t533.5 158.5q84 0 145 -17t104 -45 t87 -71q19 -19 35 -19q39 0 81 123h45q-67 -180 -131 -471h-45q11 83 11 154zM921 1831.5q80 -25.5 203 -25.5q147 0 262.5 28t214.5 87l25 -18q-55 -91 -141 -168.5t-191 -124.5t-213 -47q-142 0 -225.5 92t-110.5 241l31 17q65 -56 145 -81.5z" />
<glyph unicode="&#x11f;" horiz-adv-x="997" d="M51 71q-37 36 -37 87q0 57 50.5 104.5t132.5 87.5t217 94q-153 3 -245.5 61.5t-92.5 174.5q0 100 70 194.5t199 155t298 60.5q48 0 91 -5q48 103 91 172t93 109q58 47 129 47q69 0 110 -36.5t41 -104.5q0 -53 -25.5 -102.5t-70 -80t-96.5 -30.5q-56 0 -89.5 33t-33.5 84 q0 41 25 84.5t73 82.5q-10 5 -17 5q-19 0 -34 -17q-33 -30 -78.5 -102t-78.5 -150q104 -20 163 -75.5t59 -147.5q0 -94 -60.5 -183t-172.5 -150.5t-259 -75.5q-169 -60 -169 -109q0 -16 17 -26.5t55 -24.5l186 -70q233 -87 233 -240q0 -122 -102.5 -203.5t-250.5 -120 t-284 -38.5q-127 0 -218.5 20t-140 56.5t-48.5 85.5q0 73 67.5 105.5t197 60.5t180.5 48l-81 25q-57 19 -94 55zM560 545.5q41 64.5 64.5 167.5t24.5 213q0 65 -10.5 96t-42.5 31q-45 0 -86.5 -64t-66.5 -168t-25 -219q0 -69 11.5 -95t39.5 -26q50 0 91 64.5zM171.5 -170 q-26.5 -71 -26.5 -121q0 -32 17 -45.5t51 -13.5q72 0 149.5 23.5t129 66.5t51.5 98q0 27 -16 43.5t-37 24.5t-66 22l-167 53q-59 -80 -85.5 -151zM548.5 1524q59.5 -25 162.5 -25q235 0 410 115l24 -19q-49 -91 -124.5 -168.5t-169 -124.5t-189.5 -47q-108 0 -171 92 t-83 242l31 17q50 -57 109.5 -82z" />
<glyph unicode="&#x120;" horiz-adv-x="1559" d="M1434 1133q0 48 -6 81.5t-23 67.5q-39 77 -119 118.5t-196 41.5q-186 0 -325.5 -178t-213.5 -430.5t-74 -460.5q0 -183 62.5 -272t189.5 -89q68 0 107 29q28 20 42 52.5t35 111.5l48 180q18 68 18 106q0 36 -17 54.5t-52.5 26t-102.5 10.5l10 41q129 -7 389 -7 q234 0 338 7l-10 -41q-49 -4 -73 -16.5t-41 -46.5t-38 -113l-108 -406h-41q1 62 -19 89.5t-61 27.5q-38 0 -79.5 -15.5t-85.5 -37t-70 -33.5q-129 -60 -263 -60q-184 0 -317.5 55t-205 160.5t-71.5 253.5q0 237 134.5 479.5t373 401t533.5 158.5q84 0 145 -17t104 -45 t87 -71q19 -19 35 -19q39 0 81 123h45q-67 -180 -131 -471h-45q11 83 11 154zM1000.5 1853.5q68.5 55.5 180.5 55.5q183 0 183 -140q0 -63 -33.5 -111.5t-91 -75t-127.5 -26.5q-89 0 -134.5 35t-45.5 101q0 106 68.5 161.5z" />
<glyph unicode="&#x121;" horiz-adv-x="997" d="M51 71q-37 36 -37 87q0 57 50.5 104.5t132.5 87.5t217 94q-153 3 -245.5 61.5t-92.5 174.5q0 100 70 194.5t199 155t298 60.5q48 0 91 -5q48 103 91 172t93 109q58 47 129 47q69 0 110 -36.5t41 -104.5q0 -53 -25.5 -102.5t-70 -80t-96.5 -30.5q-56 0 -89.5 33t-33.5 84 q0 41 25 84.5t73 82.5q-10 5 -17 5q-19 0 -34 -17q-33 -30 -78.5 -102t-78.5 -150q104 -20 163 -75.5t59 -147.5q0 -94 -60.5 -183t-172.5 -150.5t-259 -75.5q-169 -60 -169 -109q0 -16 17 -26.5t55 -24.5l186 -70q233 -87 233 -240q0 -122 -102.5 -203.5t-250.5 -120 t-284 -38.5q-127 0 -218.5 20t-140 56.5t-48.5 85.5q0 73 67.5 105.5t197 60.5t180.5 48l-81 25q-57 19 -94 55zM560 545.5q41 64.5 64.5 167.5t24.5 213q0 65 -10.5 96t-42.5 31q-45 0 -86.5 -64t-66.5 -168t-25 -219q0 -69 11.5 -95t39.5 -26q50 0 91 64.5zM171.5 -170 q-26.5 -71 -26.5 -121q0 -32 17 -45.5t51 -13.5q72 0 149.5 23.5t129 66.5t51.5 98q0 27 -16 43.5t-37 24.5t-66 22l-167 53q-59 -80 -85.5 -151zM562.5 1546.5q68.5 55.5 181.5 55.5q89 0 135.5 -35.5t46.5 -104.5q0 -63 -33.5 -111.5t-91 -75t-127.5 -26.5 q-89 0 -134.5 34.5t-45.5 100.5q0 107 68.5 162.5z" />
<glyph unicode="&#x122;" horiz-adv-x="1559" d="M1434 1133q0 48 -6 81.5t-23 67.5q-39 77 -119 118.5t-196 41.5q-186 0 -325.5 -178t-213.5 -430.5t-74 -460.5q0 -183 62.5 -272t189.5 -89q68 0 107 29q28 20 42 52.5t35 111.5l48 180q18 68 18 106q0 36 -17 54.5t-52.5 26t-102.5 10.5l10 41q129 -7 389 -7 q234 0 338 7l-10 -41q-49 -4 -73 -16.5t-41 -46.5t-38 -113l-108 -406h-41q1 62 -19 89.5t-61 27.5q-38 0 -79.5 -15.5t-85.5 -37t-70 -33.5q-129 -60 -263 -60q-184 0 -317.5 55t-205 160.5t-71.5 253.5q0 237 134.5 479.5t373 401t533.5 158.5q84 0 145 -17t104 -45 t87 -71q19 -19 35 -19q39 0 81 123h45q-67 -180 -131 -471h-45q11 83 11 154zM699 -420q64 30 79 80q-57 -37 -137 -37q-143 0 -143 109q0 54 29.5 95t79.5 64t110 23q64 0 111 -32.5t47 -98.5q0 -81 -43 -143t-119.5 -97t-173.5 -37v43q96 1 160 31z" />
<glyph unicode="&#x123;" horiz-adv-x="997" d="M1028 1473q-64 -30 -80 -80q59 37 138 37q143 0 143 -109q0 -61 -39 -107q-19 -66 -69.5 -110.5t-114.5 -44.5q-56 0 -89.5 33t-33.5 84v9q-20 22 -27 51q-49 -75 -83 -157q104 -20 163 -75.5t59 -147.5q0 -94 -60.5 -183t-172.5 -151t-259 -75q-169 -59 -169 -109 q0 -16 17 -26.5t55 -24.5l186 -70q233 -87 233 -240q0 -122 -102.5 -203.5t-250.5 -120t-284 -38.5q-127 0 -218.5 20t-140 56.5t-48.5 85.5q0 73 67.5 105.5t197 60.5t180.5 48l-81 25q-57 19 -94 55t-37 87q0 57 50.5 104.5t132 87.5t217.5 94q-153 2 -245.5 61t-92.5 175 q0 100 70 194.5t199 155t298 60.5q43 0 91 -5q67 143 119 212q8 74 52.5 130t117.5 87t165 33v-43q-96 -1 -160 -31zM560 545.5q41 64.5 64.5 167.5t24.5 213q0 65 -10.5 96t-42.5 31q-45 0 -86.5 -64t-66.5 -168t-25 -219q0 -69 11.5 -95t39.5 -26q50 0 91 64.5z M171.5 -170q-26.5 -71 -26.5 -121q0 -32 17 -45.5t51 -13.5q72 0 149.5 23.5t129 66.5t51.5 98q0 27 -16 43.5t-37 24.5t-66 22l-167 53q-59 -80 -85.5 -151z" />
<glyph unicode="&#x124;" horiz-adv-x="1733" d="M1509 1444q261 0 387 6l-10 -41q-75 -3 -111.5 -16t-58 -48t-41.5 -112l-270 -1016q-18 -70 -18 -100t13.5 -45.5t42.5 -22t83 -8.5l-8 -41q-123 6 -385 6q-237 0 -363 -6l8 41q74 3 111 16t58.5 48t41.5 112l131 492h-452l-131 -492q-18 -70 -18 -100t13.5 -45.5 t42.5 -22t82 -8.5l-8 -41q-126 6 -362 6q-257 0 -383 -6l10 41q71 3 107 16t58 48.5t42 111.5l270 1016q17 65 17 98q0 31 -13.5 47t-42.5 22.5t-82 8.5l11 41q118 -6 383 -6q220 0 364 6l-10 -41q-75 -3 -111.5 -16t-58 -48t-41.5 -112l-128 -483h452l129 483q17 65 17 98 q0 31 -14 47t-42.5 22.5t-81.5 8.5l10 41q123 -6 360 -6zM1295.5 1626.5q-101.5 25.5 -195.5 61.5q-200 -68 -460 -111l-11 29q182 57 343.5 152t260.5 200h37q41 -126 104.5 -207t180.5 -145l-8 -29q-150 24 -251.5 49.5z" />
<glyph unicode="&#x125;" horiz-adv-x="1212" d="M1128 332l-51 -150q-72 -211 -293 -211q-111 0 -163 52t-52 143q0 73 29 158l176 530q18 52 18 80q0 31 -22 31q-46 0 -114.5 -106t-143.5 -280t-138 -370l-57 -195l-2 -8v2l-2 -8h-362l405 1366q10 37 10 57q0 41 -32 59.5t-107 18.5l15 43q162 1 292.5 22t256.5 62 l-265 -904q67 145 132 225t132 111.5t152 31.5q201 0 201 -170q0 -59 -27 -140l-203 -608q-10 -30 -10 -48q0 -38 35 -38q61 0 109 129l43 115h38zM864 1844q-154 -65 -378 -111l-11 29q158 69 297 186t226 248h36q33 -156 88.5 -257t155.5 -177l-8 -29q-242 43 -406 111z " />
<glyph unicode="&#x126;" horiz-adv-x="1733" d="M1776.5 1393q-36.5 -13 -58 -48t-41.5 -112l-37 -141h179l-11 -41h-179l-222 -834q-18 -70 -18 -100t13.5 -45.5t42.5 -22t83 -8.5l-8 -41q-123 6 -385 6q-237 0 -363 -6l8 41q74 3 111 16t58.5 48t41.5 112l131 492h-452l-131 -492q-18 -70 -18 -100t13.5 -45.5 t42.5 -22t82 -8.5l-8 -41q-126 6 -362 6q-257 0 -383 -6l10 41q71 3 107 16t58 48.5t42 111.5l222 834h-181l10 41h182l37 141q17 65 17 98q0 31 -13.5 47t-42.5 22.5t-82 8.5l11 41q119 -6 383 -6q220 0 364 6l-10 -41q-75 -3 -111.5 -16t-58 -48t-41.5 -112l-37 -141h452 l38 141q17 65 17 98q0 31 -14 47t-42.5 22.5t-81.5 8.5l10 41q123 -6 360 -6q261 0 387 6l-10 -41q-75 -3 -111.5 -16zM761 1051l-80 -301h452l80 301h-452z" />
<glyph unicode="&#x127;" horiz-adv-x="1212" d="M1128 332l-51 -150q-72 -211 -293 -211q-111 0 -163 52t-52 143q0 73 29 158l176 530q18 53 18 80q0 31 -22 31q-45 0 -114.5 -106t-144 -280t-137.5 -370l-57 -195l-2 -8v2l-2 -8h-362l369 1245h-166l12 41h166l24 80q10 37 10 57q0 41 -32 59.5t-107 18.5l15 43 q162 1 292.5 22t256.5 62l-100 -342h302l-12 -41h-302l-153 -521q67 145 131.5 225t132 111.5t152.5 31.5q201 0 201 -170q0 -59 -27 -140l-203 -608q-10 -30 -10 -48q0 -38 35 -38q61 0 109 129l43 115h38z" />
<glyph unicode="&#x128;" horiz-adv-x="864" d="M519 117q0 -30 13.5 -45.5t42.5 -22t82 -8.5l-8 -41q-132 6 -383 6q-242 0 -362 -6l10 41q71 3 107 16t58 48.5t42 111.5l270 1016q17 65 17 98q0 31 -13.5 47t-42.5 22.5t-82 8.5l11 41q113 -6 362 -6q232 0 385 6l-10 -41q-75 -3 -111.5 -16t-58 -48t-41.5 -112 l-270 -1016q-18 -70 -18 -100zM432.5 1859q104.5 83 221.5 83q77 0 128 -21.5t131 -75t153 -53.5q48 0 88.5 28t79.5 91l37 -10q-62 -169 -167 -251.5t-222 -82.5q-77 0 -128.5 21t-131 74.5t-152.5 53.5q-49 0 -89 -28t-79 -91l-37 11q63 168 167.5 251z" />
<glyph unicode="&#x129;" horiz-adv-x="686" d="M269 940q0 35 -29 35q-32 0 -59 -29t-54 -100l-47 -125h-39l57 160q77 211 305 211q110 0 162 -53t52 -136q0 -49 -17 -98l-213 -631q-10 -30 -10 -50q0 -36 35 -36q60 0 108 129l43 115h39l-51 -150q-72 -211 -293 -211q-104 0 -161 49t-57 145q0 68 30 159l188 565 q11 29 11 51zM240.5 1551.5q93.5 82.5 197.5 82.5q59 0 98 -21.5t98 -74.5t113 -53q42 0 77.5 28t70.5 91l37 -11q-57 -168 -151 -250.5t-198 -82.5q-59 0 -97.5 21.5t-98 74.5t-113.5 53q-42 0 -77 -28t-70 -91l-37 10q57 169 150.5 251.5z" />
<glyph unicode="&#x12a;" horiz-adv-x="864" d="M519 117q0 -30 13.5 -45.5t42.5 -22t82 -8.5l-8 -41q-132 6 -383 6q-242 0 -362 -6l10 41q71 3 107 16t58 48.5t42 111.5l270 1016q17 65 17 98q0 31 -13.5 47t-42.5 22.5t-82 8.5l11 41q113 -6 362 -6q232 0 385 6l-10 -41q-75 -3 -111.5 -16t-58 -48t-41.5 -112 l-270 -1016q-18 -70 -18 -100zM262 1677l13 52h884l-12 -52h-885z" />
<glyph unicode="&#x12b;" horiz-adv-x="686" d="M269 940q0 35 -29 35q-32 0 -59 -29t-54 -100l-47 -125h-39l57 160q77 211 305 211q110 0 162 -53t52 -136q0 -49 -17 -98l-213 -631q-10 -30 -10 -50q0 -36 35 -36q60 0 108 129l43 115h39l-51 -150q-72 -211 -293 -211q-104 0 -161 49t-57 145q0 68 30 159l188 565 q11 29 11 51zM179.745 1407l10.2002 51h612.832l-11.0498 -51h-611.982z" />
<glyph unicode="&#x12c;" horiz-adv-x="864" d="M519 117q0 -30 13.5 -45.5t42.5 -22t82 -8.5l-8 -41q-132 6 -383 6q-242 0 -362 -6l10 41q71 3 107 16t58 48.5t42 111.5l270 1016q17 65 17 98q0 31 -13.5 47t-42.5 22.5t-82 8.5l11 41q113 -6 362 -6q232 0 385 6l-10 -41q-75 -3 -111.5 -16t-58 -48t-41.5 -112 l-270 -1016q-18 -70 -18 -100zM545 1831.5q80 -25.5 203 -25.5q147 0 262.5 28t214.5 87l25 -18q-55 -91 -141 -168.5t-191 -124.5t-213 -47q-142 0 -225.5 92t-110.5 241l31 17q65 -56 145 -81.5z" />
<glyph unicode="&#x12d;" horiz-adv-x="686" d="M269 940q0 35 -29 35q-32 0 -59 -29t-54 -100l-47 -125h-39l57 160q77 211 305 211q110 0 162 -53t52 -136q0 -49 -17 -98l-213 -631q-10 -30 -10 -50q0 -36 35 -36q60 0 108 129l43 115h39l-51 -150q-72 -211 -293 -211q-104 0 -161 49t-57 145q0 68 30 159l188 565 q11 29 11 51zM347.5 1524q59.5 -25 162.5 -25q235 0 410 115l24 -19q-49 -91 -124.5 -168.5t-169 -124.5t-189.5 -47q-108 0 -171 92t-83 242l31 17q50 -57 109.5 -82z" />
<glyph unicode="&#x12e;" horiz-adv-x="864" d="M519 117q0 -30 13.5 -45.5t42.5 -22t82 -8.5l-8 -41q-132 6 -383 6q-242 0 -362 -6l10 41q71 3 107 16t58 48.5t42 111.5l270 1016q17 65 17 98q0 31 -13.5 47t-42.5 22.5t-82 8.5l11 41q113 -6 362 -6q232 0 385 6l-10 -41q-75 -3 -111.5 -16t-58 -48t-41.5 -112 l-270 -1016q-18 -70 -18 -100zM515 -60q-45 -40 -67 -84t-22 -83q0 -54 59 -54q62 0 146 39l22 -34q-155 -109 -321 -109q-86 0 -136.5 33t-50.5 92q0 89 125.5 157t317.5 109h36q-64 -26 -109 -66z" />
<glyph unicode="&#x12f;" horiz-adv-x="688" d="M415 1546.5q69 55.5 181 55.5q89 0 135.5 -35.5t46.5 -104.5q0 -63 -33 -111.5t-90.5 -75t-128.5 -26.5q-88 0 -134 34.5t-46 100.5q0 107 69 162.5zM271 940q0 35 -29 35q-32 0 -59 -29t-54 -100l-47 -125h-39l57 160q77 211 306 211q110 0 161.5 -53t51.5 -136 q0 -49 -17 -98l-213 -631q-10 -30 -10 -50q0 -36 35 -36q60 0 108 129l43 115h39l-51 -150q-72 -211 -293 -211q-104 0 -161 49t-57 145q0 68 30 159l188 565q11 29 11 51zM302 -60.5q-45 -40.5 -67 -85t-22 -85.5q0 -50 47 -50q28 0 60.5 17.5t60.5 44.5l30 -27 q-116 -139 -293 -139q-85 0 -135.5 33t-50.5 92q0 89 125.5 157t316.5 109h37q-64 -26 -109 -66.5z" />
<glyph unicode="&#x130;" horiz-adv-x="864" d="M519 117q0 -30 13.5 -45.5t42.5 -22t82 -8.5l-8 -41q-132 6 -383 6q-242 0 -362 -6l10 41q71 3 107 16t58 48.5t42 111.5l270 1016q17 65 17 98q0 31 -13.5 47t-42.5 22.5t-82 8.5l11 41q113 -6 362 -6q232 0 385 6l-10 -41q-75 -3 -111.5 -16t-58 -48t-41.5 -112 l-270 -1016q-18 -70 -18 -100zM587.5 1853.5q68.5 55.5 180.5 55.5q183 0 183 -140q0 -63 -33.5 -111.5t-91 -75t-127.5 -26.5q-89 0 -134.5 35t-45.5 101q0 106 68.5 161.5z" />
<glyph unicode="&#x131;" horiz-adv-x="686" d="M269 940q0 35 -29 35q-32 0 -59 -29t-54 -100l-47 -125h-39l57 160q77 211 305 211q110 0 162 -53t52 -136q0 -49 -17 -98l-213 -631q-10 -30 -10 -50q0 -36 35 -36q60 0 108 129l43 115h39l-51 -150q-72 -211 -293 -211q-104 0 -161 49t-57 145q0 68 30 159l188 565 q11 29 11 51z" />
<glyph unicode="&#x132;" horiz-adv-x="1800" d="M259.5 1039q-64.5 75 -64.5 188q0 86 44 150.5t132 100t217 35.5q124 0 214.5 -25.5t261 -99t337.5 -73.5q105 0 225.5 17t212.5 54q77 120 128 120q14 0 28 -11q13 -11 13 -25q0 -50 -150 -106q-104 -95 -174 -244t-132 -370h205l-6 -41h-210l-21 -80l-127 -496 q-60 -234 -226 -376t-465 -142q-153 0 -245 43t-92 139q0 80 55.5 129t157.5 49q90 0 148 -38.5t58 -110.5q0 -116 -133 -172q21 -4 47 -4q60 0 100.5 39.5t72.5 119.5t75 232l141 496q26 92 62 172h-281l6 41h294q63 128 151 227t194 177.5t265 176.5q-127 -31 -266 -95.5 t-223 -94t-210 -29.5q-67 0 -129.5 12t-195 47t-226.5 35q-147 0 -147 -104q0 -71 70 -113.5t213 -42.5q117 0 187.5 17t152.5 55l14 -37q-96 -45 -165 -61l-220 -703q-21 -64 -21 -100q0 -42 31.5 -57.5t110.5 -18.5l-9 -41q-132 6 -383 6q-242 0 -362 -6l10 41 q70 3 104.5 16.5t56 48t46.5 111.5l223 712q-116 35 -180.5 110z" />
<glyph unicode="&#x133;" horiz-adv-x="1313" d="M400.5 1546.5q68.5 55.5 181.5 55.5q89 0 135.5 -35.5t46.5 -104.5q0 -63 -33.5 -111.5t-91 -75t-127.5 -26.5q-89 0 -134.5 34.5t-45.5 100.5q0 107 68.5 162.5zM1064.5 1546.5q68.5 55.5 181.5 55.5q89 0 135.5 -35.5t46.5 -104.5q0 -63 -33.5 -111.5t-91 -75 t-127.5 -26.5q-89 0 -134.5 34.5t-45.5 100.5q0 107 68.5 162.5zM378 123q0 -55 54 -55q42 0 82 32t66 88q31 70 48 150.5t42.5 261.5t64.5 281q43 110 132 160.5t198 50.5q108 0 154.5 -50.5t46.5 -131.5q0 -48 -15 -105l-155 -569q-38 -139 -74 -228.5t-77 -149 t-97 -106.5q-165 -137 -406 -137q-260 0 -260 147q0 47 24 85t65.5 59.5t90.5 21.5q47 0 82.5 -19t54.5 -50.5t19 -67.5q0 -40 -23.5 -80t-68.5 -65q78 9 124.5 58.5t78.5 162.5l286 1022q7 22 7 41q0 22 -9 33.5t-24 11.5q-75 0 -131 -148q-27 -79 -48.5 -233.5t-40 -251.5 t-61.5 -190q-47 -103 -124 -142t-183 -39q-260 0 -260 199q0 68 29 154l188 565q11 29 11 51q0 35 -29 35q-32 0 -59 -29t-54 -100l-47 -125h-39l57 160q77 211 305 211q110 0 162 -53t52 -136q0 -49 -17 -98l-213 -631q-9 -28 -9 -51z" />
<glyph unicode="&#x134;" horiz-adv-x="1464" d="M985 977q88 99 194 177.5t265 176.5q-111 -31 -228.5 -96t-188.5 -94t-179 -29q-58 0 -111 14t-145 47t-141 33q-52 0 -84.5 -25.5t-32.5 -78.5q0 -147 282 -164l-4 -37q-206 13 -325 96.5t-119 229.5q0 132 82.5 209t243.5 77q144 0 270.5 -66t203 -99t201.5 -33 q80 0 173 17.5t163 53.5q79 120 128 120q14 0 28 -11q13 -11 13 -25q0 -50 -150 -106q-104 -95 -174 -244t-132 -370h205l-6 -41h-210l-21 -80l-127 -496q-60 -234 -225.5 -376t-464.5 -142q-154 0 -246 43t-92 139q0 80 55.5 129t157.5 49q90 0 148.5 -38.5t58.5 -110.5 q0 -116 -134 -172q21 -4 48 -4q60 0 100.5 39.5t72.5 120t74 231.5l142 496q26 92 61 172h-280l6 41h293q63 128 151 227zM1338.5 1626.5q-101.5 25.5 -195.5 61.5q-200 -68 -460 -111l-11 29q182 57 343.5 152t260.5 200h37q41 -126 104.5 -207t180.5 -145l-8 -29 q-150 24 -251.5 49.5z" />
<glyph unicode="&#x135;" horiz-adv-x="651" d="M360.5 7q-35.5 -89 -76.5 -148.5t-98 -106.5q-165 -137 -405 -137q-260 0 -260 147q0 47 24 85t65.5 59.5t90.5 21.5q46 0 81.5 -19.5t55 -51t19.5 -66.5q0 -40 -24 -80t-69 -65q79 9 125 58t78 163l287 1022q9 35 9 53q0 33 -30 33q-61 0 -110 -129l-47 -125h-39l57 160 q41 110 124.5 160.5t184.5 50.5q108 0 155 -50.5t47 -132.5q0 -47 -15 -104l-156 -569q-38 -140 -73.5 -229zM471 1352q-154 -65 -378 -111l-11 29q158 69 297 186t226 248h36q33 -156 88.5 -257t155.5 -177l-8 -29q-242 43 -406 111z" />
<glyph unicode="&#x136;" horiz-adv-x="1604" d="M934 645q0 62 -38 90q-90 -23 -128 -23q-47 0 -47 30q0 4 2 14q5 21 18 31t40 10q37 0 115 -21q120 18 173.5 109t103 277t105.5 249q60 68 162 68q69 0 124 -28.5t86 -80.5t31 -121q0 -61 -27.5 -117.5t-80 -92t-123.5 -35.5q-46 0 -85.5 19t-64 57.5t-24.5 93.5 q0 81 57 153t154 107q-20 10 -53 10q-43 0 -72 -14.5t-53 -43.5q-49 -59 -98 -229t-96 -265.5t-152 -126.5q133 -9 211 -42t111.5 -88t33.5 -136q0 -40 -8 -93l-33 -205q-1 -4 -1 -11q0 -20 13 -32.5t33 -12.5q56 0 88 99l35 104h41l-53 -158q-37 -110 -115 -164.5 t-176 -54.5q-89 0 -152 28t-95.5 78t-32.5 116q0 21 5 51l58 323q8 50 8 78zM519 117q0 -30 13.5 -45.5t42.5 -22t82 -8.5l-8 -41q-126 6 -362 6q-257 0 -383 -6l10 41q71 3 107 16t58 48.5t42 111.5l270 1016q17 65 17 98q0 31 -13.5 47t-42.5 22.5t-82 8.5l11 41 q119 -6 383 -6q220 0 364 6l-10 -41q-75 -3 -111.5 -16t-58 -48t-41.5 -112l-270 -1016q-18 -70 -18 -100zM631 -420q64 30 79 80q-57 -37 -137 -37q-143 0 -143 109q0 54 29.5 95t79.5 64t110 23q64 0 111 -32.5t47 -98.5q0 -81 -43 -143t-119.5 -97t-173.5 -37v43 q96 1 160 31z" />
<glyph unicode="&#x137;" horiz-adv-x="1182" d="M627.5 699q42.5 62 84 184t87.5 161q29 24 64.5 36t66.5 12q76 0 129 -31.5t79.5 -85t26.5 -117.5q0 -65 -27.5 -111.5t-74.5 -71t-105 -24.5q-77 0 -121 40.5t-44 101.5q0 78 52 138.5t130 94.5q-7 12 -22 19.5t-29 7.5q-54 0 -95 -33q-39 -33 -79 -147.5t-80 -182.5 t-128 -92q375 -2 375 -232q0 -38 -8 -73l-24 -119q-6 -29 -6 -47q0 -39 30 -39q61 0 109 129l43 115h39l-51 -150q-79 -211 -328 -211q-198 0 -198 181q0 39 9 84l35 145q15 51 15 87q0 45 -24 71t-76 38l-169 -577h-362l405 1366q10 37 10 57q0 41 -32 59.5t-107 18.5 l15 43q162 1 292.5 22t256.5 62l-297 -1012q91 21 133.5 83zM45 -420q64 30 80 80q-59 -37 -138 -37q-143 0 -143 109q0 54 29.5 95t79.5 64t110 23q64 0 111 -32.5t47 -98.5q0 -81 -43 -143t-119.5 -97t-173.5 -37v43q96 1 160 31z" />
<glyph unicode="&#x138;" horiz-adv-x="1260" d="M665.5 648.5q48.5 73.5 95.5 215t93 180.5q29 24 64.5 36t66.5 12q76 0 129.5 -31.5t80 -85t26.5 -117.5q0 -65 -27.5 -111.5t-74.5 -71t-105 -24.5q-78 0 -122 40.5t-44 101.5q0 78 52 138.5t130 94.5q-7 12 -22 19.5t-29 7.5q-55 0 -94 -33q-40 -33 -84 -163t-87 -208 t-133 -106q374 -2 374 -244q0 -24 -5 -61l-10 -64q-5 -33 -5 -47q0 -23 7.5 -31t22.5 -8q60 0 108 129l43 115h39l-51 -150q-79 -211 -328 -211q-199 0 -199 175q0 45 11 90l20 90q12 49 12 85q0 50 -26.5 76.5t-86.5 37.5l-138 -525h-363l250 889q12 45 12 59q0 27 -30 27 q-32 0 -59 -29t-54 -100l-47 -125h-39l57 160q38 108 107 159.5t174 51.5q115 0 165.5 -54t50.5 -139q0 -44 -13 -94l-65 -248q102 18 150.5 91.5z" />
<glyph unicode="&#x139;" horiz-adv-x="1264" d="M1139 262q-32 -108 -54 -262q-139 6 -462 6q-484 0 -721 -6l8 41q74 3 110.5 16t58.5 48t42 112l270 1016q17 65 17 98q0 31 -13.5 47t-42.5 22.5t-82 8.5l11 41q119 -6 387 -6q214 0 358 6l-10 -41q-75 -3 -111.5 -16t-58 -48t-41.5 -112l-270 -1016q-18 -70 -18 -100 q0 -29 13.5 -44t41.5 -20.5t79 -5.5h37q75 0 158.5 38.5t162.5 124.5t134 220h45q-21 -54 -49 -168zM709 1768q82 88 122.5 127t92.5 67q43 24 94 24q88 0 127 -71q15 -29 15 -55q0 -75 -107 -136q-39 -21 -87 -35t-174 -43.5t-235 -64.5l-14 25q84 74 166 162z" />
<glyph unicode="&#x13a;" horiz-adv-x="647" d="M340 136q0 -25 11.5 -36.5t27.5 -11.5q20 0 47.5 25.5t56.5 103.5l43 115h39l-51 -150q-41 -119 -121 -165t-170 -46q-102 0 -159 53t-57 155q0 63 24 145l313 1042q10 37 10 57q0 41 -32 59.5t-107 18.5l14 43q163 1 293 22t256 62l-432 -1454q-6 -22 -6 -38zM578 1862 q82 88 122.5 127t92.5 67q43 24 94 24q88 0 127 -71q15 -29 15 -55q0 -75 -107 -136q-39 -21 -87 -35t-174 -43.5t-235 -64.5l-14 25q84 74 166 162z" />
<glyph unicode="&#x13b;" horiz-adv-x="1264" d="M1139 262q-32 -108 -54 -262q-139 6 -462 6q-484 0 -721 -6l8 41q74 3 110.5 16t58.5 48t42 112l270 1016q17 65 17 98q0 31 -13.5 47t-42.5 22.5t-82 8.5l11 41q119 -6 387 -6q214 0 358 6l-10 -41q-75 -3 -111.5 -16t-58 -48t-41.5 -112l-270 -1016q-18 -70 -18 -100 q0 -29 13.5 -44t41.5 -20.5t79 -5.5h37q75 0 158.5 38.5t162.5 124.5t134 220h45q-21 -54 -49 -168zM603 -420q64 30 79 80q-57 -37 -137 -37q-143 0 -143 109q0 54 29.5 95t79.5 64t110 23q64 0 111 -32.5t47 -98.5q0 -81 -43 -143t-119.5 -97t-173.5 -37v43q96 1 160 31z " />
<glyph unicode="&#x13c;" horiz-adv-x="647" d="M340 136q0 -25 11.5 -36.5t27.5 -11.5q20 0 47.5 25.5t56.5 103.5l43 115h39l-51 -150q-41 -119 -121 -165t-170 -46q-102 0 -159 53t-57 155q0 63 24 145l313 1042q10 37 10 57q0 41 -32 59.5t-107 18.5l14 43q163 1 293 22t256 62l-432 -1454q-6 -22 -6 -38zM-176 -420 q64 30 80 80q-59 -37 -138 -37q-143 0 -143 109q0 54 29.5 95t79.5 64t110 23q64 0 111 -32.5t47 -98.5q0 -81 -43 -143t-119.5 -97t-173.5 -37v43q96 1 160 31z" />
<glyph unicode="&#x13d;" horiz-adv-x="1264" d="M1139 262q-32 -108 -54 -262q-139 6 -462 6q-484 0 -721 -6l8 41q74 3 110.5 16t58.5 48t42 112l270 1016q17 65 17 98q0 31 -13.5 47t-42.5 22.5t-82 8.5l11 41q119 -6 387 -6q214 0 358 6l-10 -41q-75 -3 -111.5 -16t-58 -48t-41.5 -112l-270 -1016q-18 -70 -18 -100 q0 -29 13.5 -44t41.5 -20.5t79 -5.5h37q75 0 158.5 38.5t162.5 124.5t134 220h45q-21 -54 -49 -168zM1112.5 1223q25.5 100 25.5 145q0 20 -10.5 29.5t-36.5 9.5l6 43q25 0 46 -1t40 -1q118 0 230 25q2 -5 2 -25q0 -73 -94.5 -197t-258.5 -266l-28 8q53 130 78.5 230z" />
<glyph unicode="&#x13e;" horiz-adv-x="647" d="M340 136q0 -25 11.5 -36.5t27.5 -11.5q20 0 47.5 25.5t56.5 103.5l43 115h39l-51 -150q-41 -119 -121 -165t-170 -46q-102 0 -159 53t-57 155q0 63 24 145l313 1042q10 37 10 57q0 41 -32 59.5t-107 18.5l14 43q163 1 293 22t256 62l-432 -1454q-6 -22 -6 -38zM809 1349 q31 106 31 152q0 39 -27 39l7 43q18 0 34 -1t31 -1q119 0 229 25q2 -4 2 -25q0 -76 -100 -206t-272 -277l-29 8q63 137 94 243z" />
<glyph unicode="&#x13f;" d="M1139 262q-32 -108 -54 -262q-139 6 -462 6q-484 0 -721 -6l8 41q74 3 110.5 16t58.5 48t42 112l270 1016q17 65 17 98q0 31 -13.5 47t-42.5 22.5t-82 8.5l11 41q119 -6 387 -6q214 0 358 6l-10 -41q-75 -3 -111.5 -16t-58 -48t-41.5 -112l-270 -1016q-18 -70 -18 -100 q0 -29 13.5 -44t41.5 -20.5t79 -5.5h37q75 0 158.5 38.5t162.5 124.5t134 220h45q-21 -54 -49 -168zM962 843.5q30 49.5 82 77.5t117 28q79 0 120.5 -35.5t41.5 -104.5q0 -54 -31 -103t-84 -79.5t-116 -30.5q-79 0 -119.5 34.5t-40.5 100.5q0 63 30 112.5z" />
<glyph unicode="&#x140;" horiz-adv-x="1006" d="M340 136q0 -25 11.5 -36.5t27.5 -11.5q20 0 47.5 25.5t56.5 103.5l43 115h39l-51 -150q-41 -119 -121 -165t-170 -46q-102 0 -159 53t-57 155q0 63 24 145l313 1042q10 37 10 57q0 41 -32 59.5t-107 18.5l14 43q163 1 293 22t256 62l-432 -1454q-6 -22 -6 -38zM626 671.5 q30 49.5 82 77.5t117 28q79 0 120.5 -35.5t41.5 -104.5q0 -54 -31 -103t-84 -79.5t-116 -30.5q-79 0 -119.5 34.5t-40.5 100.5q0 63 30 112.5z" />
<glyph unicode="&#x141;" horiz-adv-x="1266" d="M1141 262q-32 -108 -54 -262q-139 6 -462 6q-484 0 -721 -6l8 41q74 3 110.5 16t58.5 48t42 112l79 297l-167 -84l12 47l167 84l179 672q17 65 17 98q0 31 -13.5 47t-42.5 22.5t-82 8.5l11 41q119 -6 387 -6q214 0 358 6l-10 -41q-75 -3 -111.5 -16t-58 -48t-41.5 -112 l-120 -452l374 188l-12 -47l-375 -188l-137 -517q-18 -70 -18 -100q0 -29 13.5 -44t41.5 -20.5t79 -5.5h37q75 0 158.5 38.5t162.5 124.5t134 220h45q-21 -54 -49 -168z" />
<glyph unicode="&#x142;" horiz-adv-x="672" d="M788 1026l-8 -61l-236 -157l-188 -634q-6 -22 -6 -38q0 -25 11.5 -36.5t27.5 -11.5q20 0 47.5 25.5t56.5 103.5l43 115h39l-51 -150q-41 -119 -121 -165t-170 -46q-102 0 -159 53t-57 155q0 63 24 145l85 281l-155 -103l9 61l167 112l207 691q10 37 10 57q0 41 -32 59.5 t-107 18.5l14 43q163 1 293 22t256 62l-223 -750z" />
<glyph unicode="&#x143;" horiz-adv-x="1763" d="M1532 1413q90 131 221 131q71 0 125.5 -29t84.5 -79t30 -111q0 -64 -30.5 -113t-83 -75.5t-116.5 -26.5q-84 0 -133 40t-49 112q0 60 27.5 109t76 80.5t109.5 41.5q-16 16 -51 16q-50 0 -94.5 -30.5t-79.5 -81.5q-91 -136 -189 -477t-223 -930h-45l-536 975 q-173 -831 -291 -988q-45 -60 -95.5 -94.5t-123.5 -34.5q-71 0 -125.5 29t-84.5 79t-30 112q0 64 30.5 113t82.5 75.5t116 26.5q84 0 133.5 -40.5t49.5 -111.5q0 -60 -28 -109t-76.5 -80.5t-108.5 -41.5q15 -17 51 -17q103 0 176 115q77 120 158.5 430t177.5 801v4 q12 57 12 91t-14.5 51.5t-47.5 24.5t-96 9l11 41q64 -6 182 -6q95 0 166 6l447 -870q157 649 284 833zM1192 1768q82 88 122.5 127t92.5 67q43 24 94 24q88 0 127 -71q15 -29 15 -55q0 -75 -107 -136q-39 -21 -87 -35t-174 -43.5t-235 -64.5l-14 25q84 74 166 162z" />
<glyph unicode="&#x144;" horiz-adv-x="1268" d="M1184 332l-51 -150q-74 -211 -293 -211q-132 0 -185 74q-34 46 -34 115q0 65 32 164l176 530q18 52 18 80q0 31 -22 31q-53 0 -137.5 -143.5t-171 -367t-145.5 -448.5l1 4l-3 -10h-363l250 889q12 45 12 59q0 27 -30 27q-32 0 -59 -29t-54 -100l-47 -125h-39l57 160 q38 108 107 159.5t174 51.5q115 0 165.5 -54t50.5 -139q0 -44 -13 -94l-56 -213q80 200 153.5 308.5t148.5 150t171 41.5q201 0 201 -170q0 -59 -27 -140l-202 -608q-10 -30 -10 -49q0 -37 34 -37q61 0 109 129l43 115h39zM756 1449.5q53 107.5 80.5 156.5t68.5 90 q26 26 61 42t70 16q55 0 95 -40q34 -34 34 -77q0 -61 -67 -130q-32 -32 -74 -59t-154.5 -91.5t-205.5 -129.5l-21 20q60 95 113 202.5z" />
<glyph unicode="&#x145;" horiz-adv-x="1763" d="M1532 1413q90 131 221 131q71 0 125.5 -29t84.5 -79t30 -111q0 -64 -30.5 -113t-83 -75.5t-116.5 -26.5q-84 0 -133 40t-49 112q0 60 27.5 109t76 80.5t109.5 41.5q-16 16 -51 16q-50 0 -94.5 -30.5t-79.5 -81.5q-91 -136 -189 -477t-223 -930h-45l-536 975 q-173 -831 -291 -988q-45 -60 -95.5 -94.5t-123.5 -34.5q-71 0 -125.5 29t-84.5 79t-30 112q0 64 30.5 113t82.5 75.5t116 26.5q84 0 133.5 -40.5t49.5 -111.5q0 -60 -28 -109t-76.5 -80.5t-108.5 -41.5q15 -17 51 -17q103 0 176 115q77 120 158.5 430t177.5 801v4 q12 57 12 91t-14.5 51.5t-47.5 24.5t-96 9l11 41q64 -6 182 -6q95 0 166 6l447 -870q157 649 284 833zM691 -420q64 30 79 80q-57 -37 -137 -37q-143 0 -143 109q0 54 29.5 95t79.5 64t110 23q64 0 111 -32.5t47 -98.5q0 -81 -43 -143t-119.5 -97t-173.5 -37v43q96 1 160 31 z" />
<glyph unicode="&#x146;" horiz-adv-x="1268" d="M1184 332l-51 -150q-74 -211 -293 -211q-132 0 -185 74q-34 46 -34 115q0 65 32 164l176 530q18 52 18 80q0 31 -22 31q-53 0 -137.5 -143.5t-171 -367t-145.5 -448.5l1 4l-3 -10h-363l250 889q12 45 12 59q0 27 -30 27q-32 0 -59 -29t-54 -100l-47 -125h-39l57 160 q38 108 107 159.5t174 51.5q115 0 165.5 -54t50.5 -139q0 -44 -13 -94l-56 -213q80 200 153.5 308.5t148.5 150t171 41.5q201 0 201 -170q0 -59 -27 -140l-202 -608q-10 -30 -10 -49q0 -37 34 -37q61 0 109 129l43 115h39zM70 -420q64 30 80 80q-59 -37 -138 -37 q-143 0 -143 109q0 54 29.5 95t79.5 64t110 23q64 0 111 -32.5t47 -98.5q0 -81 -43 -143t-119.5 -97t-173.5 -37v43q96 1 160 31z" />
<glyph unicode="&#x147;" horiz-adv-x="1763" d="M1532 1413q90 131 221 131q71 0 125.5 -29t84.5 -79t30 -111q0 -64 -30.5 -113t-83 -75.5t-116.5 -26.5q-84 0 -133 40t-49 112q0 60 27.5 109t76 80.5t109.5 41.5q-16 16 -51 16q-50 0 -94.5 -30.5t-79.5 -81.5q-91 -136 -189 -477t-223 -930h-45l-536 975 q-173 -831 -291 -988q-45 -60 -95.5 -94.5t-123.5 -34.5q-71 0 -125.5 29t-84.5 79t-30 112q0 64 30.5 113t82.5 75.5t116 26.5q84 0 133.5 -40.5t49.5 -111.5q0 -60 -28 -109t-76.5 -80.5t-108.5 -41.5q15 -17 51 -17q103 0 176 115q77 120 158.5 430t177.5 801v4 q12 57 12 91t-14.5 51.5t-47.5 24.5t-96 9l11 41q64 -6 182 -6q95 0 166 6l447 -870q157 649 284 833zM1123.5 1888.5q101.5 -25.5 197.5 -61.5q202 68 461 110l10 -28q-183 -58 -344.5 -153t-259.5 -200h-37q-40 125 -103.5 207t-180.5 146l8 28q147 -23 248.5 -48.5z" />
<glyph unicode="&#x148;" horiz-adv-x="1268" d="M1184 332l-51 -150q-74 -211 -293 -211q-132 0 -185 74q-34 46 -34 115q0 65 32 164l176 530q18 52 18 80q0 31 -22 31q-53 0 -137.5 -143.5t-171 -367t-145.5 -448.5l1 4l-3 -10h-363l250 889q12 45 12 59q0 27 -30 27q-32 0 -59 -29t-54 -100l-47 -125h-39l57 160 q38 108 107 159.5t174 51.5q115 0 165.5 -54t50.5 -139q0 -44 -13 -94l-56 -213q80 200 153.5 308.5t148.5 150t171 41.5q201 0 201 -170q0 -59 -27 -140l-202 -608q-10 -30 -10 -49q0 -37 34 -37q61 0 109 129l43 115h39zM900 1593q154 65 378 111l11 -29 q-158 -69 -297 -186t-226 -248h-36q-33 156 -88.5 257t-155.5 177l8 29q242 -43 406 -111z" />
<glyph unicode="&#x149;" horiz-adv-x="1268" d="M1184 332l-51 -150q-74 -211 -293 -211q-132 0 -185 74q-34 46 -34 115q0 65 32 164l176 530q18 52 18 80q0 31 -22 31q-53 0 -137.5 -143.5t-171 -367t-145.5 -448.5l1 4l-3 -10h-363l250 889q12 45 12 59q0 27 -30 27q-32 0 -59 -29t-54 -100l-47 -125h-39l57 160 q38 108 107 159.5t174 51.5q115 0 165.5 -54t50.5 -139q0 -44 -13 -94l-56 -213q80 200 153.5 308.5t148.5 150t171 41.5q201 0 201 -170q0 -59 -27 -140l-202 -608q-10 -30 -10 -49q0 -37 34 -37q61 0 109 129l43 115h39zM222.5 1192q64.5 75 70.5 168q-61 -64 -143 -64 q-77 0 -118.5 34.5t-41.5 100.5q0 63 30 112.5t82 77.5t117 28q166 0 166 -168q0 -144 -82 -260.5t-225 -178.5l-10 37q90 38 154.5 113z" />
<glyph unicode="&#x14a;" horiz-adv-x="1505" d="M1499 1444q115 0 187 6l-11 -41q-75 -3 -111.5 -16t-58 -48t-41.5 -112l-327 -1243q-25 -118 -60 -198.5t-99.5 -128.5t-166.5 -48q-117 0 -202 44t-85 138q0 80 56 129t157 49q91 0 149 -38.5t58 -110.5q0 -114 -137 -172q16 -4 27 -4q80 0 131.5 50t79 122.5 t47.5 167.5l-717 981l-203 -754q-18 -63 -18 -98q0 -31 14 -47t43 -22.5t82 -8.5l-8 -41q-73 6 -183 6q-127 0 -194 -6l8 41q75 3 111.5 16t58 48t41.5 112l270 1016q16 62 16 94t-15.5 49t-49.5 24t-96 9l10 41q64 -6 182 -6q96 0 166 6l633 -887l176 670q17 65 17 98 q0 31 -13.5 47t-42.5 22.5t-82 8.5l11 41q70 -6 190 -6z" />
<glyph unicode="&#x14b;" horiz-adv-x="1233" d="M677.5 900.5q73.5 108.5 148.5 150t171 41.5q200 0 200 -170q0 -59 -26 -140l-157 -546q-68 -212 -128.5 -326t-144.5 -178q-81 -63 -183 -90t-198 -27q-260 0 -260 147q0 47 24 85t65.5 59.5t91.5 21.5q46 0 81.5 -19t54.5 -50.5t19 -67.5q0 -40 -23.5 -80t-68.5 -65 q52 6 88 29t63.5 69t51.5 123l282 987q17 56 17 81q0 30 -21 30q-53 0 -137.5 -143.5t-171 -367t-145.5 -448.5l1 4l-3 -10h-363l250 889q12 45 12 59q0 27 -30 27q-32 0 -59 -29t-54 -100l-47 -125h-39l57 160q38 108 107 159.5t174 51.5q115 0 165.5 -54t50.5 -139 q0 -44 -13 -94l-56 -213q80 200 153.5 308.5z" />
<glyph unicode="&#x14c;" horiz-adv-x="1657" d="M194.5 932q124.5 237 348.5 392t504 155q188 0 324 -58t209 -169t73 -267q0 -231 -125.5 -467.5t-350 -391.5t-503.5 -155q-188 0 -324 58t-208 168.5t-72 265.5q0 232 124.5 469zM779 1294.5q-120 -147.5 -193.5 -381.5t-73.5 -477q0 -131 23 -228t64 -148.5t93 -51.5 q129 0 249 147.5t193.5 381.5t73.5 477q0 131 -23 228t-63.5 148.5t-93.5 51.5q-129 0 -249 -147.5zM653 1677l13 52h884l-12 -52h-885z" />
<glyph unicode="&#x14d;" horiz-adv-x="1141" d="M92 672q80 179 241 299.5t392 120.5q178 0 271.5 -90t93.5 -259q0 -173 -80 -352t-241.5 -299.5t-391.5 -120.5q-178 0 -271.5 90t-93.5 258q0 174 80 353zM569.5 897q-87.5 -154 -152.5 -372t-65 -398q0 -63 9.5 -89t29.5 -26q55 0 142 148t152 363.5t65 408.5 q0 71 -9.5 95t-25.5 24q-58 0 -145.5 -154zM437 1407l12 51h721l-13 -51h-720z" />
<glyph unicode="&#x14e;" horiz-adv-x="1657" d="M194.5 932q124.5 237 348.5 392t504 155q188 0 324 -58t209 -169t73 -267q0 -231 -125.5 -467.5t-350 -391.5t-503.5 -155q-188 0 -324 58t-208 168.5t-72 265.5q0 232 124.5 469zM779 1294.5q-120 -147.5 -193.5 -381.5t-73.5 -477q0 -131 23 -228t64 -148.5t93 -51.5 q129 0 249 147.5t193.5 381.5t73.5 477q0 131 -23 228t-63.5 148.5t-93.5 51.5q-129 0 -249 -147.5zM936 1831.5q80 -25.5 203 -25.5q147 0 262.5 28t214.5 87l25 -18q-55 -91 -141 -168.5t-191 -124.5t-213 -47q-142 0 -225.5 92t-110.5 241l31 17q65 -56 145 -81.5z" />
<glyph unicode="&#x14f;" horiz-adv-x="1141" d="M92 672q80 179 241 299.5t392 120.5q178 0 271.5 -90t93.5 -259q0 -173 -80 -352t-241.5 -299.5t-391.5 -120.5q-178 0 -271.5 90t-93.5 258q0 174 80 353zM569.5 897q-87.5 -154 -152.5 -372t-65 -398q0 -63 9.5 -89t29.5 -26q55 0 142 148t152 363.5t65 408.5 q0 71 -9.5 95t-25.5 24q-58 0 -145.5 -154zM644.5 1524q59.5 -25 162.5 -25q235 0 410 115l24 -19q-49 -91 -124.5 -168.5t-169 -124.5t-189.5 -47q-108 0 -171 92t-83 242l31 17q50 -57 109.5 -82z" />
<glyph unicode="&#x150;" horiz-adv-x="1657" d="M194.5 932q124.5 237 348.5 392t504 155q188 0 324 -58t209 -169t73 -267q0 -231 -125.5 -467.5t-350 -391.5t-503.5 -155q-188 0 -324 58t-208 168.5t-72 265.5q0 232 124.5 469zM779 1294.5q-120 -147.5 -193.5 -381.5t-73.5 -477q0 -131 23 -228t64 -148.5t93 -51.5 q129 0 249 147.5t193.5 381.5t73.5 477q0 131 -23 228t-63.5 148.5t-93.5 51.5q-129 0 -249 -147.5zM851 1761.5q50 80.5 73 113.5t53 56q35 24 77 24q35 0 67 -16.5t53 -48.5q21 -31 21 -67q0 -32 -17.5 -62t-48.5 -51q-27 -17 -60 -29t-128.5 -39t-184.5 -61l-18 21 q63 79 113 159.5zM1316 1761.5q50 80.5 73 113.5t53 56q35 24 78 24q35 0 67 -16.5t52 -48.5q22 -31 22 -67q0 -32 -17.5 -62t-49.5 -51q-27 -17 -60 -29t-128.5 -39t-184.5 -61l-18 21q63 79 113 159.5z" />
<glyph unicode="&#x151;" horiz-adv-x="1141" d="M92 672q80 179 241 299.5t392 120.5q178 0 271.5 -90t93.5 -259q0 -173 -80 -352t-241.5 -299.5t-391.5 -120.5q-178 0 -271.5 90t-93.5 258q0 174 80 353zM569.5 897q-87.5 -154 -152.5 -372t-65 -398q0 -63 9.5 -89t29.5 -26q55 0 142 148t152 363.5t65 408.5 q0 71 -9.5 95t-25.5 24q-58 0 -145.5 -154zM558.5 1421q22.5 85 35.5 128.5t35 74.5q19 25 48 39t61 14q51 0 92 -32q46 -41 46 -96q0 -49 -36 -91q-19 -25 -47.5 -45.5t-112 -74.5t-158.5 -113l-24 14q38 97 60.5 182zM924.5 1420q22.5 85 36 129t35.5 75q19 25 48 39 t61 14q50 0 91 -32q46 -40 46 -96q0 -49 -36 -91q-19 -25 -47.5 -46t-111.5 -74.5t-158 -112.5l-25 14q38 96 60.5 181z" />
<glyph unicode="&#x152;" horiz-adv-x="2089" d="M1915 262q-35 -127 -53 -262q-140 6 -463 6q-340 0 -506 -2q-115 -33 -219 -33q-188 0 -324 58t-208 168.5t-72 265.5q0 232 124.5 469t348.5 392t504 155q87 0 180 -35q59 -1 199 -1l350 1q295 0 424 6q-53 -138 -78 -242q-12 -47 -27 -127h-45q15 86 15 145 q0 96 -42.5 136.5t-138.5 40.5h-88q-71 0 -106.5 -12t-57 -46.5t-41.5 -111.5l-128 -483h118q58 0 96.5 30.5t62 76t52.5 122.5h45q-26 -79 -43.5 -148.5t-26.5 -101.5q-21 -78 -53 -250h-45q0 20 5 63t5 63q0 46 -22.5 73t-83.5 31h-121l-131 -492q-17 -66 -17 -99 q0 -30 13.5 -45t41.5 -20.5t79 -5.5h108q99 0 162.5 34t110 111t94.5 218h45q-19 -50 -43 -148zM1193 1340q0 56 -32.5 79t-105.5 23q-142 0 -267.5 -147t-200.5 -380.5t-75 -478.5q0 -202 55.5 -315t157.5 -113q60 0 99 23.5t55 81.5l297 1120q17 61 17 107z" />
<glyph unicode="&#x153;" horiz-adv-x="1669" d="M1307.5 50q-133.5 -79 -306.5 -79q-110 0 -197 41.5t-127 119.5q-56 -77 -141 -119t-182 -42q-170 0 -262 90.5t-92 257.5q0 168 98 349t275 302.5t401 121.5q79 0 140 -37.5t84 -109.5q197 147 432 147q114 0 183.5 -46t69.5 -135q0 -117 -93 -215t-240 -167t-313 -107 q-7 -55 -7 -105q0 -112 43 -155t127 -43q51 0 131.5 35t155.5 108l33 -16q-79 -117 -212.5 -196zM1255.5 964q-71.5 -89 -130.5 -228.5t-83 -279.5q132 64 209 144q78 80 122 184t44 217q0 52 -33 52q-57 0 -128.5 -89zM686.5 503.5q39.5 122.5 112.5 230.5t171 189 q-38 68 -136 68q-104 0 -210 -98t-174.5 -257t-68.5 -331q0 -190 133 -190q88 0 149 48q-16 45 -16 97q0 121 39.5 243.5z" />
<glyph unicode="&#x154;" horiz-adv-x="1520" d="M1475 248l-9 -27q-40 -130 -125.5 -190t-232.5 -60q-148 0 -221.5 56t-73.5 159q0 28 4 52l39 233q6 36 6 69q0 74 -44.5 114t-153.5 45l-127 -482q-20 -76 -20 -100q0 -38 30 -55t108 -21l-8 -41q-141 6 -364 6q-258 0 -381 -6l8 41q74 3 110.5 16t58.5 48t42 112 l268 1016q18 72 18 96q0 39 -30 57t-107 23l11 41q119 -6 348 -6q81 0 168.5 2t144.5 2q189 0 308 -28t177 -90t58 -165q0 -124 -79.5 -220t-225.5 -155t-343 -76q135 -9 227.5 -31t148 -71.5t55.5 -135.5q0 -25 -4 -48l-35 -213q-5 -30 -5 -48q0 -79 66 -79q42 0 72.5 32.5 t54.5 98.5l10 29h48zM863.5 793.5q91.5 53.5 150.5 158.5t59 256q0 201 -143 201q-43 0 -66.5 -22.5t-40.5 -83.5l-149 -568q98 5 189.5 58.5zM920 1768q82 88 122.5 127t92.5 67q43 24 94 24q88 0 127 -71q15 -29 15 -55q0 -75 -107 -136q-39 -21 -87 -35t-174 -43.5 t-235 -64.5l-14 25q84 74 166 162z" />
<glyph unicode="&#x155;" horiz-adv-x="1022" d="M401 1092q101 0 145.5 -54.5t44.5 -140.5q0 -12 -2 -38q40 87 83.5 138t94 73t116.5 22q62 0 106.5 -26t68 -71.5t23.5 -101.5q0 -68 -30 -127t-82.5 -94t-118.5 -35q-75 0 -114.5 39t-39.5 115q0 59 30.5 113t82 91.5t111.5 48.5q-21 7 -29 7q-66 0 -118.5 -26.5 t-117.5 -130.5t-135 -319l-151 -575h-363l250 889q9 33 9 53q0 33 -27 33q-32 0 -59 -29t-54 -100l-47 -125h-39l57 160q77 211 305 211zM652 1449.5q53 107.5 80.5 156.5t68.5 90q26 26 61 42t70 16q55 0 95 -40q34 -34 34 -77q0 -61 -67 -130q-32 -32 -74 -59 t-154.5 -91.5t-205.5 -129.5l-21 20q60 95 113 202.5z" />
<glyph unicode="&#x156;" horiz-adv-x="1520" d="M1475 248l-9 -27q-40 -130 -125.5 -190t-232.5 -60q-148 0 -221.5 56t-73.5 159q0 28 4 52l39 233q6 36 6 69q0 74 -44.5 114t-153.5 45l-127 -482q-20 -76 -20 -100q0 -38 30 -55t108 -21l-8 -41q-141 6 -364 6q-258 0 -381 -6l8 41q74 3 110.5 16t58.5 48t42 112 l268 1016q18 72 18 96q0 39 -30 57t-107 23l11 41q119 -6 348 -6q81 0 168.5 2t144.5 2q189 0 308 -28t177 -90t58 -165q0 -124 -79.5 -220t-225.5 -155t-343 -76q135 -9 227.5 -31t148 -71.5t55.5 -135.5q0 -25 -4 -48l-35 -213q-5 -30 -5 -48q0 -79 66 -79q42 0 72.5 32.5 t54.5 98.5l10 29h48zM863.5 793.5q91.5 53.5 150.5 158.5t59 256q0 201 -143 201q-43 0 -66.5 -22.5t-40.5 -83.5l-149 -568q98 5 189.5 58.5zM674 -420q64 30 79 80q-57 -37 -137 -37q-143 0 -143 109q0 54 29.5 95t79.5 64t110 23q64 0 111 -32.5t47 -98.5q0 -81 -43 -143 t-119.5 -97t-173.5 -37v43q96 1 160 31z" />
<glyph unicode="&#x157;" horiz-adv-x="1022" d="M401 1092q101 0 145.5 -54.5t44.5 -140.5q0 -12 -2 -38q40 87 83.5 138t94 73t116.5 22q62 0 106.5 -26t68 -71.5t23.5 -101.5q0 -68 -30 -127t-82.5 -94t-118.5 -35q-75 0 -114.5 39t-39.5 115q0 59 30.5 113t82 91.5t111.5 48.5q-21 7 -29 7q-66 0 -118.5 -26.5 t-117.5 -130.5t-135 -319l-151 -575h-363l250 889q9 33 9 53q0 33 -27 33q-32 0 -59 -29t-54 -100l-47 -125h-39l57 160q77 211 305 211zM-223 -420q64 30 80 80q-59 -37 -138 -37q-143 0 -143 109q0 54 29.5 95t79.5 64t110 23q64 0 111 -32.5t47 -98.5q0 -81 -43 -143 t-119.5 -97t-173.5 -37v43q96 1 160 31z" />
<glyph unicode="&#x158;" horiz-adv-x="1520" d="M1475 248l-9 -27q-40 -130 -125.5 -190t-232.5 -60q-148 0 -221.5 56t-73.5 159q0 28 4 52l39 233q6 36 6 69q0 74 -44.5 114t-153.5 45l-127 -482q-20 -76 -20 -100q0 -38 30 -55t108 -21l-8 -41q-141 6 -364 6q-258 0 -381 -6l8 41q74 3 110.5 16t58.5 48t42 112 l268 1016q18 72 18 96q0 39 -30 57t-107 23l11 41q119 -6 348 -6q81 0 168.5 2t144.5 2q189 0 308 -28t177 -90t58 -165q0 -124 -79.5 -220t-225.5 -155t-343 -76q135 -9 227.5 -31t148 -71.5t55.5 -135.5q0 -25 -4 -48l-35 -213q-5 -30 -5 -48q0 -79 66 -79q42 0 72.5 32.5 t54.5 98.5l10 29h48zM863.5 793.5q91.5 53.5 150.5 158.5t59 256q0 201 -143 201q-43 0 -66.5 -22.5t-40.5 -83.5l-149 -568q98 5 189.5 58.5zM851.5 1888.5q101.5 -25.5 197.5 -61.5q202 68 461 110l10 -28q-183 -58 -344.5 -153t-259.5 -200h-37q-40 125 -103.5 207 t-180.5 146l8 28q147 -23 248.5 -48.5z" />
<glyph unicode="&#x159;" horiz-adv-x="1022" d="M401 1092q101 0 145.5 -54.5t44.5 -140.5q0 -12 -2 -38q40 87 83.5 138t94 73t116.5 22q62 0 106.5 -26t68 -71.5t23.5 -101.5q0 -68 -30 -127t-82.5 -94t-118.5 -35q-75 0 -114.5 39t-39.5 115q0 59 30.5 113t82 91.5t111.5 48.5q-21 7 -29 7q-66 0 -118.5 -26.5 t-117.5 -130.5t-135 -319l-151 -575h-363l250 889q9 33 9 53q0 33 -27 33q-32 0 -59 -29t-54 -100l-47 -125h-39l57 160q77 211 305 211zM796 1593q154 65 378 111l11 -29q-158 -69 -297 -186t-226 -248h-36q-33 156 -88.5 257t-155.5 177l8 29q242 -43 406 -111z" />
<glyph unicode="&#x15a;" horiz-adv-x="1247" d="M1208 1047h-41q13 55 13 112q0 124 -78.5 194t-216.5 70q-97 0 -159 -48t-62 -150q0 -135 150 -309t228 -282t78 -249q0 -139 -95 -232.5t-233 -137.5t-268 -44q-104 0 -170.5 10t-114 29t-112.5 56q-54 30 -70 30q-19 0 -31.5 -9t-24.5 -31.5t-32 -69.5h-41 q68 162 140 491h41q-19 -53 -19 -141q0 -157 87 -237.5t247 -80.5q133 0 186.5 50t53.5 139q0 116 -52.5 211t-206 288t-153.5 357q0 135 82.5 229t207 140.5t249.5 46.5q87 0 156.5 -16t103.5 -31t102 -48q11 -5 34.5 -16.5t33.5 -11.5q16 0 31.5 25.5t35.5 82.5h41 q-78 -190 -121 -417zM875 1768q82 88 122.5 127t92.5 67q43 24 94 24q88 0 127 -71q15 -29 15 -55q0 -75 -107 -136q-39 -21 -87 -35t-174 -43.5t-235 -64.5l-14 25q84 74 166 162z" />
<glyph unicode="&#x15b;" horiz-adv-x="913" d="M244 14q64 0 105.5 42.5t41.5 113.5q0 64 -30.5 137.5t-88.5 167.5q-48 78 -69.5 117t-37 88t-15.5 102q0 89 45.5 159t137 110.5t224.5 40.5q151 0 251.5 -54t100.5 -182q0 -44 -17 -86t-49.5 -69t-78.5 -27q-61 0 -96 47.5t-35 124.5q0 60 20 112.5t45 79.5 q-18 9 -51 9q-72 0 -108.5 -42t-36.5 -122q0 -50 22 -99t53 -99.5t46 -76.5q68 -116 95 -188t27 -141q0 -86 -47 -156t-139.5 -111t-222.5 -41q-165 0 -272 61t-107 201q0 78 38 130.5t101 52.5q60 0 96.5 -49.5t36.5 -130.5q0 -40 -9.5 -78.5t-23 -72t-24.5 -56.5 q31 -15 72 -15zM625 1449.5q53 107.5 80.5 156.5t68.5 90q26 26 61 42t70 16q55 0 95 -40q34 -34 34 -77q0 -61 -67 -130q-32 -32 -74 -59t-154.5 -91.5t-205.5 -129.5l-21 20q60 95 113 202.5z" />
<glyph unicode="&#x15c;" horiz-adv-x="1247" d="M1208 1047h-41q13 55 13 112q0 124 -78.5 194t-216.5 70q-97 0 -159 -48t-62 -150q0 -135 150 -309t228 -282t78 -249q0 -139 -95 -232.5t-233 -137.5t-268 -44q-104 0 -170.5 10t-114 29t-112.5 56q-54 30 -70 30q-19 0 -31.5 -9t-24.5 -31.5t-32 -69.5h-41 q68 162 140 491h41q-19 -53 -19 -141q0 -157 87 -237.5t247 -80.5q133 0 186.5 50t53.5 139q0 116 -52.5 211t-206 288t-153.5 357q0 135 82.5 229t207 140.5t249.5 46.5q87 0 156.5 -16t103.5 -31t102 -48q11 -5 34.5 -16.5t33.5 -11.5q16 0 31.5 25.5t35.5 82.5h41 q-78 -190 -121 -417zM1037.5 1626.5q-101.5 25.5 -195.5 61.5q-200 -68 -460 -111l-11 29q182 57 343.5 152t260.5 200h37q41 -126 104.5 -207t180.5 -145l-8 -29q-150 24 -251.5 49.5z" />
<glyph unicode="&#x15d;" horiz-adv-x="913" d="M244 14q64 0 105.5 42.5t41.5 113.5q0 64 -30.5 137.5t-88.5 167.5q-48 78 -69.5 117t-37 88t-15.5 102q0 89 45.5 159t137 110.5t224.5 40.5q151 0 251.5 -54t100.5 -182q0 -44 -17 -86t-49.5 -69t-78.5 -27q-61 0 -96 47.5t-35 124.5q0 60 20 112.5t45 79.5 q-18 9 -51 9q-72 0 -108.5 -42t-36.5 -122q0 -50 22 -99t53 -99.5t46 -76.5q68 -116 95 -188t27 -141q0 -86 -47 -156t-139.5 -111t-222.5 -41q-165 0 -272 61t-107 201q0 78 38 130.5t101 52.5q60 0 96.5 -49.5t36.5 -130.5q0 -40 -9.5 -78.5t-23 -72t-24.5 -56.5 q31 -15 72 -15zM598 1352q-154 -65 -378 -111l-11 29q158 69 297 186t226 248h36q33 -156 88.5 -257t155.5 -177l-8 -29q-242 43 -406 111z" />
<glyph unicode="&#x15e;" horiz-adv-x="1247" d="M1208 1047h-41q13 55 13 112q0 124 -78.5 194t-216.5 70q-97 0 -159 -48t-62 -150q0 -135 150 -309t228 -282t78 -249q0 -139 -95 -232.5t-233 -137.5t-268 -44q-104 0 -170.5 10t-114 29t-112.5 56q-54 30 -70 30q-19 0 -31.5 -9t-24.5 -31.5t-32 -69.5h-41 q68 162 140 491h41q-19 -53 -19 -141q0 -157 87 -237.5t247 -80.5q133 0 186.5 50t53.5 139q0 116 -52.5 211t-206 288t-153.5 357q0 135 82.5 229t207 140.5t249.5 46.5q87 0 156.5 -16t103.5 -31t102 -48q11 -5 34.5 -16.5t33.5 -11.5q16 0 31.5 25.5t35.5 82.5h41 q-78 -190 -121 -417zM589 -92q73 0 115.5 -27t42.5 -82q0 -64 -53 -105t-137.5 -60t-180.5 -19q-69 0 -132.5 11.5t-104.5 25.5l12 33q23 -6 74.5 -13.5t91.5 -7.5q168 0 168 86q0 47 -57 47q-32 0 -64 -14l100 231h56l-58 -131q62 25 127 25z" />
<glyph unicode="&#x15f;" horiz-adv-x="913" d="M244 14q64 0 105.5 42.5t41.5 113.5q0 64 -30.5 137.5t-88.5 167.5q-48 78 -69.5 117t-37 88t-15.5 102q0 89 45.5 159t137 110.5t224.5 40.5q151 0 251.5 -54t100.5 -182q0 -44 -17 -86t-49.5 -69t-78.5 -27q-61 0 -96 47.5t-35 124.5q0 60 20 112.5t45 79.5 q-18 9 -51 9q-72 0 -108.5 -42t-36.5 -122q0 -50 22 -99t53 -99.5t46 -76.5q68 -116 95 -188t27 -141q0 -86 -47 -156t-139.5 -111t-222.5 -41q-165 0 -272 61t-107 201q0 78 38 130.5t101 52.5q60 0 96.5 -49.5t36.5 -130.5q0 -40 -9.5 -78.5t-23 -72t-24.5 -56.5 q31 -15 72 -15zM351 -113q65 0 106 -22t41 -66q0 -64 -56 -105t-145 -60t-190 -19q-110 0 -197 37l13 33q60 -21 125 -21q59 0 113.5 18t54.5 68q0 22 -16 34.5t-42 12.5q-35 0 -63 -14l172 217h59l-102 -137q74 24 127 24z" />
<glyph unicode="&#x160;" horiz-adv-x="1247" d="M1208 1047h-41q13 55 13 112q0 124 -78.5 194t-216.5 70q-97 0 -159 -48t-62 -150q0 -135 150 -309t228 -282t78 -249q0 -139 -95 -232.5t-233 -137.5t-268 -44q-104 0 -170.5 10t-114 29t-112.5 56q-54 30 -70 30q-19 0 -31.5 -9t-24.5 -31.5t-32 -69.5h-41 q68 162 140 491h41q-19 -53 -19 -141q0 -157 87 -237.5t247 -80.5q133 0 186.5 50t53.5 139q0 116 -52.5 211t-206 288t-153.5 357q0 135 82.5 229t207 140.5t249.5 46.5q87 0 156.5 -16t103.5 -31t102 -48q11 -5 34.5 -16.5t33.5 -11.5q16 0 31.5 25.5t35.5 82.5h41 q-78 -190 -121 -417zM806.5 1888.5q101.5 -25.5 197.5 -61.5q202 68 461 110l10 -28q-183 -58 -344.5 -153t-259.5 -200h-37q-40 125 -103.5 207t-180.5 146l8 28q147 -23 248.5 -48.5z" />
<glyph unicode="&#x161;" horiz-adv-x="913" d="M244 14q64 0 105.5 42.5t41.5 113.5q0 64 -30.5 137.5t-88.5 167.5q-48 78 -69.5 117t-37 88t-15.5 102q0 89 45.5 159t137 110.5t224.5 40.5q151 0 251.5 -54t100.5 -182q0 -44 -17 -86t-49.5 -69t-78.5 -27q-61 0 -96 47.5t-35 124.5q0 60 20 112.5t45 79.5 q-18 9 -51 9q-72 0 -108.5 -42t-36.5 -122q0 -50 22 -99t53 -99.5t46 -76.5q68 -116 95 -188t27 -141q0 -86 -47 -156t-139.5 -111t-222.5 -41q-165 0 -272 61t-107 201q0 78 38 130.5t101 52.5q60 0 96.5 -49.5t36.5 -130.5q0 -40 -9.5 -78.5t-23 -72t-24.5 -56.5 q31 -15 72 -15zM769 1593q154 65 378 111l11 -29q-158 -69 -297 -186t-226 -248h-36q-33 156 -88.5 257t-155.5 177l8 29q242 -43 406 -111z" />
<glyph unicode="&#x162;" horiz-adv-x="1423" d="M594 1401q-161 0 -234 -35q81 -11 132 -63.5t51 -135.5q0 -58 -26.5 -104.5t-72 -73t-100.5 -26.5q-57 0 -99 27t-63.5 72.5t-21.5 98.5q0 65 34.5 126.5t114.5 101.5q101 49 275 49q90 0 182 -5t272.5 -18.5t274.5 -13.5q105 0 184 15q-36 33 -59 83t-23 111 q0 62 26 108t72 71.5t105 25.5t105 -25t71 -65.5t25 -86.5q0 -150 -172 -223q-135 -55 -355 -55l-59 1l-297 -1123q-15 -54 -15 -89q0 -54 38.5 -78t130.5 -30l-9 -41q-144 6 -428 6q-272 0 -401 -6l8 41q88 3 136.5 21t76 58t47.5 118l307 1152q-149 11 -233 11zM757 -92 q73 0 115.5 -27t42.5 -82q0 -64 -53 -105t-137.5 -60t-180.5 -19q-69 0 -132.5 11.5t-104.5 25.5l12 33q23 -6 74.5 -13.5t91.5 -7.5q168 0 168 86q0 47 -57 47q-32 0 -64 -14l100 231h56l-58 -131q62 25 127 25z" />
<glyph unicode="&#x163;" horiz-adv-x="748" d="M389 135q0 -47 43 -47q40 0 81.5 44.5t66.5 111.5l32 88h39l-39 -113q-40 -118 -124 -183t-201 -65q-114 0 -170.5 60t-56.5 162q0 60 20 131l198 688h-188l10 41h190l89 311q218 3 373 29l-100 -340h204l-6 -41h-210l-245 -838q-6 -22 -6 -39zM298 -113q65 0 106 -22 t41 -66q0 -64 -56 -105t-145 -60t-190 -19q-110 0 -197 37l13 33q60 -21 125 -21q59 0 113.5 18t54.5 68q0 22 -16 34.5t-42 12.5q-35 0 -63 -14l172 217h59l-102 -137q74 24 127 24z" />
<glyph unicode="&#x164;" horiz-adv-x="1423" d="M594 1401q-161 0 -234 -35q81 -11 132 -63.5t51 -135.5q0 -58 -26.5 -104.5t-72 -73t-100.5 -26.5q-57 0 -99 27t-63.5 72.5t-21.5 98.5q0 65 34.5 126.5t114.5 101.5q101 49 275 49q90 0 182 -5t272.5 -18.5t274.5 -13.5q105 0 184 15q-36 33 -59 83t-23 111 q0 62 26 108t72 71.5t105 25.5t105 -25t71 -65.5t25 -86.5q0 -150 -172 -223q-135 -55 -355 -55l-59 1l-297 -1123q-15 -54 -15 -89q0 -54 38.5 -78t130.5 -30l-9 -41q-144 6 -428 6q-272 0 -401 -6l8 41q88 3 136.5 21t76 58t47.5 118l307 1152q-149 11 -233 11z M967.5 1888.5q101.5 -25.5 197.5 -61.5q202 68 461 110l10 -28q-183 -58 -344.5 -153t-259.5 -200h-37q-40 125 -103.5 207t-180.5 146l8 28q147 -23 248.5 -48.5z" />
<glyph unicode="&#x165;" horiz-adv-x="748" d="M389 135q0 -47 43 -47q40 0 81.5 44.5t66.5 111.5l32 88h39l-39 -113q-40 -118 -124 -183t-201 -65q-114 0 -170.5 60t-56.5 162q0 60 20 131l198 688h-188l10 41h190l89 311q218 3 373 29l-100 -340h204l-6 -41h-210l-245 -838q-6 -22 -6 -39zM932 1349q31 106 31 152 q0 39 -27 39l7 43q18 0 34 -1t31 -1q119 0 229 25q2 -4 2 -25q0 -76 -100 -206t-272 -277l-29 8q63 137 94 243z" />
<glyph unicode="&#x166;" horiz-adv-x="1452" d="M594 1401q-161 0 -234 -35q81 -11 132 -63.5t51 -135.5q0 -58 -26.5 -104.5t-72 -73t-100.5 -26.5q-57 0 -99 27t-63.5 72.5t-21.5 98.5q0 65 34.5 126.5t114.5 101.5q101 49 275 49q90 0 182 -5t272.5 -18.5t274.5 -13.5q105 0 184 15q-36 33 -59 83t-23 111 q0 62 26 108t72 71.5t105 25.5t105 -25t71 -65.5t25 -86.5q0 -150 -172 -223q-135 -55 -355 -55l-59 1l-162 -611h268l-10 -41h-269l-124 -471q-15 -54 -15 -89q0 -54 38.5 -78t130.5 -30l-9 -41q-144 6 -428 6q-272 0 -401 -6l8 41q88 3 136.5 21t76 58t47.5 118l125 471 h-266l10 41h267l171 640q-149 11 -233 11z" />
<glyph unicode="&#x167;" horiz-adv-x="758" d="M604 862h205l-6 -41h-211l-189 -647q-6 -22 -6 -39q0 -47 43 -47q40 0 81.5 44.5t66.5 111.5l32 88h39l-39 -113q-40 -118 -124 -183t-201 -65q-114 0 -170.5 60t-56.5 162q0 60 20 131l143 497h-186l10 41h188l43 150h-188l10 41h190l89 311q218 3 373 29l-100 -340h204 l-6 -41h-210z" />
<glyph unicode="&#x168;" horiz-adv-x="1438" d="M1378 1281q0 41 -15.5 66t-49.5 39t-94 23l12 41q80 -6 227 -6q108 0 172 6l-12 -41q-67 -14 -105 -44t-65 -91.5t-59 -183.5l-127 -494q-75 -285 -201 -434q-75 -88 -185 -139.5t-235 -51.5q-179 0 -292.5 52.5t-162.5 142.5q-42 78 -42 183q0 98 38 241l170 643 q17 65 17 98q0 31 -13.5 47t-42.5 22.5t-82 8.5l13 41q120 -6 387 -6q214 0 358 6l-12 -41q-75 -3 -111.5 -16t-58 -48t-41.5 -112l-180 -678q-51 -191 -51 -309q0 -203 145 -203q215 0 338.5 139.5t189.5 390.5l125 476q45 170 45 232zM741.5 1859q104.5 83 221.5 83 q77 0 128 -21.5t131 -75t153 -53.5q48 0 88.5 28t79.5 91l37 -10q-62 -169 -167 -251.5t-222 -82.5q-77 0 -128.5 21t-131 74.5t-152.5 53.5q-49 0 -89 -28t-79 -91l-37 11q63 168 167.5 251z" />
<glyph unicode="&#x169;" horiz-adv-x="1264" d="M1188 342l-58 -160q-39 -109 -116 -160t-176 -51q-136 0 -183 80q-24 41 -24 99q0 49 16 108l46 176q-78 -187 -150 -287.5t-146.5 -138t-171.5 -37.5q-93 0 -142.5 43.5t-49.5 127.5q0 58 26 139l199 608q10 30 10 49q0 37 -35 37q-60 0 -108 -129l-43 -115h-39l51 150 q74 211 293 211q103 0 159.5 -48.5t56.5 -144.5q0 -71 -30 -160l-176 -530q-17 -54 -17 -80q0 -31 21 -31q50 0 127 125t159 324.5t144 411.5l27 104q226 3 371 29l-258 -918q-13 -42 -13 -59q0 -27 31 -27q32 0 59 29t54 100l47 125h39zM523.5 1551.5q93.5 82.5 197.5 82.5 q59 0 98 -21.5t98 -74.5t113 -53q42 0 77.5 28t70.5 91l37 -11q-57 -168 -151 -250.5t-198 -82.5q-59 0 -97.5 21.5t-98 74.5t-113.5 53q-42 0 -77 -28t-70 -91l-37 10q57 169 150.5 251.5z" />
<glyph unicode="&#x16a;" horiz-adv-x="1438" d="M1378 1281q0 41 -15.5 66t-49.5 39t-94 23l12 41q80 -6 227 -6q108 0 172 6l-12 -41q-67 -14 -105 -44t-65 -91.5t-59 -183.5l-127 -494q-75 -285 -201 -434q-75 -88 -185 -139.5t-235 -51.5q-179 0 -292.5 52.5t-162.5 142.5q-42 78 -42 183q0 98 38 241l170 643 q17 65 17 98q0 31 -13.5 47t-42.5 22.5t-82 8.5l13 41q120 -6 387 -6q214 0 358 6l-12 -41q-75 -3 -111.5 -16t-58 -48t-41.5 -112l-180 -678q-51 -191 -51 -309q0 -203 145 -203q215 0 338.5 139.5t189.5 390.5l125 476q45 170 45 232zM571 1677l13 52h884l-12 -52h-885z " />
<glyph unicode="&#x16b;" horiz-adv-x="1264" d="M1188 342l-58 -160q-39 -109 -116 -160t-176 -51q-136 0 -183 80q-24 41 -24 99q0 49 16 108l46 176q-78 -187 -150 -287.5t-146.5 -138t-171.5 -37.5q-93 0 -142.5 43.5t-49.5 127.5q0 58 26 139l199 608q10 30 10 49q0 37 -35 37q-60 0 -108 -129l-43 -115h-39l51 150 q74 211 293 211q103 0 159.5 -48.5t56.5 -144.5q0 -71 -30 -160l-176 -530q-17 -54 -17 -80q0 -31 21 -31q50 0 127 125t159 324.5t144 411.5l27 104q226 3 371 29l-258 -918q-13 -42 -13 -59q0 -27 31 -27q32 0 59 29t54 100l47 125h39zM423 1407l12 51h721l-13 -51h-720z " />
<glyph unicode="&#x16c;" horiz-adv-x="1438" d="M1378 1281q0 41 -15.5 66t-49.5 39t-94 23l12 41q80 -6 227 -6q108 0 172 6l-12 -41q-67 -14 -105 -44t-65 -91.5t-59 -183.5l-127 -494q-75 -285 -201 -434q-75 -88 -185 -139.5t-235 -51.5q-179 0 -292.5 52.5t-162.5 142.5q-42 78 -42 183q0 98 38 241l170 643 q17 65 17 98q0 31 -13.5 47t-42.5 22.5t-82 8.5l13 41q120 -6 387 -6q214 0 358 6l-12 -41q-75 -3 -111.5 -16t-58 -48t-41.5 -112l-180 -678q-51 -191 -51 -309q0 -203 145 -203q215 0 338.5 139.5t189.5 390.5l125 476q45 170 45 232zM854 1831.5q80 -25.5 203 -25.5 q147 0 262.5 28t214.5 87l25 -18q-55 -91 -141 -168.5t-191 -124.5t-213 -47q-142 0 -225.5 92t-110.5 241l31 17q65 -56 145 -81.5z" />
<glyph unicode="&#x16d;" horiz-adv-x="1264" d="M1188 342l-58 -160q-39 -109 -116 -160t-176 -51q-136 0 -183 80q-24 41 -24 99q0 49 16 108l46 176q-78 -187 -150 -287.5t-146.5 -138t-171.5 -37.5q-93 0 -142.5 43.5t-49.5 127.5q0 58 26 139l199 608q10 30 10 49q0 37 -35 37q-60 0 -108 -129l-43 -115h-39l51 150 q74 211 293 211q103 0 159.5 -48.5t56.5 -144.5q0 -71 -30 -160l-176 -530q-17 -54 -17 -80q0 -31 21 -31q50 0 127 125t159 324.5t144 411.5l27 104q226 3 371 29l-258 -918q-13 -42 -13 -59q0 -27 31 -27q32 0 59 29t54 100l47 125h39zM630.5 1524q59.5 -25 162.5 -25 q235 0 410 115l24 -19q-49 -91 -124.5 -168.5t-169 -124.5t-189.5 -47q-108 0 -171 92t-83 242l31 17q50 -57 109.5 -82z" />
<glyph unicode="&#x16e;" horiz-adv-x="1438" d="M1378 1281q0 41 -15.5 66t-49.5 39t-94 23l12 41q80 -6 227 -6q108 0 172 6l-12 -41q-67 -14 -105 -44t-65 -91.5t-59 -183.5l-127 -494q-75 -285 -201 -434q-75 -88 -185 -139.5t-235 -51.5q-179 0 -292.5 52.5t-162.5 142.5q-42 78 -42 183q0 98 38 241l170 643 q17 65 17 98q0 31 -13.5 47t-42.5 22.5t-82 8.5l13 41q120 -6 387 -6q214 0 358 6l-12 -41q-75 -3 -111.5 -16t-58 -48t-41.5 -112l-180 -678q-51 -191 -51 -309q0 -203 145 -203q215 0 338.5 139.5t189.5 390.5l125 476q45 170 45 232zM1196.5 1912.5q49.5 -22.5 78 -64 t28.5 -95.5q0 -63 -38 -116.5t-100.5 -85t-133.5 -31.5q-60 0 -107.5 22t-74.5 64t-27 98q0 64 35 117t95.5 83.5t133.5 30.5q61 0 110.5 -22.5zM1142 1588q48 25 78 68t30 93q0 46 -25 78.5t-64 48.5t-81 16q-54 0 -101 -26.5t-74.5 -70t-27.5 -91.5q0 -44 23 -76t61 -48.5 t80 -16.5q53 0 101 25z" />
<glyph unicode="&#x16f;" horiz-adv-x="1264" d="M1188 342l-58 -160q-39 -109 -116 -160t-176 -51q-136 0 -183 80q-24 41 -24 99q0 49 16 108l46 176q-78 -187 -150 -287.5t-146.5 -138t-171.5 -37.5q-93 0 -142.5 43.5t-49.5 127.5q0 58 26 139l199 608q10 30 10 49q0 37 -35 37q-60 0 -108 -129l-43 -115h-39l51 150 q74 211 293 211q103 0 159.5 -48.5t56.5 -144.5q0 -71 -30 -160l-176 -530q-17 -54 -17 -80q0 -31 21 -31q50 0 127 125t159 324.5t144 411.5l27 104q226 3 371 29l-258 -918q-13 -42 -13 -59q0 -27 31 -27q32 0 59 29t54 100l47 125h39zM938.5 1617.5q49.5 -22.5 78 -64 t28.5 -95.5q0 -63 -38 -116.5t-100.5 -85t-133.5 -31.5q-60 0 -107.5 22t-74.5 64t-27 98q0 64 35 117t95.5 83.5t133.5 30.5q61 0 110.5 -22.5zM884 1293q48 25 78 68t30 93q0 46 -25 78.5t-64 48.5t-81 16q-54 0 -101 -26.5t-74.5 -70t-27.5 -91.5q0 -44 23 -76t61 -48.5 t80 -16.5q53 0 101 25z" />
<glyph unicode="&#x170;" horiz-adv-x="1438" d="M1378 1281q0 41 -15.5 66t-49.5 39t-94 23l12 41q80 -6 227 -6q108 0 172 6l-12 -41q-67 -14 -105 -44t-65 -91.5t-59 -183.5l-127 -494q-75 -285 -201 -434q-75 -88 -185 -139.5t-235 -51.5q-179 0 -292.5 52.5t-162.5 142.5q-42 78 -42 183q0 98 38 241l170 643 q17 65 17 98q0 31 -13.5 47t-42.5 22.5t-82 8.5l13 41q120 -6 387 -6q214 0 358 6l-12 -41q-75 -3 -111.5 -16t-58 -48t-41.5 -112l-180 -678q-51 -191 -51 -309q0 -203 145 -203q215 0 338.5 139.5t189.5 390.5l125 476q45 170 45 232zM769 1761.5q50 80.5 73 113.5t53 56 q35 24 77 24q35 0 67 -16.5t53 -48.5q21 -31 21 -67q0 -32 -17.5 -62t-48.5 -51q-27 -17 -60 -29t-128.5 -39t-184.5 -61l-18 21q63 79 113 159.5zM1234 1761.5q50 80.5 73 113.5t53 56q35 24 78 24q35 0 67 -16.5t52 -48.5q22 -31 22 -67q0 -32 -17.5 -62t-49.5 -51 q-27 -17 -60 -29t-128.5 -39t-184.5 -61l-18 21q63 79 113 159.5z" />
<glyph unicode="&#x171;" horiz-adv-x="1264" d="M1188 342l-58 -160q-39 -109 -116 -160t-176 -51q-136 0 -183 80q-24 41 -24 99q0 49 16 108l46 176q-78 -187 -150 -287.5t-146.5 -138t-171.5 -37.5q-93 0 -142.5 43.5t-49.5 127.5q0 58 26 139l199 608q10 30 10 49q0 37 -35 37q-60 0 -108 -129l-43 -115h-39l51 150 q74 211 293 211q103 0 159.5 -48.5t56.5 -144.5q0 -71 -30 -160l-176 -530q-17 -54 -17 -80q0 -31 21 -31q50 0 127 125t159 324.5t144 411.5l27 104q226 3 371 29l-258 -918q-13 -42 -13 -59q0 -27 31 -27q32 0 59 29t54 100l47 125h39zM544.5 1421q22.5 85 35.5 128.5 t35 74.5q19 25 48 39t61 14q51 0 92 -32q46 -41 46 -96q0 -49 -36 -91q-19 -25 -47.5 -45.5t-112 -74.5t-158.5 -113l-24 14q38 97 60.5 182zM910.5 1420q22.5 85 36 129t35.5 75q19 25 48 39t61 14q50 0 91 -32q46 -40 46 -96q0 -49 -36 -91q-19 -25 -47.5 -46 t-111.5 -74.5t-158 -112.5l-25 14q38 96 60.5 181z" />
<glyph unicode="&#x172;" horiz-adv-x="1438" d="M1378 1281q0 41 -15.5 66t-49.5 39t-94 23l12 41q80 -6 227 -6q108 0 172 6l-12 -41q-67 -14 -105 -44t-65 -91.5t-59 -183.5l-127 -494q-75 -285 -201 -434q-75 -88 -185 -139.5t-235 -51.5q-179 0 -292.5 52.5t-162.5 142.5q-42 78 -42 183q0 98 38 241l170 643 q17 65 17 98q0 31 -13.5 47t-42.5 22.5t-82 8.5l13 41q120 -6 387 -6q214 0 358 6l-12 -41q-75 -3 -111.5 -16t-58 -48t-41.5 -112l-180 -678q-51 -191 -51 -309q0 -203 145 -203q215 0 338.5 139.5t189.5 390.5l125 476q45 170 45 232zM724 -60q-45 -40 -67 -84t-22 -83 q0 -54 59 -54q62 0 146 39l22 -34q-155 -109 -321 -109q-86 0 -136.5 33t-50.5 92q0 89 125.5 157t317.5 109h36q-64 -26 -109 -66z" />
<glyph unicode="&#x173;" horiz-adv-x="1264" d="M1188 342l-58 -160q-39 -109 -116 -160t-176 -51q-136 0 -183 80q-24 41 -24 99q0 49 16 108l46 176q-78 -187 -150 -287.5t-146.5 -138t-171.5 -37.5q-93 0 -142.5 43.5t-49.5 127.5q0 58 26 139l199 608q10 30 10 49q0 37 -35 37q-60 0 -108 -129l-43 -115h-39l51 150 q74 211 293 211q103 0 159.5 -48.5t56.5 -144.5q0 -71 -30 -160l-176 -530q-17 -54 -17 -80q0 -31 21 -31q50 0 127 125t159 324.5t144 411.5l27 104q226 3 371 29l-258 -918q-13 -42 -13 -59q0 -27 31 -27q32 0 59 29t54 100l47 125h39zM872 -60.5q-45 -40.5 -67 -85 t-22 -85.5q0 -50 47 -50q28 0 60.5 17.5t60.5 44.5l30 -27q-116 -139 -293 -139q-85 0 -135.5 33t-50.5 92q0 89 125.5 157t316.5 109h37q-64 -26 -109 -66.5z" />
<glyph unicode="&#x174;" horiz-adv-x="2120" d="M2212 1444q89 0 153 6l-10 -41q-57 -17 -96.5 -39t-82 -70t-91.5 -135l-670 -1175h-153l-113 902l-551 -902h-154l-161 1288q-9 67 -40 98t-67 33l10 41q117 -6 344 -6q194 0 295 6l-10 -41q-39 -3 -60.5 -14t-32 -38t-10.5 -78q0 -27 1 -42l90 -831l338 547l-41 325 q-7 66 -32.5 97.5t-53.5 33.5l10 41q111 -6 324 -6q236 0 356 6l-10 -41q-62 -3 -97 -13.5t-52 -37.5t-17 -78q0 -27 2 -43l88 -810l432 755q42 74 42 122q0 51 -46 75t-135 30l10 41q59 -6 291 -6zM1551.5 1620.5q-101.5 25.5 -195.5 61.5q-200 -68 -460 -111l-11 29 q182 57 343.5 152t260.5 200h37q41 -126 104.5 -207t180.5 -145l-8 -29q-150 24 -251.5 49.5z" />
<glyph unicode="&#x175;" horiz-adv-x="1384" d="M586.5 777.5q-97.5 -161.5 -152.5 -310.5t-55 -258q0 -64 21.5 -96.5t74.5 -32.5q52 0 100 27q-30 60 -30 145q0 122 57 234t139 180.5t152 68.5q84 0 84 -129q0 -216 -139 -390q50 -75 151 -75q82 0 140 67t89 177.5t35 241.5q-93 43 -158.5 84t-112 102.5t-46.5 144.5 q0 32 15 62.5t46.5 51t79.5 20.5q83 0 132 -72.5t68 -171t19 -189.5q0 -174 -54.5 -332t-159 -257t-246.5 -99q-75 0 -139 25t-103 80q-122 -105 -315 -105q-91 0 -156.5 34t-99 93.5t-33.5 134.5q0 118 85 230t204 209t431 332q-74 -2 -126.5 -31t-130 -94.5t-131.5 -65.5 q-19 0 -33 4.5t-38 15.5t-42 11q-25 0 -39 -17.5t-29 -60.5l-14 -43h-39l45 149q35 119 85 164t112 45q36 0 83.5 -15t84.5 -23.5t96 -8.5q82 0 151 31l21 39l43 -21q-125 -144 -222.5 -305.5zM850 643q-23 -47 -37 -122t-14 -156q0 -63 19 -111q53 77 82.5 165.5 t29.5 174.5q0 96 -33 96q-24 0 -47 -47zM801 1352q-154 -65 -378 -111l-11 29q158 69 297 186t226 248h36q33 -156 88.5 -257t155.5 -177l-8 -29q-242 43 -406 111z" />
<glyph unicode="&#x176;" horiz-adv-x="1589" d="M327.5 1422q91.5 57 211.5 57q152 0 234 -80t120.5 -227.5t69.5 -415.5q128 395 303 600q105 123 243 123q71 0 125.5 -29t84.5 -79t30 -111q0 -64 -30.5 -113.5t-82.5 -76t-116 -26.5q-84 0 -133.5 40.5t-49.5 111.5q0 60 28 109t76.5 80.5t108.5 41.5q-15 17 -51 17 q-33 0 -63.5 -11t-67.5 -38q-53 -39 -126.5 -146t-148.5 -272.5t-130 -367.5l-99 -392q-11 -46 -11 -73q0 -41 19 -62.5t55.5 -29.5t98.5 -11l-10 -41q-129 6 -418 6q-251 0 -371 -6l11 41q74 3 111 16t59 48.5t41 111.5l105 419q-18 167 -50 318.5t-78.5 250t-103.5 98.5 q-36 0 -57 -27t-36 -70l-34 -104h-45l43 131q43 132 134.5 189zM1196.5 1626.5q-101.5 25.5 -195.5 61.5q-200 -68 -460 -111l-11 29q182 57 343.5 152t260.5 200h37q41 -126 104.5 -207t180.5 -145l-8 -29q-150 24 -251.5 49.5z" />
<glyph unicode="&#x177;" horiz-adv-x="989" d="M870 614q-97 54 -155 135.5t-58 174.5q0 77 42 122.5t118 45.5q156 0 156 -199q0 -119 -54.5 -276t-147 -318t-202.5 -291q-129 -153 -269.5 -248.5t-279.5 -128.5q-69 -16 -120 -16q-82 0 -126 35.5t-44 99.5q0 41 20 75t57 54.5t87 20.5q147 0 251 -181q127 57 239 154 l-167 1014q-10 53 -17.5 70.5t-25.5 17.5q-14 0 -24.5 -10t-23.5 -36.5t-34 -82.5l-43 -115h-39l51 150q41 118 105.5 164.5t159.5 46.5q103 0 162 -54t79 -190l90 -656q138 209 213 422zM633 1352q-154 -65 -378 -111l-11 29q158 69 297 186t226 248h36q33 -156 88.5 -257 t155.5 -177l-8 -29q-242 43 -406 111z" />
<glyph unicode="&#x178;" horiz-adv-x="1589" d="M327.5 1422q91.5 57 211.5 57q152 0 234 -80t120.5 -227.5t69.5 -415.5q128 395 303 600q105 123 243 123q71 0 125.5 -29t84.5 -79t30 -111q0 -64 -30.5 -113.5t-82.5 -76t-116 -26.5q-84 0 -133.5 40.5t-49.5 111.5q0 60 28 109t76.5 80.5t108.5 41.5q-15 17 -51 17 q-33 0 -63.5 -11t-67.5 -38q-53 -39 -126.5 -146t-148.5 -272.5t-130 -367.5l-99 -392q-11 -46 -11 -73q0 -41 19 -62.5t55.5 -29.5t98.5 -11l-10 -41q-129 6 -418 6q-251 0 -371 -6l11 41q74 3 111 16t59 48.5t41 111.5l105 419q-18 167 -50 318.5t-78.5 250t-103.5 98.5 q-36 0 -57 -27t-36 -70l-34 -104h-45l43 131q43 132 134.5 189zM605 1829q28 45 74 66.5t101 21.5q78 0 116 -43t38 -117q0 -67 -29 -111t-76 -64.5t-100 -20.5q-78 0 -115 41t-37 114q0 68 28 113zM1134 1829q28 45 73.5 66.5t100.5 21.5q78 0 116 -43t38 -117 q0 -67 -29 -111t-75.5 -64.5t-100.5 -20.5q-78 0 -114.5 41t-36.5 114q0 68 28 113z" />
<glyph unicode="&#x179;" horiz-adv-x="1356" d="M823 1077q-82 0 -144.5 12.5t-145.5 37t-125 24.5q-60 0 -60 -47q0 -67 150 -96l-11 -39q-127 19 -213 77t-86 160q0 79 40.5 141t115 97t174.5 35q87 0 153.5 -20t200 -79t258.5 -59q70 0 160 31q37 54 78 86.5t73 32.5q16 0 29 -11q12 -11 12 -27q0 -29 -38 -63 t-115 -63l-567 -557h311l-16 -41h-336l-553 -543q218 207 432 207q82 0 144.5 -12.5t146 -37t125.5 -24.5q59 0 59 47q0 67 -149 96l8 39q127 -19 213 -77t86 -160q0 -79 -40.5 -141t-115 -97t-174.5 -35q-86 0 -153 20t-200.5 79t-258.5 59q-70 0 -160 -31q-36 -53 -78 -86 t-73 -33q-16 0 -29 11q-12 10 -12 27q0 28 38 62.5t115 63.5l576 566h-332l14 41h359l539 529q-214 -202 -425 -202zM918 1768q82 88 122.5 127t92.5 67q43 24 94 24q88 0 127 -71q15 -29 15 -55q0 -75 -107 -136q-39 -21 -87 -35t-174 -43.5t-235 -64.5l-14 25 q84 74 166 162z" />
<glyph unicode="&#x17a;" horiz-adv-x="975" d="M228 223.5q88 64.5 138 95.5t99 31q36 0 59 -9.5t56.5 -32.5t62.5 -23q25 0 38 16.5t13 34.5q0 71 -90 96l12 31q119 -28 173.5 -83.5t54.5 -148.5q0 -74 -31 -133t-92.5 -93t-149.5 -34q-63 0 -111.5 16t-145.5 62.5t-189 46.5q-59 0 -102 -21t-84 -75h-64l1043 944 q-74 -26 -179 -103.5t-162.5 -114t-111.5 -36.5q-35 0 -58 10t-56.5 33t-59.5 23q-25 0 -39 -15t-14 -36q0 -34 19.5 -54t70.5 -43l-13 -30q-227 50 -227 221q0 72 38 136.5t112.5 105t179.5 40.5q64 0 111.5 -15t138.5 -58t178 -43q63 0 105 21t83 75h64l-1018 -924 q60 22 148 86.5zM649 1449.5q53 107.5 80.5 156.5t68.5 90q26 26 61 42t70 16q55 0 95 -40q34 -34 34 -77q0 -61 -67 -130q-32 -32 -74 -59t-154.5 -91.5t-205.5 -129.5l-21 20q60 95 113 202.5z" />
<glyph unicode="&#x17b;" horiz-adv-x="1356" d="M823 1077q-82 0 -144.5 12.5t-145.5 37t-125 24.5q-60 0 -60 -47q0 -67 150 -96l-11 -39q-127 19 -213 77t-86 160q0 79 40.5 141t115 97t174.5 35q87 0 153.5 -20t200 -79t258.5 -59q70 0 160 31q37 54 78 86.5t73 32.5q16 0 29 -11q12 -11 12 -27q0 -29 -38 -63 t-115 -63l-567 -557h311l-16 -41h-336l-553 -543q218 207 432 207q82 0 144.5 -12.5t146 -37t125.5 -24.5q59 0 59 47q0 67 -149 96l8 39q127 -19 213 -77t86 -160q0 -79 -40.5 -141t-115 -97t-174.5 -35q-86 0 -153 20t-200.5 79t-258.5 59q-70 0 -160 -31q-36 -53 -78 -86 t-73 -33q-16 0 -29 11q-12 10 -12 27q0 28 38 62.5t115 63.5l576 566h-332l14 41h359l539 529q-214 -202 -425 -202zM759.5 1853.5q68.5 55.5 180.5 55.5q183 0 183 -140q0 -63 -33.5 -111.5t-91 -75t-127.5 -26.5q-89 0 -134.5 35t-45.5 101q0 106 68.5 161.5z" />
<glyph unicode="&#x17c;" horiz-adv-x="975" d="M228 223.5q88 64.5 138 95.5t99 31q36 0 59 -9.5t56.5 -32.5t62.5 -23q25 0 38 16.5t13 34.5q0 71 -90 96l12 31q119 -28 173.5 -83.5t54.5 -148.5q0 -74 -31 -133t-92.5 -93t-149.5 -34q-63 0 -111.5 16t-145.5 62.5t-189 46.5q-59 0 -102 -21t-84 -75h-64l1043 944 q-74 -26 -179 -103.5t-162.5 -114t-111.5 -36.5q-35 0 -58 10t-56.5 33t-59.5 23q-25 0 -39 -15t-14 -36q0 -34 19.5 -54t70.5 -43l-13 -30q-227 50 -227 221q0 72 38 136.5t112.5 105t179.5 40.5q64 0 111.5 -15t138.5 -58t178 -43q63 0 105 21t83 75h64l-1018 -924 q60 22 148 86.5zM551.5 1546.5q68.5 55.5 181.5 55.5q89 0 135.5 -35.5t46.5 -104.5q0 -63 -33.5 -111.5t-91 -75t-127.5 -26.5q-89 0 -134.5 34.5t-45.5 100.5q0 107 68.5 162.5z" />
<glyph unicode="&#x17d;" horiz-adv-x="1356" d="M823 1077q-82 0 -144.5 12.5t-145.5 37t-125 24.5q-60 0 -60 -47q0 -67 150 -96l-11 -39q-127 19 -213 77t-86 160q0 79 40.5 141t115 97t174.5 35q87 0 153.5 -20t200 -79t258.5 -59q70 0 160 31q37 54 78 86.5t73 32.5q16 0 29 -11q12 -11 12 -27q0 -29 -38 -63 t-115 -63l-567 -557h311l-16 -41h-336l-553 -543q218 207 432 207q82 0 144.5 -12.5t146 -37t125.5 -24.5q59 0 59 47q0 67 -149 96l8 39q127 -19 213 -77t86 -160q0 -79 -40.5 -141t-115 -97t-174.5 -35q-86 0 -153 20t-200.5 79t-258.5 59q-70 0 -160 -31q-36 -53 -78 -86 t-73 -33q-16 0 -29 11q-12 10 -12 27q0 28 38 62.5t115 63.5l576 566h-332l14 41h359l539 529q-214 -202 -425 -202zM849.5 1888.5q101.5 -25.5 197.5 -61.5q202 68 461 110l10 -28q-183 -58 -344.5 -153t-259.5 -200h-37q-40 125 -103.5 207t-180.5 146l8 28 q147 -23 248.5 -48.5z" />
<glyph unicode="&#x17e;" horiz-adv-x="975" d="M228 223.5q88 64.5 138 95.5t99 31q36 0 59 -9.5t56.5 -32.5t62.5 -23q25 0 38 16.5t13 34.5q0 71 -90 96l12 31q119 -28 173.5 -83.5t54.5 -148.5q0 -74 -31 -133t-92.5 -93t-149.5 -34q-63 0 -111.5 16t-145.5 62.5t-189 46.5q-59 0 -102 -21t-84 -75h-64l1043 944 q-74 -26 -179 -103.5t-162.5 -114t-111.5 -36.5q-35 0 -58 10t-56.5 33t-59.5 23q-25 0 -39 -15t-14 -36q0 -34 19.5 -54t70.5 -43l-13 -30q-227 50 -227 221q0 72 38 136.5t112.5 105t179.5 40.5q64 0 111.5 -15t138.5 -58t178 -43q63 0 105 21t83 75h64l-1018 -924 q60 22 148 86.5zM793 1593q154 65 378 111l11 -29q-158 -69 -297 -186t-226 -248h-36q-33 156 -88.5 257t-155.5 177l8 29q242 -43 406 -111z" />
<glyph unicode="&#x192;" horiz-adv-x="1163" d="M543 1302.5q68 115.5 141 170.5q89 65 178.5 97t202.5 32q89 0 149 -31t88.5 -83t28.5 -116q0 -59 -25.5 -116.5t-71.5 -93.5t-104 -36q-67 0 -105 36.5t-38 103.5q0 89 50 164.5t132 117.5q-17 21 -59 21q-59 0 -111 -74q-35 -50 -67 -141.5t-88 -298.5l-1 -2h343 l-10 -41h-343l-208 -776q-47 -177 -127.5 -298t-204.5 -208q-84 -59 -184 -87t-199 -28q-117 0 -179.5 38t-62.5 109q0 47 24 85t65.5 59.5t90.5 21.5q47 0 82.5 -19t54.5 -50.5t19 -67.5q0 -40 -23.5 -80t-68.5 -65q83 9 132 58.5t79 162.5l306 1145h-251l10 41h251l1 2 q35 132 103 247.5z" />
<glyph unicode="&#x1f4;" horiz-adv-x="1559" d="M1434 1133q0 48 -6 81.5t-23 67.5q-39 77 -119 118.5t-196 41.5q-186 0 -325.5 -178t-213.5 -430.5t-74 -460.5q0 -183 62.5 -272t189.5 -89q68 0 107 29q28 20 42 52.5t35 111.5l48 180q18 68 18 106q0 36 -17 54.5t-52.5 26t-102.5 10.5l10 41q129 -7 389 -7 q234 0 338 7l-10 -41q-49 -4 -73 -16.5t-41 -46.5t-38 -113l-108 -406h-41q1 62 -19 89.5t-61 27.5q-38 0 -79.5 -15.5t-85.5 -37t-70 -33.5q-129 -60 -263 -60q-184 0 -317.5 55t-205 160.5t-71.5 253.5q0 237 134.5 479.5t373 401t533.5 158.5q84 0 145 -17t104 -45 t87 -71q19 -19 35 -19q39 0 81 123h45q-67 -180 -131 -471h-45q11 83 11 154zM1122 1768q82 88 122.5 127t92.5 67q43 24 94 24q88 0 127 -71q15 -29 15 -55q0 -75 -107 -136q-39 -21 -87 -35t-174 -43.5t-235 -64.5l-14 25q84 74 166 162z" />
<glyph unicode="&#x1f5;" horiz-adv-x="997" d="M51 71q-37 36 -37 87q0 57 50.5 104.5t132.5 87.5t217 94q-153 3 -245.5 61.5t-92.5 174.5q0 100 70 194.5t199 155t298 60.5q48 0 91 -5q48 103 91 172t93 109q58 47 129 47q69 0 110 -36.5t41 -104.5q0 -53 -25.5 -102.5t-70 -80t-96.5 -30.5q-56 0 -89.5 33t-33.5 84 q0 41 25 84.5t73 82.5q-10 5 -17 5q-19 0 -34 -17q-33 -30 -78.5 -102t-78.5 -150q104 -20 163 -75.5t59 -147.5q0 -94 -60.5 -183t-172.5 -150.5t-259 -75.5q-169 -60 -169 -109q0 -16 17 -26.5t55 -24.5l186 -70q233 -87 233 -240q0 -122 -102.5 -203.5t-250.5 -120 t-284 -38.5q-127 0 -218.5 20t-140 56.5t-48.5 85.5q0 73 67.5 105.5t197 60.5t180.5 48l-81 25q-57 19 -94 55zM560 545.5q41 64.5 64.5 167.5t24.5 213q0 65 -10.5 96t-42.5 31q-45 0 -86.5 -64t-66.5 -168t-25 -219q0 -69 11.5 -95t39.5 -26q50 0 91 64.5zM171.5 -170 q-26.5 -71 -26.5 -121q0 -32 17 -45.5t51 -13.5q72 0 149.5 23.5t129 66.5t51.5 98q0 27 -16 43.5t-37 24.5t-66 22l-167 53q-59 -80 -85.5 -151zM660 1449.5q53 107.5 80.5 156.5t68.5 90q26 26 61 42t70 16q55 0 95 -40q34 -34 34 -77q0 -61 -67 -130q-32 -32 -74 -59 t-154.5 -91.5t-205.5 -129.5l-21 20q60 95 113 202.5z" />
<glyph unicode="&#x218;" horiz-adv-x="1247" d="M1208 1047h-41q13 55 13 112q0 124 -78.5 194t-216.5 70q-97 0 -159 -48t-62 -150q0 -135 150 -309t228 -282t78 -249q0 -139 -95 -232.5t-233 -137.5t-268 -44q-104 0 -170.5 10t-114 29t-112.5 56q-54 30 -70 30q-19 0 -31.5 -9t-24.5 -31.5t-32 -69.5h-41 q68 162 140 491h41q-19 -53 -19 -141q0 -157 87 -237.5t247 -80.5q133 0 186.5 50t53.5 139q0 116 -52.5 211t-206 288t-153.5 357q0 135 82.5 229t207 140.5t249.5 46.5q87 0 156.5 -16t103.5 -31t102 -48q11 -5 34.5 -16.5t33.5 -11.5q16 0 31.5 25.5t35.5 82.5h41 q-78 -190 -121 -417zM469 -420q64 30 79 80q-57 -37 -137 -37q-143 0 -143 109q0 54 29.5 95t79.5 64t110 23q64 0 111 -32.5t47 -98.5q0 -81 -43 -143t-119.5 -97t-173.5 -37v43q96 1 160 31z" />
<glyph unicode="&#x219;" horiz-adv-x="913" d="M244 14q64 0 105.5 42.5t41.5 113.5q0 64 -30.5 137.5t-88.5 167.5q-48 78 -69.5 117t-37 88t-15.5 102q0 89 45.5 159t137 110.5t224.5 40.5q151 0 251.5 -54t100.5 -182q0 -44 -17 -86t-49.5 -69t-78.5 -27q-61 0 -96 47.5t-35 124.5q0 60 20 112.5t45 79.5 q-18 9 -51 9q-72 0 -108.5 -42t-36.5 -122q0 -50 22 -99t53 -99.5t46 -76.5q68 -116 95 -188t27 -141q0 -86 -47 -156t-139.5 -111t-222.5 -41q-165 0 -272 61t-107 201q0 78 38 130.5t101 52.5q60 0 96.5 -49.5t36.5 -130.5q0 -40 -9.5 -78.5t-23 -72t-24.5 -56.5 q31 -15 72 -15zM-106 -420q64 30 80 80q-59 -37 -138 -37q-143 0 -143 109q0 54 29.5 95t79.5 64t110 23q64 0 111 -32.5t47 -98.5q0 -81 -43 -143t-119.5 -97t-173.5 -37v43q96 1 160 31z" />
<glyph unicode="&#x21a;" horiz-adv-x="1423" d="M594 1401q-161 0 -234 -35q81 -11 132 -63.5t51 -135.5q0 -58 -26.5 -104.5t-72 -73t-100.5 -26.5q-57 0 -99 27t-63.5 72.5t-21.5 98.5q0 65 34.5 126.5t114.5 101.5q101 49 275 49q90 0 182 -5t272.5 -18.5t274.5 -13.5q105 0 184 15q-36 33 -59 83t-23 111 q0 62 26 108t72 71.5t105 25.5t105 -25t71 -65.5t25 -86.5q0 -150 -172 -223q-135 -55 -355 -55l-59 1l-297 -1123q-15 -54 -15 -89q0 -54 38.5 -78t130.5 -30l-9 -41q-144 6 -428 6q-272 0 -401 -6l8 41q88 3 136.5 21t76 58t47.5 118l307 1152q-149 11 -233 11zM637 -420 q64 30 79 80q-57 -37 -137 -37q-143 0 -143 109q0 54 29.5 95t79.5 64t110 23q64 0 111 -32.5t47 -98.5q0 -81 -43 -143t-119.5 -97t-173.5 -37v43q96 1 160 31z" />
<glyph unicode="&#x21b;" horiz-adv-x="748" d="M389 135q0 -47 43 -47q40 0 81.5 44.5t66.5 111.5l32 88h39l-39 -113q-40 -118 -124 -183t-201 -65q-114 0 -170.5 60t-56.5 162q0 60 20 131l198 688h-188l10 41h190l89 311q218 3 373 29l-100 -340h204l-6 -41h-210l-245 -838q-6 -22 -6 -39zM-159 -420q64 30 80 80 q-59 -37 -138 -37q-143 0 -143 109q0 54 29.5 95t79.5 64t110 23q64 0 111 -32.5t47 -98.5q0 -81 -43 -143t-119.5 -97t-173.5 -37v43q96 1 160 31z" />
<glyph unicode="&#x237;" horiz-adv-x="651" d="M360.5 7q-35.5 -89 -76.5 -148.5t-98 -106.5q-165 -137 -405 -137q-260 0 -260 147q0 47 24 85t65.5 59.5t90.5 21.5q46 0 81.5 -19.5t55 -51t19.5 -66.5q0 -40 -24 -80t-69 -65q79 9 125 58t78 163l287 1022q9 35 9 53q0 33 -30 33q-61 0 -110 -129l-47 -125h-39l57 160 q41 110 124.5 160.5t184.5 50.5q108 0 155 -50.5t47 -132.5q0 -47 -15 -104l-156 -569q-38 -140 -73.5 -229z" />
<glyph unicode="&#x2c6;" horiz-adv-x="823" d="M444 1352q-154 -65 -378 -111l-11 29q158 69 297 186t226 248h36q33 -156 88.5 -257t155.5 -177l-8 -29q-242 43 -406 111z" />
<glyph unicode="&#x2c7;" horiz-adv-x="823" d="M664 1593q154 65 378 111l11 -29q-158 -69 -297 -186t-226 -248h-36q-33 156 -88.5 257t-155.5 177l8 29q242 -43 406 -111z" />
<glyph unicode="&#x2d8;" horiz-adv-x="1227" d="M441.5 1524q59.5 -25 162.5 -25q235 0 410 115l24 -19q-49 -91 -124.5 -168.5t-169 -124.5t-189.5 -47q-108 0 -171 92t-83 242l31 17q50 -57 109.5 -82z" />
<glyph unicode="&#x2d9;" horiz-adv-x="406" d="M54.5 1546.5q68.5 55.5 181.5 55.5q89 0 135.5 -35.5t46.5 -104.5q0 -63 -33.5 -111.5t-91 -75t-127.5 -26.5q-89 0 -134.5 34.5t-45.5 100.5q0 107 68.5 162.5z" />
<glyph unicode="&#x2da;" horiz-adv-x="535" d="M401.5 1617.5q49.5 -22.5 78 -64t28.5 -95.5q0 -63 -38 -116.5t-100.5 -85t-133.5 -31.5q-60 0 -107.5 22t-74.5 64t-27 98q0 64 35 117t95.5 83.5t133.5 30.5q61 0 110.5 -22.5zM347 1293q48 25 78 68t30 93q0 46 -25 78.5t-64 48.5t-81 16q-54 0 -101 -26.5t-74.5 -70 t-27.5 -91.5q0 -44 23 -76t61 -48.5t80 -16.5q53 0 101 25z" />
<glyph unicode="&#x2db;" horiz-adv-x="1024" d="M628 -60.5q-45 -40.5 -67 -85t-22 -85.5q0 -50 47 -50q28 0 60.5 17.5t60.5 44.5l30 -27q-116 -139 -293 -139q-85 0 -135.5 33t-50.5 92q0 89 125.5 157t316.5 109h37q-64 -26 -109 -66.5z" />
<glyph unicode="&#x2dc;" horiz-adv-x="842" d="M312.5 1551.5q93.5 82.5 197.5 82.5q59 0 98 -21.5t98 -74.5t113 -53q42 0 77.5 28t70.5 91l37 -11q-57 -168 -151 -250.5t-198 -82.5q-59 0 -97.5 21.5t-98 74.5t-113.5 53q-42 0 -77 -28t-70 -91l-37 10q57 169 150.5 251.5z" />
<glyph unicode="&#x2dd;" horiz-adv-x="831" d="M97.5 1421q22.5 85 35.5 128.5t35 74.5q19 25 48 39t61 14q51 0 92 -32q46 -41 46 -96q0 -49 -36 -91q-19 -25 -47.5 -45.5t-112 -74.5t-158.5 -113l-24 14q38 97 60.5 182zM463.5 1420q22.5 85 36 129t35.5 75q19 25 48 39t61 14q50 0 91 -32q46 -40 46 -96 q0 -49 -36 -91q-19 -25 -47.5 -46t-111.5 -74.5t-158 -112.5l-25 14q38 96 60.5 181z" />
<glyph unicode="&#x326;" horiz-adv-x="0" d="M-280 -420q64 30 80 80q-59 -37 -138 -37q-143 0 -143 109q0 54 29.5 95t79.5 64t110 23q64 0 111 -32.5t47 -98.5q0 -81 -43 -143t-119.5 -97t-173.5 -37v43q96 1 160 31z" />
<glyph unicode="&#x394;" horiz-adv-x="1139" d="M487 6q-227 0 -454 -6l477 1479h33l395 -1479q-225 6 -451 6zM569 61l-219 803l-256 -803h475z" />
<glyph unicode="&#x3a9;" horiz-adv-x="1810" d="M536 358q-165 191 -240 318t-75 291q0 159 81 274t236.5 176.5t374.5 61.5t375 -61.5t237 -176.5t81 -274q0 -164 -75 -291t-240 -318t-242 -311h116q144 0 239.5 89.5t137.5 293.5h47q-6 -58 -6 -147q0 -125 14 -283q-90 6 -305 6q-50 0 -139 -2.5t-156 -3.5v33 q82 161 151 395t69 498q0 254 -70.5 385t-233.5 131q-162 0 -232.5 -131t-70.5 -385q0 -263 68.5 -496.5t150.5 -396.5v-33q-67 1 -155.5 3.5t-138.5 2.5q-216 0 -306 -6q15 154 15 283q0 89 -6 147h47q42 -204 137.5 -293.5t239.5 -89.5h116q-77 120 -242 311z" />
<glyph unicode="&#x3bc;" horiz-adv-x="1540" d="M451 625q0 31 -6.5 96t-6.5 98q0 82 37.5 144t103 95.5t146.5 33.5q73 0 116.5 -39.5t43.5 -118.5q0 -78 -46.5 -130.5t-179 -147.5t-188.5 -191q7 -52 44 -71t99 -19q226 0 370 185q10 126 13 212q7 159 81 239.5t194 80.5q84 0 126 -40.5t42 -107.5q0 -78 -44 -126.5 t-172 -133.5t-193 -176l-1 -19q0 -51 34 -82.5t83 -31.5q147 0 250 172l35 -15q-50 -153 -98.5 -268t-124.5 -204t-173 -89q-72 0 -105.5 49t-33.5 123q0 90 42 234q-207 -406 -400 -406q-78 0 -115 60t-43 148q-40 -148 -75 -241t-81 -161q-49 -72 -114.5 -117t-141.5 -45 q-65 0 -100 33t-35 88q0 49 30 88t76.5 70t137.5 83q119 68 206.5 175.5t130.5 239.5l3 12q33 107 33 221z" />
<glyph unicode="&#x3c0;" horiz-adv-x="1223" d="M729 486q0 -51 29 -81t88 -30q145 0 270 172l35 -15q-72 -207 -184 -384t-262 -177q-84 0 -119.5 48t-35.5 122q0 55 17 117q43 153 181 436h-173q-99 -433 -219 -583q-52 -69 -118 -104.5t-136 -35.5t-111.5 39t-41.5 99q0 72 48.5 134.5t147.5 106.5q31 14 128.5 55 t163 110.5t99.5 178.5h-67q-99 0 -168 -13.5t-121.5 -44t-101.5 -85.5l-33 14q64 161 140 266.5t187.5 162.5t270.5 57h590l-113 -357h-331l-46 -129q-14 -44 -14 -79z" />
<glyph unicode="&#x401;" d="M991 1444q295 0 424 6q-50 -129 -78 -242q-11 -46 -26 -127h-45q1 119 -26.5 190t-82 101.5t-139.5 30.5h-6q-71 0 -106.5 -12t-57 -46.5t-41.5 -111.5l-128 -483h36q64 0 123 31.5t103 84t67 113.5h45q-26 -79 -43.5 -148.5t-26.5 -101.5q-27 -102 -53 -250h-45 q0 54 -19 106.5t-63.5 88t-116.5 35.5h-18l-131 -492q-18 -70 -18 -100q0 -29 13.5 -44t41.5 -20.5t79 -5.5h27q100 0 175.5 34.5t140.5 113t132 215.5h46q-14 -36 -44 -148q-32 -117 -53 -262q-139 6 -463 6q-475 0 -712 -6l8 41q74 3 110.5 16t58.5 48t42 112l270 1016 q17 65 17 98q0 31 -13.5 47t-42.5 22.5t-82 8.5l11 41q235 -6 710 -6zM550 1829q28 45 74 66.5t101 21.5q78 0 116 -43t38 -117q0 -67 -29 -111t-76 -64.5t-100 -20.5q-78 0 -115 41t-37 114q0 68 28 113zM1079 1829q28 45 73.5 66.5t100.5 21.5q78 0 116 -43t38 -117 q0 -67 -29 -111t-75.5 -64.5t-100.5 -20.5q-78 0 -114.5 41t-36.5 114q0 68 28 113z" />
<glyph unicode="&#x402;" horiz-adv-x="2071" d="M1253.5 816.5q128.5 35.5 274.5 35.5q221 0 351 -87.5t130 -258.5q0 -150 -98 -273t-257 -192.5t-333 -69.5q-87 0 -161.5 24.5t-121.5 77t-47 134.5q0 72 39 131t103 93t137 34t112 -35t39 -102q0 -68 -38 -125t-99.5 -96.5t-130.5 -57.5q61 -26 125 -26q89 0 156 60 t103 160t36 216q0 155 -67.5 229t-205.5 74q-78 0 -155.5 -22.5t-130.5 -59.5l-185 -703q-119 29 -327 29q-139 0 -289 -6l10 41q84 2 134 22.5t77.5 60.5t44.5 107l310 1162q-117 8 -191 8q-163 0 -236 -35q81 -11 132 -63.5t51 -135.5q0 -58 -26.5 -104.5t-72 -73 t-100.5 -26.5q-57 0 -99 27t-63.5 72.5t-21.5 98.5q0 65 34.5 126.5t114.5 101.5q101 49 275 49q90 0 182 -5t272.5 -18.5t274.5 -13.5q101 0 182 18q-35 33 -57.5 82t-22.5 109q0 62 26 108t72 71.5t105 25.5t104.5 -24t71 -66t25.5 -95q0 -68 -42 -121.5t-120 -87.5 q-134 -61 -354 -61q-48 0 -111 3l-169 -642q100 60 228.5 95.5z" />
<glyph unicode="&#x403;" horiz-adv-x="1178" d="M522 126q0 -34 17 -51.5t53.5 -24.5t105.5 -9l-8 -41q-138 6 -407 6q-258 0 -381 -6l8 41q74 3 110.5 16t58.5 48t42 112l270 1016q17 65 17 98q0 31 -13.5 47t-42.5 22.5t-82 8.5l11 41q127 -6 362 -6h348q266 0 383 6q-41 -108 -78 -242q-30 -111 -47 -188h-45 q3 39 3 74q0 166 -60 237.5t-170 71.5h-4q-46 0 -74.5 -12.5t-50.5 -49t-41 -108.5l-270 -1016q-15 -57 -15 -91zM815 1768q82 88 122.5 127t92.5 67q43 24 94 24q88 0 127 -71q15 -29 15 -55q0 -75 -107 -136q-39 -21 -87 -35t-174 -43.5t-235 -64.5l-14 25q84 74 166 162z " />
<glyph unicode="&#x404;" horiz-adv-x="1468" d="M1417 1156q0 90 -35 149q-38 65 -92 90.5t-133 25.5q-144 0 -272.5 -107.5t-215.5 -291.5t-113 -404q65 124 117.5 197.5t105 109.5t114.5 36q48 0 86.5 -19t115 -74t144.5 -55q41 0 79 20.5t79 69.5l26 -18q-100 -192 -186.5 -283.5t-187.5 -91.5q-50 0 -91.5 18.5 t-126 73.5t-157.5 55q-37 0 -64 -19t-59 -76q-4 -52 -4 -105q0 -207 70.5 -307.5t197.5 -100.5q69 0 141.5 31.5t124.5 87.5q54 58 94 129t91 195h45q-97 -355 -121 -492h-45q6 44 6 70q0 52 -26 52q-16 0 -42 -18q-192 -133 -409 -133q-305 0 -451.5 136t-146.5 389 q0 246 135.5 473t373.5 368.5t529 141.5q112 0 181 -35.5t122 -97.5q15 -18 30 -18q38 0 83 122h43q-68 -177 -131 -471h-45q20 118 20 177z" />
<glyph unicode="&#x405;" horiz-adv-x="1247" d="M1208 1047h-41q13 55 13 112q0 124 -78.5 194t-216.5 70q-97 0 -159 -48t-62 -150q0 -135 150 -309t228 -282t78 -249q0 -139 -95 -232.5t-233 -137.5t-268 -44q-104 0 -170.5 10t-114 29t-112.5 56q-54 30 -70 30q-19 0 -31.5 -9t-24.5 -31.5t-32 -69.5h-41 q68 162 140 491h41q-19 -53 -19 -141q0 -157 87 -237.5t247 -80.5q133 0 186.5 50t53.5 139q0 116 -52.5 211t-206 288t-153.5 357q0 135 82.5 229t207 140.5t249.5 46.5q87 0 156.5 -16t103.5 -31t102 -48q11 -5 34.5 -16.5t33.5 -11.5q16 0 31.5 25.5t35.5 82.5h41 q-78 -190 -121 -417z" />
<glyph unicode="&#x406;" horiz-adv-x="864" d="M519 117q0 -30 13.5 -45.5t42.5 -22t82 -8.5l-8 -41q-132 6 -383 6q-242 0 -362 -6l10 41q71 3 107 16t58 48.5t42 111.5l270 1016q17 65 17 98q0 31 -13.5 47t-42.5 22.5t-82 8.5l11 41q113 -6 362 -6q232 0 385 6l-10 -41q-75 -3 -111.5 -16t-58 -48t-41.5 -112 l-270 -1016q-18 -70 -18 -100z" />
<glyph unicode="&#x407;" horiz-adv-x="864" d="M519 117q0 -30 13.5 -45.5t42.5 -22t82 -8.5l-8 -41q-132 6 -383 6q-242 0 -362 -6l10 41q71 3 107 16t58 48.5t42 111.5l270 1016q17 65 17 98q0 31 -13.5 47t-42.5 22.5t-82 8.5l11 41q113 -6 362 -6q232 0 385 6l-10 -41q-75 -3 -111.5 -16t-58 -48t-41.5 -112 l-270 -1016q-18 -70 -18 -100zM337 1829q28 45 74 66.5t101 21.5q78 0 116 -43t38 -117q0 -67 -29 -111t-76 -64.5t-100 -20.5q-78 0 -115 41t-37 114q0 68 28 113zM866 1829q28 45 73.5 66.5t100.5 21.5q78 0 116 -43t38 -117q0 -67 -29 -111t-75.5 -64.5t-100.5 -20.5 q-78 0 -114.5 41t-36.5 114q0 68 28 113z" />
<glyph unicode="&#x408;" horiz-adv-x="1464" d="M985 977q88 99 194 177.5t265 176.5q-111 -31 -228.5 -96t-188.5 -94t-179 -29q-58 0 -111 14t-145 47t-141 33q-52 0 -84.5 -25.5t-32.5 -78.5q0 -147 282 -164l-4 -37q-206 13 -325 96.5t-119 229.5q0 132 82.5 209t243.5 77q144 0 270.5 -66t203 -99t201.5 -33 q80 0 173 17.5t163 53.5q79 120 128 120q14 0 28 -11q13 -11 13 -25q0 -50 -150 -106q-104 -95 -174 -244t-132 -370h205l-6 -41h-210l-21 -80l-127 -496q-60 -234 -225.5 -376t-464.5 -142q-154 0 -246 43t-92 139q0 80 55.5 129t157.5 49q90 0 148.5 -38.5t58.5 -110.5 q0 -116 -134 -172q21 -4 48 -4q60 0 100.5 39.5t72.5 120t74 231.5l142 496q26 92 61 172h-280l6 41h293q63 128 151 227z" />
<glyph unicode="&#x409;" horiz-adv-x="2089" d="M1797 733.5q120 -36.5 166 -96.5t46 -143q0 -147 -92 -259t-254.5 -173.5t-366.5 -61.5q-44 0 -144 3t-218 3q-234 0 -363 -6l9 41q74 3 110.5 16t58.5 48t42 112l270 1016q14 50 14 88q0 50 -24.5 69t-69.5 19h-29q-44 0 -71.5 -14t-48 -51.5t-39.5 -110.5 q-76 -280 -147.5 -501.5t-159.5 -407t-187 -281.5q-75 -72 -186 -72q-71 0 -125.5 29t-84.5 79t-30 111q0 64 30.5 113.5t82.5 76t116 26.5q84 0 133.5 -40.5t49.5 -111.5q0 -60 -27.5 -109t-76 -80.5t-109.5 -41.5q22 -11 53 -11q82 0 141 56q232 222 486 1165q18 63 18 98 q0 31 -14 47t-43 22.5t-82 8.5l10 41q65 -6 190 -6q13 0 54 3t88 3q82 0 198.5 -3t161.5 -3q221 0 365 6l-10 -41q-75 -3 -111.5 -16t-58 -48t-41.5 -112l-123 -463h112q211 0 331 -36.5zM1190 124q0 -77 82 -77q86 0 156.5 70t110.5 182t40 233q0 101 -44 152t-153 51h-38 l-138 -518q-16 -69 -16 -93z" />
<glyph unicode="&#x40a;" horiz-adv-x="2292" d="M2208 471q0 -146 -91.5 -252.5t-253.5 -162.5t-368 -56q-45 0 -144.5 3t-217.5 3q-234 0 -363 -6l8 41q74 3 111 16t58.5 48t41.5 112l131 492h-452l-131 -492q-18 -70 -18 -100t13.5 -45.5t42.5 -22t82 -8.5l-8 -41q-132 6 -383 6q-242 0 -362 -6l10 41q71 3 107 16 t58 48.5t42 111.5l270 1016q17 65 17 98q0 31 -13.5 47t-42.5 22.5t-82 8.5l11 41q112 -6 362 -6q232 0 385 6l-10 -41q-75 -3 -111.5 -16t-58 -48t-41.5 -112l-128 -483h452l129 483q17 65 17 98q0 31 -13.5 47t-42.5 22.5t-82 8.5l10 41q114 -6 360 -6q234 0 387 6 l-10 -41q-75 -3 -111.5 -16t-58 -48t-41.5 -112l-128 -483h118q543 0 543 -279zM1389 124q0 -77 81 -77q86 0 157 70t111 182t40 233q0 91 -43.5 134t-153.5 43h-45l-131 -492q-16 -60 -16 -93z" />
</font>
</defs>
</svg>
