<?xml version="1.0" standalone="no"?>
<!DOCTYPE svg PUBLIC "-//W3C//DTD SVG 1.1//EN" "http://www.w3.org/Graphics/SVG/1.1/DTD/svg11.dtd" >
<svg xmlns="http://www.w3.org/2000/svg">
<metadata></metadata>
<defs>
<font id="playfair_displaybold" horiz-adv-x="1364" >
<font-face units-per-em="2048" ascent="1638" descent="-410" />
<missing-glyph horiz-adv-x="477" />
<glyph unicode="fi" horiz-adv-x="1333" d="M348 1464q71 66 182.5 102t239.5 36q119 0 194 -19t134 -55q36 -23 60 -60t24 -79q0 -74 -50 -116t-143 -42q-90 0 -141 42t-51 113q0 54 35 93.5t100 58.5q-20 12 -56.5 19.5t-76.5 7.5q-178 0 -262 -152q-30 -54 -43 -132.5t-13 -223.5h244q166 0 259 5t179 19v-891 q0 -57 14 -89t45 -45t85 -13v-43q-224 8 -285 8t-285 -8v43q50 0 78 13t40.5 45t12.5 89v646q0 95 -32 137.5t-111 42.5h-244v-826q0 -83 41 -115t123 -32v-43q-252 8 -305 8q-69 0 -297 -8v43q54 0 84.5 13t44.5 45t14 89v826h-151v41h151q0 251 162 407z" />
<glyph unicode="fl" horiz-adv-x="1339" d="M1177 101q14 -32 45 -45t85 -13v-43q-224 8 -285 8t-285 -8v43q50 0 78 13t40.5 45t12.5 89v1194q0 95 -39 134q-21 22 -54.5 34.5t-69.5 12.5q-55 0 -92.5 -17.5t-67.5 -52.5q-41 -44 -52.5 -114t-11.5 -212v-112h215v-41h-215v-826q0 -83 41 -115t123 -32v-43 q-252 8 -305 8q-69 0 -297 -8v43q54 0 84.5 13t44.5 45t14 89v826h-151v41h151q0 156 35 261t113 173q67 57 155.5 84t182.5 27q42 0 134.5 -8.5t147.5 -8.5q101 0 209 21v-1416q0 -57 14 -89z" />
<glyph unicode="f&#xef;" horiz-adv-x="1333" d="M1177 101q14 -32 45 -45t85 -13v-43q-224 8 -285 8t-285 -8v43q50 0 78 13t40.5 45t12.5 89v646q0 95 -32 137.5t-111 42.5h-244v-826q0 -83 41 -115t123 -32v-43q-252 8 -305 8q-69 0 -297 -8v43q54 0 84.5 13t44.5 45t14 89v826h-151v41h151q0 154 27 254t92 168 q120 123 328 123q106 0 173 -27.5t96.5 -72.5t29.5 -99q0 -42 -21.5 -77.5t-57.5 -56t-77 -20.5t-76.5 20.5t-56.5 56t-21 77.5q0 53 35.5 96t87.5 54q-41 12 -92 12q-63 0 -98 -22.5t-50.5 -73t-19.5 -140.5q-4 -69 -4 -272h244q166 0 259 5t179 19v-891q0 -57 14 -89z M1318.5 1535q35.5 -21 56.5 -56.5t21 -75.5q0 -42 -21 -77.5t-56 -56t-76 -20.5q-42 0 -78 20.5t-57 56t-21 77.5q0 40 21 75.5t57 56.5t78 21q40 0 75.5 -21z" />
<glyph unicode="f&#xec;" horiz-adv-x="1333" d="M1177 101q14 -32 45 -45t85 -13v-43q-224 8 -285 8t-285 -8v43q50 0 78 13t40.5 45t12.5 89v646q0 95 -32 137.5t-111 42.5h-244v-826q0 -83 41 -115t123 -32v-43q-252 8 -305 8q-69 0 -297 -8v43q54 0 84.5 13t44.5 45t14 89v826h-151v41h151q0 139 27 237t94 162 q103 100 285 100q73 0 138 -24q-18 30 -18 62q0 47 38 79q30 26 70 26q28 0 54 -13t44 -35q24 -28 40 -60.5t56 -135.5t99 -210l-23 -18q-61 56 -110 94.5t-105.5 79.5t-78.5 59q-40 26 -75.5 38.5t-77.5 12.5q-83 0 -125 -71q-37 -63 -37 -203v-180h244q166 0 259 5t179 19 v-891q0 -57 14 -89z" />
<glyph unicode="ffb" horiz-adv-x="2599" d="M1961 1037q82 50 189 50q108 0 191.5 -59t131.5 -178t48 -293q0 -204 -62.5 -335t-168 -191t-238.5 -60q-144 0 -230 72q-10 1 -31 1q-67 0 -130.5 -21.5t-101.5 -55.5l-31 19q14 52 14 114v1284q0 93 -41 134q-19 22 -50.5 34.5t-66.5 12.5q-51 0 -86.5 -17t-64.5 -51 q-40 -45 -51 -117.5t-11 -216.5v-106h215v-41h-215v-826q0 -83 40.5 -115t123.5 -32v-43q-252 8 -305 8q-77 0 -297 -8v43q53 0 84 13t45.5 45t14.5 89v826h-383v-826q0 -57 12.5 -89t40.5 -45t78 -13v-43q-224 8 -283 8q-71 0 -299 -8v43q54 0 84.5 13t44.5 45t14 89v826 h-151v41h151q0 107 35.5 196.5t100.5 151.5q62 62 155.5 94.5t206.5 32.5q176 0 290 -93q22 28 50 52q66 56 153 83.5t179 27.5q41 0 130 -7.5t146 -7.5q110 0 205 19v-714q42 95 124 145zM952 1407q-99 80 -235 80q-113 0 -168 -70t-55 -225v-135h383q0 229 75 350z M1989 14q223 0 223 514q0 252 -46.5 361.5t-135.5 109.5q-67 0 -121.5 -47.5t-71.5 -130.5v-752q67 -55 152 -55z" />
<glyph unicode="ffh" horiz-adv-x="2617" d="M2474.5 101q12.5 -32 41 -45t77.5 -13v-43q-212 8 -271 8q-70 0 -266 -8v43q41 0 65 13t35 45t11 89v637q0 84 -27.5 127t-99.5 43q-56 0 -102.5 -30.5t-73.5 -84t-27 -120.5v-572q0 -57 10.5 -89t34.5 -45t66 -13v-43q-200 8 -254 8q-71 0 -283 -8v43q49 0 77 13t41 45 t13 89v1194q0 93 -41 134q-19 22 -50.5 34.5t-66.5 12.5q-51 0 -86.5 -17t-64.5 -51q-38 -44 -50 -114t-12 -201v-125h215v-41h-215v-826q0 -83 40.5 -115t123.5 -32v-43q-252 8 -305 8q-77 0 -297 -8v43q53 0 84 13t45.5 45t14.5 89v826h-383v-826q0 -57 12.5 -89t40.5 -45 t78 -13v-43q-224 8 -283 8q-71 0 -299 -8v43q54 0 84.5 13t44.5 45t14 89v826h-151v41h151q0 107 35.5 196.5t100.5 151.5q62 62 155.5 94.5t206.5 32.5q176 0 290 -93q22 28 50 52q66 56 153 83.5t179 27.5q41 0 130 -7.5t146 -7.5q110 0 205 19v-709q93 190 334 190 q159 0 225 -79q34 -40 50 -102t16 -165v-551q0 -57 12.5 -89zM952 1407q-99 80 -235 80q-113 0 -168 -70t-55 -225v-135h383q0 229 75 350z" />
<glyph unicode="ffj" horiz-adv-x="1989" d="M1673.5 1062q92.5 5 179.5 19v-888q0 -172 -29.5 -281.5t-101.5 -185.5q-50 -54 -129.5 -82.5t-206.5 -28.5q-98 0 -163 25q-97 39 -97 114q0 34 19.5 63.5t57 47.5t89.5 18q72 0 119 -32t47 -84q0 -75 -96 -111q44 -3 74 10q69 6 100 84q15 36 19 110.5t4 184.5v791 q0 94 -32 137t-112 43h-244v-817q0 -88 44.5 -122t136.5 -34v-43q-272 8 -326 8q-73 0 -293 -8v43q53 0 84 13t45.5 45t14.5 89v826h-383v-826q0 -57 12.5 -89t40.5 -45t78 -13v-43q-224 8 -283 8q-71 0 -299 -8v43q54 0 84.5 13t44.5 45t14 89v826h-151v41h151 q0 107 36 196t100 152q63 61 156.5 94t205.5 33q192 0 312 -112q19 23 42 44q72 67 183 102.5t239 35.5q118 0 192.5 -19t135.5 -55q36 -23 59 -60t23 -79q0 -74 -50 -116t-143 -42q-90 0 -141 42t-51 113q0 54 35.5 93.5t99.5 58.5q-19 12 -55.5 19.5t-75.5 7.5 q-181 0 -262 -152q-30 -54 -43 -132.5t-13 -223.5h244q166 0 258.5 5zM972 1389q-103 98 -255 98q-113 0 -168 -70t-55 -225v-135h383q0 198 95 332z" />
<glyph unicode="ffk" horiz-adv-x="2570" d="M2512 79q23 -25 56 -36v-43q-164 8 -215 8q-68 0 -264 -8v43q61 0 61 39q0 13 -10 31l-203 366q-22 35 -43.5 48t-56.5 15v-352q0 -57 13.5 -89t42 -45t79.5 -13v-43q-212 8 -278 8q-71 0 -283 -8v43q49 0 77 13t41 45t13 89v1194q0 93 -41 134q-19 22 -50.5 34.5 t-66.5 12.5q-51 0 -86.5 -17t-64.5 -51q-40 -44 -51 -114.5t-11 -208.5v-117h215v-41h-215v-826q0 -83 40.5 -115t123.5 -32v-43q-252 8 -305 8q-77 0 -297 -8v43q53 0 84 13t45.5 45t14.5 89v826h-383v-826q0 -57 12.5 -89t40.5 -45t78 -13v-43q-224 8 -283 8 q-71 0 -299 -8v43q54 0 84.5 13t44.5 45t14 89v826h-151v41h151q0 107 35.5 196.5t100.5 151.5q62 62 155.5 94.5t206.5 32.5q176 0 290 -93q22 28 50 52q66 56 153 83.5t179 27.5q41 0 130 -7.5t146 -7.5q110 0 205 19v-1023q40 3 69 15t54 37l156 151q68 67 68 125 q0 46 -44.5 75t-114.5 32v41q114 -6 240 -6q167 0 240 6v-41q-126 -28 -256 -158l-131 -136l344 -574q27 -46 50 -71zM952 1407q-99 80 -235 80q-113 0 -168 -70t-55 -225v-135h383q0 229 75 350z" />
<glyph unicode="fb" horiz-adv-x="1909" d="M1272.5 1037.5q81.5 49.5 189.5 49.5t191 -59t130.5 -178t47.5 -293q0 -204 -62.5 -335t-168 -191t-238.5 -60q-142 0 -230 72q-10 1 -30 1q-67 0 -131.5 -21.5t-102.5 -55.5l-30 19q14 43 14 114v1284q0 95 -39 134q-20 22 -51.5 34.5t-65.5 12.5q-52 0 -88 -17t-65 -51 q-39 -44 -50.5 -115t-11.5 -208v-117h215v-41h-215v-826q0 -83 41 -115t123 -32v-43q-252 8 -305 8q-69 0 -297 -8v43q54 0 84.5 13t44.5 45t14 89v826h-151v41h151q0 157 35 261.5t113 172.5q68 56 154 83.5t178 27.5q40 0 130 -7.5t148 -7.5q109 0 203 19v-713 q44 95 125.5 144.5zM1298 14q224 0 224 514q0 252 -47 361.5t-136 109.5q-67 0 -121 -47.5t-71 -130.5v-752q66 -55 151 -55z" />
<glyph unicode="fh" horiz-adv-x="1929" d="M1481 1087q158 0 227 -79q34 -39 49 -101t15 -166v-551q0 -57 12.5 -89t40.5 -45t78 -13v-43q-208 8 -271 8q-62 0 -266 -8v43q42 0 66 13t34.5 45t10.5 89v637q0 84 -27.5 127t-99.5 43q-56 0 -102.5 -30.5t-73.5 -84t-27 -120.5v-572q0 -57 10.5 -89t34 -45t65.5 -13 v-43q-188 8 -253 8q-63 0 -283 -8v43q49 0 77.5 13t41 45t12.5 89v1194q0 95 -39 134q-20 22 -51.5 34.5t-65.5 12.5q-52 0 -88 -17t-65 -51q-39 -45 -50.5 -117.5t-11.5 -216.5v-106h215v-41h-215v-826q0 -83 41 -115t123 -32v-43q-252 8 -305 8q-69 0 -297 -8v43 q54 0 84.5 13t44.5 45t14 89v826h-151v41h151q0 157 35 261.5t113 172.5q68 56 154 83.5t178 27.5q40 0 130 -7.5t148 -7.5q109 0 203 19v-709q92 190 334 190z" />
<glyph unicode="fj" horiz-adv-x="1298" d="M348 1464q71 66 182.5 102t239.5 36q119 0 194 -19t134 -55q36 -23 60 -60t24 -79q0 -74 -50 -116t-143 -42q-90 0 -141 42t-51 113q0 54 35 93.5t100 58.5q-20 12 -56.5 19.5t-76.5 7.5q-178 0 -262 -152q-30 -54 -43 -132.5t-13 -223.5h244q166 0 259 5t179 19v-888 q0 -171 -29.5 -281t-101.5 -186q-50 -54 -129.5 -82.5t-204.5 -28.5q-99 0 -166 25q-94 38 -94 114q0 34 19.5 63.5t57 47.5t89.5 18q71 0 117.5 -32t46.5 -84q0 -75 -94 -111q37 -3 69 8q72 8 103 86q14 35 18 109t4 186v791q0 95 -32 137.5t-111 42.5h-244v-817 q0 -88 45 -122t136 -34v-43q-264 8 -324 8q-67 0 -295 -8v43q54 0 84.5 13t44.5 45t14 89v826h-151v41h151q0 251 162 407z" />
<glyph unicode="fk" horiz-adv-x="1880" d="M1824 78.5q22 -24.5 54 -35.5v-43q-164 8 -215 8q-60 0 -264 -8v43q29 0 45 10.5t16 28.5q0 14 -10 31l-203 366q-20 34 -42.5 47.5t-57.5 15.5v-352q0 -57 13.5 -89t42 -45t79.5 -13v-43q-212 8 -276 8q-65 0 -285 -8v43q49 0 77.5 13t41 45t12.5 89v1194q0 95 -39 134 q-20 22 -51.5 34.5t-65.5 12.5q-52 0 -88 -17t-65 -51q-39 -44 -50.5 -116.5t-11.5 -213.5v-110h215v-41h-215v-826q0 -83 41 -115t123 -32v-43q-252 8 -305 8q-69 0 -297 -8v43q54 0 84.5 13t44.5 45t14 89v826h-151v41h151q0 157 35 261.5t113 172.5q68 56 154 83.5 t178 27.5q40 0 130 -7.5t148 -7.5q109 0 203 19v-1023q41 4 70 15.5t53 36.5l155 151q70 69 70 125q0 47 -44.5 75.5t-115.5 31.5v41q114 -6 240 -6q168 0 240 6v-41q-123 -27 -254 -158l-133 -136l344 -574q30 -47 52 -71.5z" />
<glyph unicode="&#xd;" horiz-adv-x="0" />
<glyph unicode=" "  horiz-adv-x="477" />
<glyph unicode="&#x09;" horiz-adv-x="477" />
<glyph unicode="&#xa0;" horiz-adv-x="477" />
<glyph unicode="!" horiz-adv-x="590" d="M249.5 686q-22.5 138 -72.5 373t-50 342q0 62 21.5 107.5t60 69.5t86.5 24q45 0 83.5 -24t61.5 -70t23 -107q0 -107 -45.5 -321.5t-72 -360.5t-32.5 -318h-37q-4 147 -26.5 285zM423 244.5q47 -42.5 47 -115.5t-47 -115.5t-128 -42.5q-80 0 -127 42.5t-47 115.5t47 115.5 t127 42.5q81 0 128 -42.5z" />
<glyph unicode="&#x22;" horiz-adv-x="756" d="M475.5 1121q-33.5 89 -47 135t-13.5 102q0 62 36.5 99.5t92.5 37.5t92.5 -36.5t36.5 -98.5q0 -50 -11.5 -93t-46 -134.5t-57.5 -174.5h-28q-21 74 -54.5 163zM146.5 1121q-33.5 89 -47 135t-13.5 102q0 62 36.5 99.5t92.5 37.5t92.5 -36.5t36.5 -98.5q0 -50 -11.5 -93 t-46 -134.5t-57.5 -174.5h-28q-21 74 -54.5 163z" />
<glyph unicode="#" horiz-adv-x="1270" d="M816 547h300l-8 -41h-300l-58 -299h-41l58 299h-342l-58 -299h-41l58 299h-302l8 41h302l66 342h-300l6 41h302l58 303h41l-58 -303h342l58 303h41l-58 -303h300l-6 -41h-302zM499 889l-66 -342h342l66 342h-342z" />
<glyph unicode="$" horiz-adv-x="1176" d="M756 831q115 -73 187 -134.5t115.5 -141t43.5 -184.5q0 -110 -49 -191.5t-134 -131t-196 -67.5v-251h-41v246q-43 -5 -88 -5q-36 0 -70 3v-244h-41v249q-64 9 -105 24t-97 42q-64 31 -86 31q-19 0 -29 -21.5t-16 -68.5h-48q9 123 9 553h47q12 -165 48.5 -272 t103.5 -166.5t173 -76.5v603l-6 4q-120 76 -194.5 137.5t-122 144t-47.5 189.5q0 109 49 187.5t132.5 123.5t188.5 59v248h41v-245q23 2 47 2q60 0 111 -8v251h41v-259q71 -17 147 -64q50 -29 70 -29q19 0 29 21.5t16 68.5h47q-10 -137 -10 -467h-47q-22 171 -80.5 279 t-171.5 145v-563zM604 1432q-43 0 -80 -8v-434q59 -45 158 -111v546q-37 7 -78 7zM390 1345.5q-32 -45.5 -32 -106.5t26.5 -108.5t98.5 -108.5v391q-61 -22 -93 -67.5zM586 16q53 0 96 8v462q-60 46 -158 113v-580q29 -3 62 -3zM862 227q0 41 -11.5 74.5t-41.5 69.5t-86 83 v-419q139 46 139 192z" />
<glyph unicode="%" horiz-adv-x="1491" d="M136 -86l1198 1774l39 -27l-1198 -1774zM575 1519q75 -40 116.5 -115t41.5 -179q0 -102 -43 -180t-118.5 -121t-170.5 -43q-98 0 -173.5 39.5t-117.5 115t-42 178.5q0 101 43.5 179.5t119.5 122t170 43.5q99 0 174 -40zM264 1217q0 -147 37 -223t105 -76q131 0 131 303 q0 148 -36.5 224.5t-103.5 76.5q-133 0 -133 -305zM1263 609q75 -40 116.5 -115t41.5 -179q0 -101 -43 -179.5t-118.5 -121.5t-169.5 -43q-99 0 -174.5 40t-117.5 115t-42 179q0 101 43.5 179t119.5 121.5t171 43.5q98 0 173 -40zM952 307q0 -146 37.5 -222.5t104.5 -76.5 q131 0 131 303q0 149 -36 225t-104 76q-133 0 -133 -305z" />
<glyph unicode="&#x26;" horiz-adv-x="1839" d="M1700.5 953.5q-105.5 -85.5 -309.5 -128.5l-38 -13q92 -40 141.5 -130.5t49.5 -208.5q0 -143 -88.5 -257.5t-249 -179.5t-368.5 -65q-225 0 -396 62t-264.5 177.5t-93.5 270.5q0 139 73.5 234t167 144.5t175.5 70.5q-232 92 -232 258q0 84 57.5 144.5t151 91t199.5 30.5 q76 0 125 -10.5t88 -32.5q125 -62 125 -166q0 -40 -21.5 -70.5t-58 -47.5t-78.5 -17q-65 0 -107 32.5t-42 94.5q0 52 36.5 93.5t94.5 51.5q-18 16 -55 26.5t-81 10.5q-72 0 -130 -30t-92 -90.5t-34 -147.5q0 -118 80 -209q75 16 115 16q36 0 56 -15t20 -40q0 -19 -16.5 -31 t-41.5 -12q-27 0 -56 12.5t-49.5 25t-25.5 15.5q-104 -53 -160.5 -131.5t-56.5 -199.5q0 -198 158.5 -298t439.5 -100q142 0 272 41.5t211 122.5t81 193q0 186 -156 261q-59 -18 -136.5 -39.5t-109.5 -31.5q-114 -25 -185.5 -51.5t-109 -62t-37.5 -85.5q0 -49 32.5 -86.5 t84 -58t105.5 -20.5q21 0 47 6t34 14q-50 17 -76 52t-26 83q0 63 46 99t118 36q73 0 115.5 -38t42.5 -101q0 -92 -82 -139t-209 -47q-85 0 -154 29t-110 88t-41 145q0 153 117 243t341 134q38 10 137 34t169 48q158 39 233.5 85t75.5 117q0 53 -33.5 96t-87 67t-111.5 24 q-39 0 -59 -10q47 -18 73.5 -54t26.5 -75q0 -61 -46 -96.5t-118 -35.5q-71 0 -115 36.5t-44 99.5q0 80 69.5 126t186.5 46q96 0 169.5 -34.5t114.5 -100t41 -154.5q0 -151 -105.5 -236.5z" />
<glyph unicode="'" horiz-adv-x="428" d="M146.5 1121q-33.5 89 -47 135t-13.5 102q0 62 36.5 99.5t92.5 37.5t92.5 -36.5t36.5 -98.5q0 -50 -11.5 -93t-46 -134.5t-57.5 -174.5h-28q-21 74 -54.5 163z" />
<glyph unicode="(" horiz-adv-x="651" d="M201.473 1216.57q-130.508 -249.516 -130.508 -577.535q0 -328.021 130.508 -577.535q130.508 -249.516 381.523 -434.526l31.002 25.001q-137.009 217.014 -198.513 452.027q-61.5039 235.015 -61.5039 535.033q0 299.019 62.0039 536.532 q62.0039 237.515 198.013 450.528l-31.002 25.001q-251.016 -185.011 -381.523 -434.526z" />
<glyph unicode=")" horiz-adv-x="651" d="M449.5 1216.5q130.5 -249.5 130.5 -577.5t-130.5 -577.5t-381.5 -434.5l-31 25q137 217 198.5 452t61.5 535q0 299 -62 536.5t-198 450.5l31 25q251 -185 381.5 -434.5z" />
<glyph unicode="*" horiz-adv-x="985" d="M883 899q0 -26 -17 -53q-27 -51 -78 -51q-31 0 -65 20q-31 18 -60 48t-79.5 90t-81.5 94q14 -41 41.5 -116.5t39 -116.5t11.5 -75q0 -57 -29 -83.5t-71 -26.5t-70.5 26.5t-28.5 83.5q0 38 12.5 81t37 108t43.5 121q-30 -34 -82 -96t-81.5 -92.5t-58.5 -47.5 q-33 -19 -64 -19q-53 0 -83 50q-15 27 -15 52q0 53 62 89q31 18 71.5 28t119.5 23t126 23q-46 10 -126.5 24t-121.5 24.5t-71 27.5q-60 35 -60 89q0 27 15 52q29 51 80 51q31 0 65 -20q31 -18 60.5 -48.5t80 -91t80.5 -94.5q-13 41 -41 116.5t-39.5 117t-11.5 75.5 q0 57 29.5 84t71.5 27q41 0 69.5 -27t28.5 -84q0 -35 -11.5 -75t-38.5 -114t-42 -119q30 33 81.5 95t81 92.5t58.5 47.5q33 19 65 19q52 0 80 -50q17 -27 17 -53q0 -54 -62 -88q-30 -17 -69.5 -27t-117.5 -23.5t-125 -24.5q44 -9 123 -23t119.5 -24.5t69.5 -27.5 q62 -34 62 -88z" />
<glyph unicode="+" horiz-adv-x="1176" d="M1100 758v-62h-475v-481h-74v481h-477v62h477v483h74v-483h475z" />
<glyph unicode="," horiz-adv-x="555" d="M328 -170q44 51 53 104q5 28 5 48q0 23 -5 38q-47 -49 -119 -49t-117 42t-45 116q0 70 47.5 114t120.5 44q100 0 146 -72q21 -31 33 -76.5t12 -93.5q0 -105 -54 -192t-161 -136l-19 37q59 25 103 76z" />
<glyph unicode="-" horiz-adv-x="985" d="M123 469v170h739v-170h-739z" />
<glyph unicode="." horiz-adv-x="553" d="M404 244.5q47 -42.5 47 -115.5t-47 -115.5t-128 -42.5q-80 0 -127 42.5t-47 115.5t47 115.5t127 42.5q81 0 128 -42.5z" />
<glyph unicode="/" horiz-adv-x="754" d="M66 -29l557 1508h67l-557 -1508h-67z" />
<glyph unicode="0" horiz-adv-x="1321" d="M960 1019.5q127 -67.5 198 -190t71 -282.5q0 -163 -73 -294.5t-205 -206.5t-302 -75q-160 0 -286.5 67t-198.5 190.5t-72 285.5t72.5 292.5t204.5 205.5t303 75q161 0 288 -67.5zM522 987.5q-57 -63.5 -89 -183.5t-32 -284q0 -176 35.5 -291t95.5 -168t136 -53 q73 0 130 64t89.5 185t32.5 284q0 175 -35.5 289.5t-95.5 167.5t-136 53q-74 0 -131 -63.5z" />
<glyph unicode="1" horiz-adv-x="784" d="M592.5 104.5q14.5 -33.5 46 -47.5t86.5 -14v-43q-220 8 -283 8q-64 0 -352 -8v43q97 0 145 36.5t48 131.5v500q0 99 -17.5 145t-58.5 61t-125 15v45q178 3 293 26.5t203 77.5v-882q0 -61 14.5 -94.5z" />
<glyph unicode="2" horiz-adv-x="1071" d="M563 1087q105 0 182 -30.5t118.5 -89t41.5 -140.5q0 -119 -87 -210t-248 -204t-214 -169h443q56 0 83 8.5t38 27t16 56.5h43q0 -242 8 -346q-46 10 -305 10h-596v39q29 30 176 164t234.5 272.5t87.5 284.5q0 209 -191 209q-86 0 -152.5 -39.5t-121.5 -118.5l-35 20 q150 256 479 256z" />
<glyph unicode="3" horiz-adv-x="999" d="M238.5 1017.5q101.5 69.5 265.5 69.5q101 0 180.5 -28.5t124.5 -81.5t45 -125q0 -77 -50.5 -145t-145 -118.5t-220.5 -74.5l35 1q132 0 235 -36.5t161.5 -106.5t58.5 -169q0 -151 -129 -267.5t-330.5 -180.5t-409.5 -64v41q135 4 265 60t214.5 161t84.5 248q0 79 -26 142 t-74.5 100t-114.5 42q-73 -32 -105 -32q-39 0 -39 28q0 22 19 33.5t47 11.5q12 0 33.5 -3.5t37.5 -4.5q158 111 158 275q0 91 -47.5 135.5t-134.5 44.5q-82 0 -151 -40.5t-115 -119.5l-37 18q63 117 164.5 186.5z" />
<glyph unicode="4" horiz-adv-x="1081" d="M1018 63q-31 7 -205 10v-362h-238v363h-559v43l764 970h33v-802h16q56 0 83.5 8.5t38 26.5t16.5 57h43q0 -218 8 -314zM575 761l-370 -476h370v476z" />
<glyph unicode="5" horiz-adv-x="940" d="M797 793q-44 10 -285 10h-315l-33 -350q118 82 309 82q133 0 222.5 -42.5t133 -115.5t43.5 -166q0 -152 -118.5 -269t-306.5 -181t-386 -64v37q130 1 246 56.5t188 160.5t72 248q0 128 -60.5 197t-174.5 69q-56 0 -98 -14.5t-87 -44.5l-28 18l65 641q41 -8 111 -8h338 q59 0 82.5 17t29.5 63h43q0 -228 9 -344z" />
<glyph unicode="6" horiz-adv-x="1149" d="M691.5 1332.5q-98.5 -65.5 -173.5 -202t-101 -364.5q42 70 114 102.5t155 32.5q110 0 201.5 -53.5t145.5 -154t54 -234.5q0 -152 -68.5 -262.5t-185 -168t-255.5 -57.5q-149 0 -257.5 69t-166.5 200t-58 315q0 285 128.5 483.5t315 305t373.5 137.5l9 -41 q-132 -42 -230.5 -107.5zM688.5 56.5q40.5 44.5 65 140.5t24.5 243q0 209 -48 305.5t-126 96.5q-52 0 -107.5 -38t-85.5 -115q-5 -70 -5 -146q0 -192 28 -310.5t71 -169.5t93 -51t90.5 44.5z" />
<glyph unicode="7" horiz-adv-x="932" d="M796.5 759.5q-106.5 -193.5 -167 -371.5t-60.5 -376q0 -12 5.5 -78.5t5.5 -87.5q0 -62 -39.5 -105.5t-110.5 -43.5q-74 0 -111.5 49t-37.5 131q0 182 100 359t232.5 350.5t167.5 222.5h-545q-56 0 -83.5 -8.5t-38 -27t-16.5 -56.5h-43q0 246 -8 350q46 -10 305 -10h578 v-43q-27 -61 -133.5 -254.5z" />
<glyph unicode="8" horiz-adv-x="1149" d="M901 690q66 -64 115 -149t49 -183q0 -112 -65 -200t-179.5 -137.5t-257.5 -49.5q-129 0 -237.5 40.5t-173 119.5t-64.5 191q0 251 333 397q-83 71 -139 132.5t-91 135t-35 158.5q0 106 59 181.5t158 114t217 38.5q116 0 207 -35.5t142.5 -100.5t51.5 -151 q0 -100 -71 -179.5t-210 -152.5q125 -106 191 -170zM465.5 1395.5q-39.5 -46.5 -39.5 -123.5q0 -71 33 -136t86.5 -122.5t132.5 -125.5q39 55 57.5 133.5t18.5 154.5q0 124 -48 195t-133 71q-68 0 -107.5 -46.5zM724.5 69q55.5 61 55.5 160q0 91 -44.5 169t-105 136.5 t-177.5 157.5q-111 -117 -111 -334q0 -156 54.5 -253t176.5 -97q96 0 151.5 61z" />
<glyph unicode="9" horiz-adv-x="1133" d="M453 -180q93 55 166.5 167t103.5 295q-43 -64 -113 -94t-149 -30q-110 0 -201.5 54t-146 154.5t-54.5 235.5q0 151 69 261t185.5 167t255.5 57q149 0 257.5 -66t166.5 -193t58 -306q0 -256 -127 -435.5t-311.5 -275.5t-366.5 -122l-8 41q122 35 215 90zM648 252.5 q54 35.5 85 109.5q8 79 8 170q0 187 -28 302t-71.5 164t-94.5 49q-49 0 -89 -44.5t-64.5 -140.5t-24.5 -244q0 -207 47.5 -304t126.5 -97q51 0 105 35.5z" />
<glyph unicode=":" horiz-adv-x="594" d="M424 244.5q47 -42.5 47 -115.5t-47 -115.5t-128 -42.5q-80 0 -127 42.5t-47 115.5t47 115.5t127 42.5q81 0 128 -42.5zM424 1044.5q47 -42.5 47 -115.5t-47 -115.5t-128 -42.5q-80 0 -127 42.5t-47 115.5t47 115.5t127 42.5q81 0 128 -42.5z" />
<glyph unicode=";" horiz-adv-x="606" d="M352 -170q44 51 53 104q5 28 5 48q0 23 -5 38q-47 -49 -119 -49t-117 42t-45 116q0 70 47.5 114t120.5 44q100 0 146 -72q21 -31 33 -76.5t12 -93.5q0 -105 -54 -192t-161 -136l-19 37q59 25 103 76zM432 1044.5q47 -42.5 47 -115.5t-47 -115.5t-128 -42.5 q-80 0 -127 42.5t-47 115.5t47 115.5t127 42.5q81 0 128 -42.5z" />
<glyph unicode="&#x3c;" horiz-adv-x="1233" d="M252 727l838 -391l-35 -74l-998 465l998 465l35 -74z" />
<glyph unicode="=" horiz-adv-x="1300" d="M137 840v61h1026v-61h-1026zM137 553v61h1026v-61h-1026z" />
<glyph unicode="&#x3e;" horiz-adv-x="1233" d="M980.984 727.044l-838.051 -391.023l35.002 -74.0049l998.061 465.028l-998.061 465.028l-35.002 -74.0039z" />
<glyph unicode="?" horiz-adv-x="1040" d="M582.5 905.5q59.5 60.5 80.5 130t21 158.5q0 186 -67.5 276.5t-184.5 90.5q-58 0 -105.5 -13.5t-72.5 -40.5q115 -34 115 -149q0 -64 -45.5 -106t-116.5 -42q-43 0 -76 19.5t-51.5 52t-18.5 70.5q0 58 31 100.5t86 77.5q122 72 307 72q146 0 257.5 -44.5t173 -128 t61.5 -196.5q0 -168 -140 -284t-382 -171v-299h-41v318q109 48 168.5 108.5zM564 244.5q47 -42.5 47 -115.5t-47 -115.5t-128 -42.5q-80 0 -127 42.5t-47 115.5t47 115.5t127 42.5q81 0 128 -42.5z" />
<glyph unicode="@" horiz-adv-x="1810" d="M1003.5 -297.5q-113.5 -32.5 -245.5 -32.5q-200 0 -349.5 66.5t-233 206t-83.5 350.5q0 274 134.5 522.5t365 400.5t502.5 152q188 0 334.5 -59.5t231.5 -185.5t85 -318q0 -218 -93.5 -390t-235 -267t-277.5 -95q-162 0 -162 142q0 40 12 90q-55 -122 -127 -177t-164 -55 q-110 0 -173.5 68t-63.5 198q0 145 70 300t183 257.5t236 102.5q64 0 105 -33.5t54 -89.5l19 94q163 0 258 29l-161 -739q-12 -51 -12 -76q0 -46 34 -46q13 0 27 5q92 27 192 117t169 236t69 331q0 182 -81 299t-218 171t-309 54q-250 0 -472.5 -142.5t-356.5 -381 t-134 -510.5q0 -204 79.5 -336t220 -193t327.5 -61q237 0 422 111l14 -27q-79 -56 -192.5 -88.5zM1068.5 869.5q-23.5 37.5 -67.5 37.5q-65 0 -130 -87t-106.5 -223.5t-41.5 -274.5q0 -92 21 -131t63 -39q63 0 119.5 80t101.5 229l65 319q-1 52 -24.5 89.5z" />
<glyph unicode="A" horiz-adv-x="1366" d="M1312 73.5q34 -30.5 68 -32.5v-41q-123 6 -311 6q-210 0 -311 -6v41q77 3 110.5 19t33.5 56q0 31 -25 97l-123 336h-446l-54 -141q-56 -144 -56 -228q0 -76 45 -106t136 -33v-41q-138 6 -254 6q-94 0 -156 -6v41q102 17 176 215l467 1198q33 -3 71 -3q40 0 71 3 l497 -1282q27 -68 61 -98.5zM536 1143l-212 -553h415z" />
<glyph unicode="B" horiz-adv-x="1376" d="M1096.5 694.5q115.5 -53.5 167 -131t51.5 -166.5q0 -127 -68 -216.5t-195 -135t-302 -45.5q-44 0 -150.5 3t-214.5 3q-211 0 -315 -6v41q68 3 99 16t42.5 48t11.5 112v1016q0 77 -11.5 112t-42.5 48t-99 16v41q103 -6 311 -6q82 0 182 2t139 2q165 0 278.5 -40.5 t170.5 -113t57 -168.5q0 -76 -44 -149t-136.5 -129.5t-228.5 -81.5v-4q182 -14 297.5 -67.5zM823.5 861q53.5 91 53.5 243q0 154 -48 229.5t-153 75.5q-55 0 -81.5 -14.5t-36 -51t-9.5 -110.5v-463h88q133 0 186.5 91zM559.5 108q10.5 -35 39.5 -48t91 -13q285 0 285 359 q0 161 -81.5 245t-258.5 84h-86v-518q0 -74 10.5 -109z" />
<glyph unicode="C" horiz-adv-x="1444" d="M1265.5 92.5q-11.5 28.5 -33.5 28.5q-16 0 -42 -17q-60 -42 -111.5 -70t-118 -45.5t-149.5 -17.5q-217 0 -380.5 88t-253 255.5t-89.5 398.5q0 226 92 400t257 270t376 96q122 0 208.5 -35t168.5 -98q23 -18 40 -18q42 0 52 122h47q-8 -139 -8 -496h-47 q-13 103 -28.5 167.5t-45 113.5t-80.5 90q-51 49 -119 74.5t-141 25.5q-141 0 -232 -97t-133 -256t-42 -351t44 -351t137.5 -254.5t233.5 -95.5q71 0 139 26t115 75q52 40 81.5 92.5t44 121.5t26.5 181h47q0 -371 8 -516h-47q-5 64 -16.5 92.5z" />
<glyph unicode="D" horiz-adv-x="1589" d="M317 1443l64 1q288 6 321 6q400 0 598.5 -181t198.5 -528q0 -223 -97 -390.5t-281 -259t-437 -91.5q-30 0 -140.5 3t-158.5 3q-211 0 -315 -6v41q68 3 99 16t42.5 48t11.5 112v1016q0 77 -11.5 112t-42.5 48t-99 16v41q131 -7 247 -7zM561 102.5q12 -36.5 44 -51 t97 -14.5q169 0 269.5 79.5t144 232t43.5 384.5q0 233 -46.5 382.5t-147.5 223.5t-265 74q-64 0 -95.5 -14.5t-43.5 -51.5t-12 -110v-1024q0 -74 12 -110.5z" />
<glyph unicode="E" horiz-adv-x="1298" d="M1192 311q0 -188 14 -311q-139 6 -469 6q-446 0 -667 -6v41q68 3 99 16t42.5 48t11.5 112v1016q0 77 -11.5 112t-42.5 48t-99 16v41q221 -6 667 -6q301 0 428 6q-14 -169 -14 -303q0 -91 6 -139h-47q-21 149 -64 235t-109 123t-163 37h-84q-64 0 -92.5 -10.5t-38.5 -40 t-10 -95.5v-507h65q110 0 166 80t78 190h47q-7 -101 -7 -193l1 -98q0 -104 12 -291h-47q-41 271 -250 271h-65v-516q0 -66 10 -95.5t38.5 -40t92.5 -10.5h101q144 0 233.5 100t126.5 336h47q-6 -67 -6 -172z" />
<glyph unicode="F" horiz-adv-x="1212" d="M737 1444q301 0 428 6q-14 -175 -14 -311q0 -97 6 -156h-47q-27 157 -73 249t-113.5 131.5t-165.5 39.5h-68q-64 0 -92.5 -10.5t-38.5 -40t-10 -95.5v-516h72q109 0 165 80.5t78 190.5h47q-7 -101 -7 -193l1 -98q0 -107 13 -291h-48q-42 270 -249 270h-72v-471 q0 -82 17 -119.5t61.5 -50.5t140.5 -14v-45q-252 6 -375 6q-59 0 -323 -6v41q68 3 99 16t42.5 48t11.5 112v1016q0 77 -11.5 112t-42.5 48t-99 16v41q221 -6 667 -6z" />
<glyph unicode="G" horiz-adv-x="1505" d="M1308 80q-15 37 -42 37q-34 0 -111 -43q-178 -103 -336 -103q-236 0 -400 87.5t-247.5 253t-83.5 397.5q0 229 94.5 403.5t263 270.5t383.5 96q126 0 213.5 -34.5t171.5 -98.5q25 -19 41 -19q21 0 33 29t19 94h47q-8 -139 -8 -496h-48q-15 138 -47 224.5t-106 146.5 q-49 47 -121 73.5t-147 26.5q-143 0 -238 -97.5t-140.5 -257.5t-45.5 -349q0 -709 393 -709q89 0 145 41q27 18 38 43t11 64v200q0 96 -16 140.5t-57.5 61t-132.5 20.5v41q118 -7 350 -7q189 0 274 7v-41q-42 -4 -60 -16.5t-25 -47t-7 -112.5v-406h-41q-2 43 -17 80z" />
<glyph unicode="H" horiz-adv-x="1638" d="M1471 1393q-31 -13 -42.5 -48t-11.5 -112v-1016q0 -77 11.5 -112t42.5 -48t100 -16v-41q-102 6 -311 6q-208 0 -322 -6v41q68 3 99.5 16t43 48t11.5 112v492h-543v-492q0 -77 11 -112t42 -48t100 -16v-41q-109 6 -309 6q-219 0 -323 -6v41q68 3 99 16t42.5 48t11.5 112 v1016q0 77 -11.5 112t-42.5 48t-99 16v41q103 -6 323 -6q200 0 309 6v-41q-69 -3 -100 -16t-42 -48t-11 -112v-483h543v483q0 77 -11.5 112t-43 48t-99.5 16v41q114 -6 322 -6q209 0 311 6v-41q-69 -3 -100 -16z" />
<glyph unicode="I" horiz-adv-x="770" d="M602 1393q-31 -13 -42 -48t-11 -112v-1016q0 -77 11 -112t42 -48t100 -16v-41q-109 6 -309 6q-219 0 -323 -6v41q68 3 99 16t42.5 48t11.5 112v1016q0 77 -11.5 112t-42.5 48t-99 16v41q103 -6 323 -6q200 0 309 6v-41q-69 -3 -100 -16z" />
<glyph unicode="J" horiz-adv-x="745" d="M590 1393q-31 -13 -42 -48t-11 -112v-750v-122q0 -137 -6.5 -238t-28.5 -174q-28 -96 -98.5 -171.5t-178 -119t-241.5 -43.5q-130 0 -207 39q-101 50 -101 147q0 63 45 101.5t119 38.5q72 0 114 -35.5t42 -100.5q0 -46 -27 -82t-78 -53q20 -14 74 -14q75 0 129 40t78 107 q18 53 26.5 112t10.5 140t2 242v936q0 77 -11.5 112t-43 48t-99.5 16v41q102 -6 312 -6q207 0 321 6v-41q-69 -3 -100 -16z" />
<glyph unicode="K" horiz-adv-x="1462" d="M1397.5 90q32.5 -28 85.5 -49v-41q-146 6 -320 6q-135 0 -260 -6v41q58 3 83 12t25 28q0 17 -22 52l-297 481q-28 45 -48.5 68.5t-41.5 33t-53 12.5v-511q0 -77 11 -112t42 -48t100 -16v-41q-110 6 -309 6q-220 0 -323 -6v41q68 3 99 16t42.5 48t11.5 112v1016 q0 77 -11.5 112t-42.5 48t-99 16v41q103 -6 323 -6q199 0 309 6v-41q-69 -3 -100 -16t-42 -48t-11 -112v-461q81 5 149 50t154 143l121 145q93 110 93 189q0 51 -39.5 80t-111.5 32v39q151 -6 304 -6q118 0 192 6v-39q-162 -37 -297 -197l-256 -304l477 -744 q30 -48 62.5 -76z" />
<glyph unicode="L" horiz-adv-x="1251" d="M607.5 1393q-33.5 -13 -46 -48t-12.5 -112v-1040q0 -66 9.5 -95.5t36 -40t83.5 -10.5h100q93 0 170.5 57t130 160.5t72.5 239.5h47q-6 -70 -6 -180q0 -197 14 -324q-139 6 -469 6q-446 0 -667 -6v41q68 3 99 16t42.5 48t11.5 112v1016q0 77 -11.5 112t-42.5 48t-99 16v41 q103 -6 323 -6q208 0 322 6v-41q-74 -3 -107.5 -16z" />
<glyph unicode="M" horiz-adv-x="1898" d="M1731 1393q-31 -13 -42.5 -48t-11.5 -112v-1016q0 -77 11.5 -112t43 -48t99.5 -16v-41q-114 6 -322 6q-219 0 -323 -6v41q74 3 107.5 16t46 48t12.5 112v1071l-494 -1290h-33l-553 1319v-981q0 -121 13 -177.5t53.5 -82.5t132.5 -35v-41q-79 6 -221 6q-113 0 -178 -6v41 q67 9 98.5 34.5t43 78t11.5 157.5v922q0 77 -11.5 112t-42.5 48t-99 16v41q65 -6 178 -6q188 0 323 6l413 -995l378 989h145q208 0 322 6v-41q-69 -3 -100 -16z" />
<glyph unicode="N" horiz-adv-x="1479" d="M1320.5 1374.5q-31.5 -25.5 -43 -78t-11.5 -157.5v-1143q-15 1 -50 1q-36 0 -55 -1l-889 1126v-786q0 -121 13 -177.5t53.5 -82.5t132.5 -35v-41q-79 6 -221 6q-113 0 -178 -6v41q67 9 98.5 34.5t43 78t11.5 157.5v922q0 77 -11.5 112t-42.5 48t-99 16v41q65 -6 178 -6 q103 0 176 6l793 -977v641q0 121 -13 177.5t-53.5 82.5t-132.5 35v41q79 -6 221 -6q114 0 178 6v-41q-67 -9 -98.5 -34.5z" />
<glyph unicode="O" horiz-adv-x="1624" d="M1192.5 1391q163.5 -88 253.5 -255.5t90 -398.5q0 -226 -92.5 -400t-257.5 -270t-375 -96q-217 0 -380.5 88t-253 255.5t-89.5 398.5q0 226 92 400t257 270t376 96q216 0 379.5 -88zM606.5 1350.5q-85.5 -91.5 -132 -255t-46.5 -374.5q0 -213 52 -375t141 -250t198 -88 q113 0 198.5 91.5t132 255t46.5 374.5q0 212 -52 374.5t-141.5 250.5t-197.5 88q-113 0 -198.5 -91.5z" />
<glyph unicode="P" horiz-adv-x="1313" d="M549 229q0 -82 17 -119.5t61.5 -50.5t140.5 -14v-45q-252 6 -375 6q-59 0 -323 -6v41q68 3 99 16t42.5 48t11.5 112v1016q0 77 -11.5 112t-42.5 48t-99 16v41q103 -6 311 -6q82 0 182 2t139 2q186 0 313.5 -50.5t191 -141.5t63.5 -212q0 -112 -57 -216t-194 -173 t-362 -69h-108v-357zM867 733.5q63 106.5 63 288.5q0 199 -59 293t-195 94q-55 0 -81.5 -14.5t-36 -51t-9.5 -110.5v-606h88q167 0 230 106.5z" />
<glyph unicode="Q" horiz-adv-x="1624" d="M1460 -305q-44 -37 -113 -58.5t-151 -21.5q-111 0 -216 33.5t-247.5 96t-208.5 87.5q-31 11 -49 14q-88 -43 -172 -43q-43 0 -69.5 13.5t-26.5 40.5q0 26 28.5 40.5t83.5 14.5q78 0 156 -29q40 10 73.5 23t85 36t82.5 34q-191 18 -332.5 111t-218.5 252.5t-77 373.5 q0 226 92 400t257 270t376 96q216 0 379.5 -88t253.5 -255.5t90 -398.5q0 -218 -86.5 -388t-241.5 -268.5t-354 -108.5q-49 -6 -87.5 -18.5t-104.5 -39.5t-115 -41q71 -6 188.5 -16t200.5 -15t151 -5q94 0 154 9q127 14 200.5 55t123.5 124l37 -11q-35 -232 -142 -319z M480 346q52 -162 141 -250t198 -88q113 0 198.5 91.5t132 255t46.5 374.5q0 212 -52 374.5t-141.5 250.5t-197.5 88q-113 0 -198.5 -91.5t-132 -255t-46.5 -374.5q0 -213 52 -375z" />
<glyph unicode="R" horiz-adv-x="1417" d="M1338.5 -1q-63.5 -28 -152.5 -28q-118 0 -187 50t-90 172l-37 204q-18 99 -37.5 159.5t-56 96t-96.5 35.5h-133v-471q0 -77 11 -112t42 -48t100 -16v-41q-109 6 -309 6q-219 0 -323 -6v41q68 3 99 16t42.5 48t11.5 112v1016q0 77 -11.5 112t-42.5 48t-99 16v41 q104 -6 311 -6q82 0 182 2t139 2q282 0 425 -92.5t143 -263.5q0 -91 -43 -173t-146 -142.5t-272 -80.5h2q124 -11 203.5 -42t124.5 -86.5t63 -141.5l47 -211q17 -83 38.5 -115t60.5 -32q24 1 42 12t40 35l28 -25q-56 -63 -119.5 -91zM816.5 773q64.5 44 89 118t24.5 178 q0 168 -59.5 254t-194.5 86q-55 0 -81.5 -14.5t-36 -51t-9.5 -110.5v-504h88q115 0 179.5 44z" />
<glyph unicode="S" horiz-adv-x="1196" d="M269.5 167.5q88.5 -142.5 271.5 -142.5q72 0 129.5 25.5t91 77.5t33.5 126q0 80 -37.5 143.5t-101 116t-169.5 121.5q-124 80 -196.5 139t-120 140t-47.5 188q0 124 63 208.5t167 125.5t229 41q74 0 128.5 -11t91 -27.5t79.5 -41.5q49 -29 69 -29q19 0 29 21.5t16 68.5 h47q-10 -137 -10 -467h-47q-7 111 -49.5 211t-119 162.5t-179.5 62.5q-65 0 -116.5 -25t-80 -72.5t-28.5 -110.5q0 -102 61 -167t159 -131.5t132 -89.5q120 -80 190 -139t114 -138t44 -183q0 -131 -68 -221t-183 -134.5t-257 -44.5q-115 0 -190.5 20.5t-139.5 55.5 q-44 29 -69 29q-19 0 -29 -21.5t-16 -68.5h-47q8 128 8 553h47q13 -229 101.5 -371.5z" />
<glyph unicode="T" horiz-adv-x="1368" d="M66 1102q0 140 -15 348q187 -6 633 -6t631 6q-15 -208 -15 -348q0 -88 7 -156h-47q-34 171 -83 270.5t-117.5 143t-166.5 43.5h-47v-1170q0 -85 17.5 -124t62 -53t139.5 -15v-41q-258 6 -389 6q-129 0 -375 -6v41q96 1 140.5 15t61.5 53t17 124v1170h-45 q-99 0 -167.5 -43t-117.5 -142.5t-84 -271.5h-47q7 68 7 156z" />
<glyph unicode="U" horiz-adv-x="1411" d="M1275.5 1374.5q-31.5 -25.5 -43 -78t-11.5 -157.5v-543q0 -293 -84 -434q-56 -91 -160 -141t-256 -50q-236 0 -369 103q-65 52 -99.5 121t-47 161.5t-12.5 233.5v643q0 77 -11.5 112t-43 48t-99.5 16v41q105 -6 319 -6q212 0 326 6v-41q-74 -3 -107.5 -16t-46 -48 t-12.5 -112v-772q0 -144 26 -234.5t87.5 -137t169.5 -46.5q204 0 288.5 138t84.5 392v541q0 119 -14.5 176.5t-55.5 83.5t-129 35v41q77 -6 221 -6q114 0 178 6v-41q-67 -9 -98.5 -34.5z" />
<glyph unicode="V" horiz-adv-x="1368" d="M1233 1444q94 0 156 6v-41q-51 -20 -101 -78.5t-88 -165.5l-432 -1169q-23 2 -72 2q-47 0 -69 -2l-523 1282q-26 68 -60.5 98.5t-68.5 32.5v41q123 -6 312 -6q209 0 311 6v-41q-77 -3 -110.5 -18.5t-33.5 -57.5q0 -32 25 -96l361 -917l252 679q57 161 57 250 q0 82 -43.5 119.5t-128.5 40.5v41q138 -6 256 -6z" />
<glyph unicode="W" horiz-adv-x="1982" d="M1837 1444q97 0 158 6v-41q-120 -46 -180 -244l-361 -1169q-22 2 -72 2q-49 0 -71 -2l-302 913l-302 -913q-23 2 -72 2t-72 -2l-459 1282q-23 67 -58.5 98t-70.5 33v41q123 -6 306 -6q172 0 251 6v-41q-71 -9 -71 -80q0 -38 18 -92l299 -864l208 608l-105 317 q-20 60 -48 84t-65 27v41q114 -6 293 -6q199 0 295 6v-41q-75 -2 -107 -17t-32 -59q0 -33 20 -96l280 -857l195 619q46 150 46 239t-43.5 128.5t-131.5 42.5v41q138 -6 254 -6z" />
<glyph unicode="X" horiz-adv-x="1415" d="M1355.5 83.5q18.5 -20.5 37.5 -29.5t47 -11v-43q-216 8 -281 8q-74 0 -330 -8v43q72 0 104 7.5t32 26.5q0 14 -15 36l-345 506l-163 -224q-94 -126 -94 -215q0 -63 46 -98.5t128 -40.5v-41q-117 6 -323 6q-124 0 -189 -6v41q143 46 297 250l272 367l-442 649 q-29 42 -46.5 62t-36.5 29t-48 11v43q228 -8 293 -8q179 0 313 8v-43q-68 0 -99 -9t-31 -30q0 -16 16 -39l305 -445l151 204q97 125 97 206q0 51 -38.5 79.5t-111.5 33.5v41q117 -6 258 -6q124 0 189 6v-41q-65 -19 -131.5 -76.5t-126.5 -138.5l-261 -347l480 -702 q28 -41 46.5 -61.5z" />
<glyph unicode="Y" horiz-adv-x="1276" d="M1108 1446q94 0 156 6v-41q-47 -20 -94.5 -75.5t-102.5 -161.5l-242 -479v-478q0 -77 11.5 -112t42.5 -48t100 -16v-41q-111 6 -315 6q-219 0 -318 -6v41q68 3 99.5 16t43 48t11.5 112v346l-396 731q-63 115 -118 115v43q89 -10 241 -10q192 0 385 10v-43 q-72 0 -113.5 -12.5t-41.5 -47.5q0 -21 14 -46l312 -600l159 319q81 162 81 253q0 69 -44 101t-127 35v41q138 -6 256 -6z" />
<glyph unicode="Z" horiz-adv-x="1233" d="M428 47h225q102 0 193 43.5t156.5 143t82.5 258.5h48q-7 -67 -7 -181q0 -188 15 -311q-152 6 -510 6q-381 0 -551 -6v41l715 1362h-234q-169 0 -275.5 -96t-133.5 -324h-48q7 55 7 156q0 124 -15 311q135 -6 461 -6q404 0 584 6v-41z" />
<glyph unicode="[" horiz-adv-x="659" d="M467 1542v-1874h117v-39h-412v1952h412v-39h-117z" />
<glyph unicode="\" horiz-adv-x="754" d="M687.996 -29.002l-557.034 1508.09h-67.0039l557.034 -1508.09h67.0039z" />
<glyph unicode="]" horiz-adv-x="659" d="M192.972 1542.09v-1874.11h-117.007v-39.002h412.024v1952.12h-412.024v-39.0029h117.007z" />
<glyph unicode="^" horiz-adv-x="1083" d="M731 847q109 -113 236 -183l-17 -29q-130 31 -253 77.5t-197 94.5q-61 -48 -161.5 -94.5t-207.5 -77.5l-16 29q127 69 235.5 181.5t171.5 235.5h37q63 -121 172 -234z" />
<glyph unicode="_" horiz-adv-x="1245" d="M121 -353v177h1003v-177h-1003z" />
<glyph unicode="`" horiz-adv-x="457" d="M283 1321.5q-49 38.5 -126.5 94t-109.5 95.5t-32 83q0 47 38 79q30 26 70 26q28 0 54 -13t44 -35q24 -28 40 -60.5t56 -135.5t99 -210l-23 -18q-61 56 -110 94.5z" />
<glyph unicode="a" horiz-adv-x="1061" d="M575.5 998q-40.5 49 -126.5 49q-40 0 -80 -12.5t-66 -37.5q57 -19 89 -59.5t32 -101.5q0 -42 -20.5 -75.5t-58.5 -53t-87 -19.5q-66 0 -105.5 45t-39.5 113q0 106 114 172q125 69 312 69q210 0 299 -92q43 -43 58 -107t15 -179v-557q0 -50 9.5 -70.5t33.5 -20.5 q33 0 76 35l21 -35q-47 -39 -102 -57t-132 -18q-104 0 -150 46t-46 120q-50 -83 -131 -124.5t-173 -41.5q-117 0 -187.5 61.5t-70.5 171.5q0 107 70 177t217 124q16 6 104 39.5t127 68.5t39 77v159q0 85 -40.5 134zM573.5 575.5q-29.5 -23.5 -84.5 -57.5 q-65 -45 -102 -101.5t-37 -140.5q0 -80 35 -119.5t92 -39.5q81 0 139 84v420q-13 -22 -42.5 -45.5z" />
<glyph unicode="b" horiz-adv-x="1200" d="M562 1037q82 50 190 50t191.5 -59t131 -178t47.5 -293q0 -204 -62.5 -335t-168 -191t-238.5 -60q-142 0 -229 72q-11 1 -32 1q-67 0 -130.5 -21.5t-101.5 -55.5l-31 19q14 52 14 114v1256q0 95 -29.5 137.5t-101.5 42.5v43q64 -6 127 -6q180 0 299 29v-710q42 95 124 145 zM590 14q223 0 223 514q0 252 -46.5 361.5t-135.5 109.5q-67 0 -121.5 -48t-71.5 -130v-752q67 -55 152 -55z" />
<glyph unicode="c" horiz-adv-x="1016" d="M880 137.5q-52 -73.5 -135 -120t-194 -46.5q-137 0 -244.5 60t-170 184t-62.5 309q0 181 65.5 307.5t180 191t262.5 64.5q76 0 143 -16.5t113 -44.5q53 -33 82.5 -82.5t29.5 -109.5q0 -73 -45.5 -118.5t-116.5 -45.5q-72 0 -114.5 41t-42.5 110q0 62 39 107t96 61 q-16 22 -49.5 35.5t-73.5 13.5q-83 0 -141.5 -62.5t-88.5 -172t-30 -250.5q0 -150 38 -242t99 -131t135 -39q70 0 141 36.5t128 129.5l34 -12q-26 -84 -78 -157.5z" />
<glyph unicode="d" horiz-adv-x="1225" d="M1085.5 87.5q28.5 -42.5 102.5 -42.5v-43q-65 6 -127 6q-181 0 -299 -28v176q-69 -185 -266 -185q-125 0 -219.5 60.5t-147 187t-51.5 316.5q-1 180 57.5 304t162 186t237.5 62q151 0 227 -77v348q0 95 -29.5 137.5t-101.5 42.5v43q65 -6 127 -6q180 0 299 29v-1379 q0 -95 28.5 -137.5zM612 1028q-108 0 -167 -125t-58 -373q-3 -471 193 -471q44 0 83 22t65.5 63.5t33.5 96.5v717q-52 70 -150 70z" />
<glyph unicode="e" horiz-adv-x="1032" d="M385 537q0 -136 38 -225.5t98.5 -131t129.5 -41.5q169 0 271 164l36 -12q-26 -84 -80.5 -156.5t-138 -118t-190.5 -45.5q-141 0 -247.5 60t-166 182.5t-59.5 304.5q0 186 64 313.5t177 191.5t261 64q385 0 385 -454h-575q-3 -30 -3 -96zM672.5 938q-35.5 106 -107.5 106 q-73 0 -121.5 -90.5t-59.5 -281.5h321q3 160 -32.5 266z" />
<glyph unicode="f" horiz-adv-x="721" d="M192.5 1258.5q12.5 80.5 40.5 137t76 103.5q46 46 121.5 74.5t159.5 28.5q128 0 219 -68q31 -25 50.5 -65t19.5 -89q0 -37 -18.5 -69.5t-52 -52t-75.5 -19.5q-70 0 -112.5 38.5t-42.5 106.5q0 54 31 94.5t89 57.5q-6 13 -25.5 21t-47.5 8q-77 0 -111 -54 q-22 -31 -30.5 -89.5t-8.5 -178.5v-186h219v-41h-219v-805q0 -95 48 -131.5t145 -36.5v-43q-288 8 -353 8q-62 0 -266 -8v43q49 0 77.5 13t41 45t12.5 89v826h-139v41h139q0 121 12.5 201.5z" />
<glyph unicode="g" horiz-adv-x="1112" d="M1010.5 210.5q76.5 -51.5 76.5 -167.5q0 -105 -66 -203.5t-200 -161.5t-327 -63q-150 0 -251.5 23.5t-151.5 63.5t-50 91q0 55 41.5 82t135.5 57t133 58h-48q-85 0 -157 41t-72 149q0 59 24.5 106.5t81 91t152.5 89.5q-105 36 -164 109.5t-59 185.5q0 162 120.5 243.5 t319.5 81.5q82 0 152 -14q-3 52 8 103q10 85 58 136.5t136 51.5q65 0 107.5 -34.5t42.5 -90.5q0 -52 -40.5 -85.5t-101.5 -33.5q-62 0 -97 29t-54 86q-22 -37 -31 -105q-1 -10 -1 -30q0 -22 1 -33q122 -31 191 -107.5t69 -197.5q0 -109 -56.5 -182t-155.5 -108.5t-228 -35.5 q-97 0 -177 20q-59 -34 -87.5 -62t-28.5 -64q0 -68 82 -68h473q123 0 199.5 -51.5zM447 985q-35 -66 -35 -223t35 -223t102 -66q68 0 102.5 66t34.5 223t-34.5 223t-102.5 66q-67 0 -102 -66zM337.5 -89q-18.5 -47 -18.5 -85q0 -85 64.5 -130.5t165.5 -45.5q83 0 154.5 30.5 t114 88.5t42.5 135q0 44 -26 65t-93 21h-351q-34 -32 -52.5 -79z" />
<glyph unicode="h" horiz-adv-x="1245" d="M799 1087q159 0 225 -79q34 -40 50 -102t16 -165v-551q0 -57 12.5 -89t40.5 -45t78 -13v-43q-216 8 -271 8q-70 0 -266 -8v43q41 0 65 13t35 45t11 89v637q0 84 -27.5 127t-99.5 43q-56 0 -102.5 -30.5t-73.5 -84t-27 -120.5v-572q0 -57 10.5 -89t34 -45t65.5 -13v-43 q-196 8 -253 8q-71 0 -283 -8v43q49 0 77 13t41 45t13 89v1166q0 95 -29.5 137.5t-101.5 42.5v43q65 -6 127 -6q180 0 299 29v-705q92 190 334 190z" />
<glyph unicode="i" horiz-adv-x="645" d="M450.5 1545q50.5 -42 50.5 -115q0 -74 -50.5 -116t-135.5 -42q-87 0 -137 42t-50 116q0 73 50 115t137 42q85 0 135.5 -42zM488 101q13 -32 41 -45t77 -13v-43q-204 8 -272 8q-65 0 -285 -8v43q49 0 77.5 13t41 45t12.5 89v646q0 95 -29 137.5t-102 42.5v43q65 -6 127 -6 q181 0 299 28v-891q0 -57 13 -89z" />
<glyph unicode="j" horiz-adv-x="608" d="M443.5 1541q50.5 -42 50.5 -116q0 -73 -51 -115t-136 -42q-86 0 -136 42t-50 115q0 74 50 116t136 42t136.5 -42zM438 -90q-29 -110 -102 -184q-111 -111 -332 -111q-109 0 -182 37q-38 19 -59 53.5t-21 75.5q0 62 44 99.5t118 37.5q71 0 112 -33.5t41 -97.5 q0 -43 -25.5 -78t-76.5 -53q32 -4 47 -4q87 0 129 57q24 37 32.5 110.5t8.5 225.5v791q0 94 -29.5 137t-101.5 43v43q65 -6 127 -6q179 0 299 28v-888q0 -173 -29 -283z" />
<glyph unicode="k" horiz-adv-x="1198" d="M1142 77.5q21 -23.5 54 -34.5v-43q-164 8 -215 8q-68 0 -264 -8v43q61 0 61 39q0 13 -10 31l-203 366q-20 34 -42.5 47.5t-57.5 15.5v-352q0 -57 12 -89t38.5 -45t72.5 -13v-43q-204 8 -266 8q-71 0 -283 -8v43q49 0 77 13t41 45t13 89v1168q0 95 -29.5 137.5 t-101.5 42.5v43q65 -6 127 -6q180 0 299 29v-1021q41 4 70 15.5t53 36.5l155 151q69 69 69 125q0 47 -44.5 75.5t-114.5 31.5v41q114 -6 240 -6q168 0 240 6v-41q-122 -27 -256 -158l-131 -136l344 -574q31 -49 52 -72.5z" />
<glyph unicode="l" horiz-adv-x="637" d="M479.5 101q12.5 -32 41 -45t77.5 -13v-43q-212 8 -274 8q-71 0 -283 -8v43q49 0 77 13t41 45t13 89v1168q0 95 -29.5 137.5t-101.5 42.5v43q65 -6 127 -6q180 0 299 29v-1414q0 -57 12.5 -89z" />
<glyph unicode="m" horiz-adv-x="1853" d="M1709 101q13 -32 41 -45t77 -13v-43q-204 8 -271 8q-57 0 -253 -8v43q37 0 58 13t30.5 44.5t9.5 89.5v637q0 85 -25.5 127.5t-97.5 42.5q-50 0 -93 -29t-71.5 -79t-34.5 -112v-36v-551q0 -57 11.5 -89t37 -45t70.5 -13v-43q-196 8 -258 8q-58 0 -254 -8v43q37 0 58 13 t30.5 45t9.5 89v637q0 86 -22 128t-88 42q-54 0 -99.5 -31t-72.5 -85.5t-27 -120.5v-570q0 -57 9.5 -89t30.5 -45t58 -13v-43q-180 8 -241 8q-63 0 -283 -8v43q49 0 77.5 13t41 45t12.5 89v646q0 95 -29 137.5t-102 42.5v43q65 -6 127 -6q181 0 299 28v-184q92 190 318 190 q156 0 225 -79q38 -44 52 -124q52 111 138.5 157t200.5 46q156 0 225 -79q33 -39 47.5 -101.5t14.5 -165.5v-551q0 -57 13 -89z" />
<glyph unicode="n" horiz-adv-x="1257" d="M811 1087q84 0 137.5 -20t87.5 -59t49 -101t15 -166v-551q0 -57 13 -89t41 -45t77 -13v-43q-204 8 -270 8q-63 0 -267 -8v43q42 0 66 13t34.5 45t10.5 89v637q0 84 -27.5 127t-99.5 43q-56 0 -102.5 -31t-73.5 -85.5t-27 -120.5v-570q0 -57 11 -89t35 -45t65 -13v-43 q-188 8 -254 8q-63 0 -283 -8v43q49 0 77.5 13t41 45t12.5 89v646q0 95 -29 137.5t-102 42.5v43q65 -6 127 -6q181 0 299 28v-184q93 190 336 190z" />
<glyph unicode="o" horiz-adv-x="1157" d="M945.5 953q133.5 -134 133.5 -425q0 -290 -133.5 -423.5t-367.5 -133.5t-368 133.5t-134 423.5t134 424.5t368 134.5t367.5 -134zM437.5 919q-52.5 -128 -52.5 -391q0 -262 52.5 -389t140.5 -127q89 0 140.5 126.5t51.5 389.5q0 264 -51.5 391.5t-140.5 127.5 q-88 0 -140.5 -128z" />
<glyph unicode="p" horiz-adv-x="1229" d="M592.5 1037q82.5 50 191.5 50q106 0 189 -57.5t130.5 -172t47.5 -279.5q0 -196 -58.5 -332.5t-165 -205.5t-251.5 -69q-132 0 -209 65v-204q0 -90 45.5 -125t138.5 -35v-43q-30 1 -136 5t-208 4q-78 0 -158.5 -4t-99.5 -5v43q46 0 72 12.5t38.5 43t12.5 84.5v1024 q0 94 -29.5 137t-101.5 43v43q65 -6 127 -6q179 0 299 28v-190q43 96 125.5 146zM596 27q131 0 188.5 130.5t57.5 379.5t-46 355.5t-132 106.5q-70 0 -125 -47t-72 -130v-741q46 -54 129 -54z" />
<glyph unicode="q" horiz-adv-x="1198" d="M1067.5 -272.5q12.5 -30.5 38.5 -43t72 -12.5v-43q-21 1 -101 5t-157 4q-102 0 -208 -4t-137 -5v43q94 0 139.5 34.5t45.5 125.5v327q-36 -92 -103 -140t-161 -48q-122 0 -216.5 61t-149 187.5t-54.5 315.5q0 180 56.5 304t157.5 186t234 62q85 0 146 -18.5t108 -63.5 q73 -4 146 21t114 66l31 -17q-14 -52 -14 -117v-1146q0 -54 12.5 -84.5zM602 1044q-217 0 -217 -514q0 -251 51 -361t146 -110q61 0 111.5 46.5t66.5 125.5v750q-59 63 -158 63z" />
<glyph unicode="r" horiz-adv-x="956" d="M587.5 1032.5q73.5 54.5 166.5 54.5q62 0 104 -27t62 -69.5t20 -91.5q0 -76 -44 -124t-116 -48q-70 0 -110.5 35.5t-40.5 95.5q0 98 90 160q-13 3 -25 3q-14 0 -32 -5q-52 -8 -95 -49.5t-67.5 -99.5t-24.5 -113v-543q0 -95 46 -131.5t147 -36.5v-43q-256 8 -326 8 q-65 0 -293 -8v43q49 0 77.5 13t41 45t12.5 89v646q0 95 -29 137.5t-102 42.5v43q65 -6 127 -6q181 0 299 28v-190q39 87 112.5 141.5z" />
<glyph unicode="s" horiz-adv-x="946" d="M231.5 118q66.5 -100 188.5 -100q60 0 102.5 36.5t42.5 109.5q0 57 -25.5 102t-64.5 80t-117 96q-95 77 -142.5 121t-81.5 104.5t-34 137.5q0 88 48 152t129 97t176 33q78 0 143 -19t102 -44q20 -14 36 -14q38 0 48 75h45q-8 -103 -8 -360h-45q-18 134 -80.5 225.5 t-181.5 91.5q-61 0 -100 -35t-39 -96q0 -69 46 -119t111 -96t95 -69q84 -63 133.5 -110t80.5 -106.5t31 -136.5q0 -90 -52.5 -159t-141.5 -106.5t-195 -37.5q-109 0 -190 43q-61 31 -96 43q-6 2 -10 2q-33 0 -48 -73h-45q8 117 8 409h45q20 -177 86.5 -277z" />
<glyph unicode="t" horiz-adv-x="721" d="M707 1057v-41h-242v-826q0 -61 22 -86.5t68 -25.5q87 0 139 123l35 -19q-77 -211 -280 -211q-135 0 -205 70q-43 42 -58.5 106.5t-15.5 178.5v690h-172v41h172v272q169 0 295 66v-338h242z" />
<glyph unicode="u" horiz-adv-x="1241" d="M1098.5 85.5q29.5 -42.5 101.5 -42.5v-43q-64 6 -127 6q-180 0 -299 -29v185q-93 -191 -330 -191q-153 0 -223 80q-34 38 -48.5 101t-14.5 165v519q0 94 -29.5 137t-101.5 43v43q65 -6 127 -6q179 0 299 28v-848q0 -85 25.5 -128.5t96.5 -43.5q54 0 99.5 31.5t72.5 86 t27 120.5v537q0 94 -29.5 137t-101.5 43v43q65 -6 127 -6q179 0 299 28v-858q0 -95 29.5 -137.5z" />
<glyph unicode="v" horiz-adv-x="1040" d="M881 1053q106 0 157 6v-41q-42 -12 -76.5 -51.5t-64.5 -124.5l-299 -846q-33 3 -67 3q-33 0 -66 -3l-365 905q-46 115 -118 115v43q143 -10 290 -10q130 0 267 10v-43q-57 0 -85 -5t-39.5 -29t5.5 -77l234 -622l147 407q33 95 33 165q0 152 -150 163v41q96 -6 197 -6z " />
<glyph unicode="w" horiz-adv-x="1612" d="M1456 1053q103 0 156 6v-41q-43 -12 -78 -51.5t-61 -124.5l-273 -846q-33 3 -67 3q-33 0 -66 -3l-279 760l-227 -760q-31 3 -66 3q-32 0 -67 -3l-324 905q-40 115 -118 115v43q132 -12 290 -12q103 0 267 12v-43q-45 0 -71 -3.5t-41.5 -16.5t-15.5 -40q0 -20 11 -55 l186 -579l222 739q26 -1 75 -1q50 0 74 1l265 -782l130 411q28 90 28 156q0 157 -161 172v41q96 -6 211 -6z" />
<glyph unicode="x" horiz-adv-x="1098" d="M1040.5 73q24.5 -25 57.5 -30v-43q-164 8 -219 8q-59 0 -267 -8v43q32 0 50.5 11t18.5 30q0 13 -9 29l-214 317l-71 -90q-68 -88 -68 -163q0 -58 40 -94.5t108 -41.5v-41q-120 6 -295 6q-84 0 -143 -6v41q45 16 88.5 53t97.5 105l219 267l-301 447q-38 55 -61 77t-54 26 v43q180 -8 244 -8q54 0 242 8v-43q-31 0 -50.5 -11t-19.5 -30q0 -13 10 -29l193 -287l78 103q71 92 71 157q0 43 -31.5 69t-92.5 30v41q118 -6 231 -6q87 0 145 6v-41q-86 -29 -188 -158l-189 -237l322 -478q33 -47 57.5 -72z" />
<glyph unicode="y" horiz-adv-x="1063" d="M893 1053q103 0 158 6v-41q-43 -11 -77.5 -51t-64.5 -125l-366 -1030q-41 -107 -90 -146q-60 -51 -179 -51q-53 0 -104.5 17.5t-85 54.5t-33.5 92q0 63 45 101t119 38q69 0 111.5 -34t42.5 -95q0 -42 -27.5 -78.5t-75.5 -54.5q15 -2 47 -2q128 0 187 162l33 98l-435 987 q-32 71 -63.5 93t-63.5 22v43q135 -12 281 -12q121 0 285 12v-43q-44 0 -69 -3t-42.5 -15t-17.5 -39q0 -24 14 -58l251 -605l140 394q33 98 33 164q0 78 -40 118.5t-112 45.5v41q96 -6 199 -6z" />
<glyph unicode="z" horiz-adv-x="971" d="M504 31q132 0 222 86.5t105 279.5h43q0 -276 9 -405q-167 8 -394 8q-199 0 -426 -10l512 1038h-114q-292 0 -320 -366h-43q0 290 -8 405q167 -8 393 -8q201 0 426 10l-512 -1038h107z" />
<glyph unicode="{" horiz-adv-x="682" d="M550.5 1532q-30.5 -29 -42.5 -118t-12 -286q0 -174 -54.5 -280t-142 -158t-207.5 -78q120 -26 207.5 -78t142 -158.5t54.5 -279.5q0 -205 12 -295t42 -118t97 -29v-39q-169 0 -264.5 42.5t-138.5 146t-43 292.5q0 197 -13 300.5t-46 148t-97 49.5h-10v37h10q64 4 97 48 t46 147.5t13 301.5q0 182 43 284.5t139 146t264 43.5v-39q-66 -2 -96.5 -31z" />
<glyph unicode="|" horiz-adv-x="518" d="M170 -399v2156h180v-2156h-180z" />
<glyph unicode="}" horiz-adv-x="682" d="M132.467 1532.09q30.502 -29.002 42.502 -118.008q12.001 -89.0049 12.001 -286.018q0 -174.01 54.5029 -280.017q54.5039 -106.007 142.009 -158.01q87.5059 -52.0029 207.513 -78.0049q-120.007 -26.001 -207.513 -78.0049q-87.5049 -52.0029 -142.009 -158.51 q-54.5029 -106.506 -54.5029 -279.517q0 -205.013 -12.001 -295.018q-12 -90.0059 -42.002 -118.008t-97.0059 -29.002v-39.002q169.01 0 264.516 42.5029q95.5059 42.502 138.509 146.009q43.002 103.506 43.002 292.518q0 197.012 13.001 300.519 q13.001 103.506 46.0029 148.009t97.0059 49.5029h10.001v37.002h-10.001q-64.0039 4.00098 -97.0059 48.0029q-33.002 44.0029 -46.0029 147.51q-13.001 103.506 -13.001 301.518q0 182.012 -43.002 284.518q-43.0029 102.507 -139.009 146.009 q-96.0059 43.5029 -264.016 43.5029v-39.002q66.0039 -2 96.5059 -31.002z" />
<glyph unicode="~" horiz-adv-x="1368" d="M176.5 646.5q44.5 72.5 112.5 111.5t147 39q75 0 139.5 -23.5t196.5 -91.5t234 -68q153 0 208 144l37 -8q-9 -95 -53.5 -167.5t-113.5 -111.5t-148 -39q-74 0 -138 23.5t-196 91t-235 67.5q-150 0 -209 -143l-35 8q9 95 53.5 167.5z" />
<glyph unicode="&#xa1;" horiz-adv-x="567" d="M412 1045.5q47 -42.5 47 -115.5t-47 -115.5t-128 -42.5q-80 0 -127 42.5t-47 115.5t47 115.5t127 42.5q81 0 128 -42.5zM328.5 406q23.5 -120 73 -319t49.5 -280q0 -93 -46.5 -142.5t-121.5 -49.5t-121.5 50.5t-46.5 141.5q0 78 45 260.5t72 311.5t32 272h37 q4 -125 27.5 -245z" />
<glyph unicode="&#xa2;" horiz-adv-x="1022" d="M874.5 142q-49.5 -71 -128 -118.5t-183.5 -52.5v-342h-45v342q-131 6 -233 67.5t-161 184t-59 301.5q0 169 57.5 291.5t159.5 190t236 79.5v365h45v-363h10q76 0 143 -16.5t113 -44.5q53 -33 82.5 -82.5t29.5 -109.5q0 -73 -45.5 -118.5t-116.5 -45.5q-72 0 -114.5 41 t-42.5 110q0 62 39 107t96 61q-16 22 -49.5 35.5t-73.5 13.5q-38 0 -71 -13v-871q39 -13 83 -13q70 0 141 36.5t128 129.5l34 -12q-25 -82 -74.5 -153zM411 827.5q-37 -117.5 -37 -274.5q0 -288 144 -377v823q-70 -54 -107 -171.5z" />
<glyph unicode="&#xa3;" horiz-adv-x="1352" d="M1154.5 470q59.5 -34 96.5 -90.5t37 -131.5q0 -82 -34.5 -144.5t-104 -97.5t-170.5 -35q-78 0 -147 21t-167.5 63t-148.5 56q-58 16 -100 16q-58 0 -113 -21q-42 -66 -92 -100.5t-98 -34.5q-45 0 -45 33q0 21 22 45.5t63 46.5t93 35q19 56 24.5 120.5t5.5 188.5v88v80 h-157v41h157v164h-157v41h157v45q0 608 517 608q147 0 223 -49q102 -62 102 -158q0 -63 -41.5 -105t-105.5 -42q-65 0 -106.5 37.5t-41.5 97.5q0 54 28 93.5t79 58.5q-16 14 -49.5 23.5t-71.5 9.5q-98 0 -148 -57.5t-66.5 -166.5t-16.5 -297v-98h247v-41h-247v-123l-1 -41 h248v-41h-252q-15 -104 -61.5 -186t-106 -160t-83.5 -110q89 73 163 102t144 29q55 0 100 -9t136 -34t165 -25q64 0 100.5 33.5t36.5 83.5q0 61 -39.5 99t-109.5 52l8 33q69 -12 128.5 -46z" />
<glyph unicode="&#xa4;" horiz-adv-x="1260" d="M1018 827q57 -97 57 -213q0 -117 -57 -213l121 -120l-174 -175l-121 121q-99 -57 -213 -57q-119 0 -213 57l-119 -121l-176 175l119 118q-58 106 -58 215q0 114 60 213l-121 121l174 174l121 -121q94 60 213 60q112 0 213 -60l123 121l174 -174zM514 835.5 q-55 -34.5 -87 -93.5t-32 -128q0 -68 32 -126.5t87 -93t119 -34.5q63 0 117 34.5t86 93t32 126.5q0 69 -32 128t-86 93.5t-117 34.5q-64 0 -119 -34.5z" />
<glyph unicode="&#xa5;" horiz-adv-x="1389" d="M1173 1446q95 0 156 6v-41q-47 -20 -94.5 -75.5t-102.5 -161.5l-242 -479v-74h255v-41h-255v-164h255v-41h-255v-158q0 -77 11.5 -112t42.5 -48t100 -16v-41q-111 6 -315 6q-219 0 -318 -6v41q68 3 99.5 16t43 48t11.5 112v158h-258v41h258v147l-9 17h-249v41h227 l-365 673q-63 115 -118 115v43q89 -10 241 -10q192 0 385 10v-43q-72 0 -113.5 -12.5t-41.5 -47.5q0 -21 14 -46l312 -600l159 319q81 162 81 253q0 69 -44 101t-127 35v41q138 -6 256 -6z" />
<glyph unicode="&#xa6;" horiz-adv-x="524" d="M172 786v971h180v-971h-180zM172 -399v1067h180v-1067h-180z" />
<glyph unicode="&#xa7;" horiz-adv-x="1190" d="M1060.5 403q-59.5 -83 -196.5 -155q79 -69 116.5 -138t37.5 -153q0 -102 -59 -179.5t-165 -120t-243 -42.5q-136 0 -242 45q-135 66 -135 190q0 38 19 71t53.5 53t79.5 20q69 0 112 -39t43 -102q0 -52 -28 -93.5t-76 -58.5q13 -21 61 -34t99 -13q74 0 122.5 26t70.5 68.5 t22 91.5q0 97 -58 159t-146 121t-124 83q-130 87 -201 146.5t-110 126.5t-39 153q0 102 59 186t194 155q-77 69 -114 137.5t-37 152.5q0 102 59 179.5t164.5 120t241.5 42.5q143 0 242 -46q135 -64 135 -190q0 -38 -18.5 -71t-53 -52.5t-80.5 -19.5q-69 0 -112 39t-43 102 q0 52 28 93.5t76 58.5q-13 21 -61 34t-99 13q-109 0 -161 -54.5t-52 -132.5q0 -99 58.5 -160.5t147 -120t122.5 -81.5q131 -89 201.5 -148t109.5 -126t39 -152q0 -102 -59.5 -185zM882 349.5q17 38.5 17 90.5q0 60 -33.5 111t-101 104.5t-197.5 139.5q-134 88 -203 144 q-69 -65 -69 -163q0 -60 33.5 -111t101.5 -104.5t197 -138.5q133 -88 202 -144q36 33 53 71.5z" />
<glyph unicode="&#xa8;" horiz-adv-x="799" d="M242 1535q36 -21 58 -56.5t22 -75.5q0 -42 -21.5 -77.5t-57.5 -56t-77 -20.5t-76.5 20.5t-56.5 56t-21 77.5q0 40 21 75.5t56.5 56.5t76.5 21q40 0 76 -21zM708.5 1535q35.5 -21 56.5 -56.5t21 -75.5q0 -42 -21 -77.5t-56 -56t-76 -20.5q-42 0 -78 20.5t-57 56t-21 77.5 q0 40 21 75.5t57 56.5t78 21q40 0 75.5 -21z" />
<glyph unicode="&#xa9;" horiz-adv-x="1804" d="M1310 1492.5q187 -109.5 296.5 -297t109.5 -409.5q0 -221 -109.5 -408.5t-296.5 -297t-409 -109.5q-221 0 -408.5 109.5t-297 297t-109.5 408.5q0 222 109.5 409.5t297 297t408.5 109.5q222 0 409 -109.5zM533.5 1435q-168.5 -101 -267 -273t-98.5 -376q0 -203 98.5 -375 t267 -273t367.5 -101q200 0 368 101t266.5 273t98.5 375q0 204 -98.5 376t-266.5 273t-368 101q-199 0 -367.5 -101zM1246.5 395q-52.5 -73 -135.5 -119.5t-193 -46.5q-138 0 -245.5 59.5t-170 183.5t-62.5 310q0 180 65 307t180 192t263 65q78 0 145.5 -18t114.5 -48 q50 -32 79.5 -80.5t29.5 -107.5q0 -72 -45.5 -118t-116.5 -46q-72 0 -115 42t-43 111q0 61 38.5 105.5t97.5 60.5q-21 22 -60.5 36.5t-83.5 14.5q-61 0 -108 -36q-63 -36 -97 -141.5t-34 -311.5q0 -163 37.5 -263t98 -143t134.5 -43q169 0 268 205l37 -14 q-26 -83 -78.5 -156z" />
<glyph unicode="&#xaa;" horiz-adv-x="987" d="M511 1400.5q-32 39.5 -95 39.5q-66 0 -113 -31q42 -11 66 -44.5t24 -72.5q0 -54 -40 -86t-97 -32q-61 0 -98 32t-37 84q0 91 110 142q106 47 263 47q164 0 237.5 -61.5t73.5 -198.5v-345q0 -29 8.5 -41t30.5 -12q34 0 59 23l23 -31q-99 -76 -234 -76q-80 0 -113 24.5 t-36 72.5q-100 -97 -246 -97q-89 0 -146 40.5t-57 121.5q0 55 31 93t91 67t163 61q164 54 164 115v37q0 89 -32 128.5zM459 1094q-48 -34 -70 -71.5t-22 -84.5t21.5 -75.5t55.5 -28.5q54 0 99 38v302q-16 -34 -84 -80z" />
<glyph unicode="&#xab;" horiz-adv-x="1165" d="M521 769.5q-80 -151.5 -163 -237.5q82 -84 162.5 -238t128.5 -314l-31 -11q-127 176 -263 310.5t-302 236.5v27q165 102 301 237t264 312l31 -13q-48 -158 -128 -309.5zM946 747q-69 -137 -141 -215q71 -77 140.5 -216t111.5 -287l-31 -11q-114 159 -238.5 282.5 t-275.5 215.5v27q151 92 275.5 215.5t238.5 283.5l31 -12q-42 -146 -111 -283z" />
<glyph unicode="&#xac;" horiz-adv-x="1315" d="M1104 338v358h-952v62h1026v-420h-74z" />
<glyph unicode="&#xad;" horiz-adv-x="985" />
<glyph unicode="&#xae;" horiz-adv-x="1362" d="M966 1525q131 -77 208 -208.5t77 -286.5t-77 -286t-208 -208t-286 -77t-286 77t-208 208t-77 286t77 286.5t208 208.5t286 77t286 -77zM923.5 592.5q111.5 68.5 176.5 185t65 252.5q0 137 -65 253t-176 184.5t-244 68.5t-244 -68.5t-176 -184.5t-65 -253 q0 -136 65 -252.5t176.5 -185t243.5 -68.5t243.5 68.5zM920 709q-66 0 -99 21t-43 67l-30 149q-8 37 -18.5 54.5t-35.5 26.5t-76 12v-212q0 -32 4 -47t13.5 -20.5t30.5 -7.5v-31q-25 0 -58 1t-71 1q-45 0 -79.5 -1t-56.5 -1v31q21 2 30.5 7.5t13.5 20.5t4 47v449 q0 33 -4 48.5t-13.5 21.5t-30.5 8v30q29 -2 127 -2q68 0 112 1t65 1q130 0 189.5 -41t59.5 -120q0 -56 -47.5 -102.5t-163.5 -64.5q65 -6 102 -20.5t55 -38t26 -61.5l30 -133q6 -26 12 -37.5t19 -11.5q14 0 23 12l16 -21q-30 -36 -106 -36zM782 1210q0 73 -26.5 108.5 t-83.5 35.5q-32 0 -43 -12t-11 -46v-223h25q139 0 139 137z" />
<glyph unicode="&#xaf;" horiz-adv-x="741" d="M27 1407v51h688v-51h-688z" />
<glyph unicode="&#xb0;" horiz-adv-x="637" d="M442 1649q57 -30 91 -86t34 -129q0 -75 -34 -131t-91 -86.5t-125 -30.5q-66 0 -122.5 30.5t-90.5 86.5t-34 131q0 73 34 129t90.5 86t122.5 30q68 0 125 -30zM224 1620q-45 -25 -74 -73.5t-29 -114.5q0 -68 28.5 -116t73.5 -71.5t94 -23.5t95 23.5t75 71.5t29 116 q0 66 -29.5 114.5t-75.5 73.5t-94 25t-93 -25z" />
<glyph unicode="&#xb1;" horiz-adv-x="1223" d="M99 0v62h1026v-62h-1026zM1119 758v-62h-475v-481h-74v481h-477v62h477v483h74v-483h475z" />
<glyph unicode="&#xb2;" horiz-adv-x="719" d="M183 1500q73 46 184 46q101 0 164 -38.5t63 -112.5t-54 -128t-150 -118t-134 -94h276q32 0 49.5 7t27 21t20.5 41l35 -6q-28 -137 -31 -227q-25 6 -78 6h-500v41q24 20 127 98.5t162 156.5t59 165q0 51 -32 78.5t-92 27.5q-116 0 -179 -98l-30 16q40 72 113 118z" />
<glyph unicode="&#xb3;" horiz-adv-x="676" d="M350 1548q103 0 168.5 -39t65.5 -108q0 -71 -64 -122t-176 -73q74 3 137 -19t100 -65t37 -102q0 -94 -83.5 -161t-213.5 -103.5t-272 -42.5v35q110 11 197 48.5t136.5 97.5t49.5 136q0 64 -33.5 107t-91.5 47l-26 -13t-26.5 -12t-21.5 -4q-32 0 -32 25q0 19 23 24.5 t67 3.5q55 26 78.5 68.5t23.5 81.5q0 50 -34.5 81t-94.5 31q-56 0 -102.5 -26.5t-77.5 -75.5l-31 16q90 164 297 164z" />
<glyph unicode="&#xb4;" horiz-adv-x="457" d="M134.5 1440.5q34.5 88.5 53 132.5t48.5 78q17 23 42.5 35.5t52.5 12.5q42 0 72 -26q38 -30 38 -79q0 -45 -31 -83q-32 -40 -95 -85t-120 -87.5t-132 -111.5l-22 18q59 107 93.5 195.5z" />
<glyph unicode="&#xb6;" horiz-adv-x="1499" d="M277 179q-209 206 -209 558q0 209 95 371t274.5 253t424.5 91q76 0 208 -3.5t191 -3.5q91 0 156 5v-39q-61 -3 -92.5 -18.5t-42 -43.5t-10.5 -77v-1426q0 -77 11 -112t42 -48t100 -16v-41q-126 6 -358 6q-223 0 -328 -6v41q87 3 130.5 21.5t60 58.5t16.5 117v106 q-460 0 -669 206zM917 1258q-21 -85 -38.5 -218.5t-20.5 -277.5q-154 0 -292.5 -8.5t-227 -19t-88.5 -15.5q0 -6 86 -16t225.5 -17.5t296.5 -7.5q3 -149 20.5 -282t38.5 -215.5t31 -82.5v1245q-10 0 -31 -85z" />
<glyph unicode="&#xb7;" horiz-adv-x="569" d="M413 690.5q47 -42.5 47 -115.5t-47 -115.5t-128 -42.5q-80 0 -127 42.5t-47 115.5t47 115.5t127 42.5q81 0 128 -42.5z" />
<glyph unicode="&#xb8;" horiz-adv-x="467" d="M317 -109q68 0 105 -30t37 -80q0 -83 -81.5 -124.5t-205.5 -41.5q-110 0 -178 25l10 36q64 -8 90 -8q60 0 105 20.5t45 63.5q0 53 -68 53q-47 0 -82 -14l66 213h55l-43 -137q65 24 145 24z" />
<glyph unicode="&#xb9;" horiz-adv-x="580" d="M446.5 959q30.5 -21 106.5 -21v-43q-90 4 -236 4q-145 0 -243 -4v43q76 0 113.5 21.5t37.5 78.5v265q0 59 -14.5 87t-48 37t-103.5 9v43q127 2 208 16t149 47v-504q0 -58 30.5 -79z" />
<glyph unicode="&#xba;" horiz-adv-x="958" d="M683.5 1436.5q90.5 -42.5 143 -126.5t52.5 -202t-52.5 -202t-143 -126.5t-204.5 -42.5q-113 0 -203.5 42.5t-143 126.5t-52.5 202t52.5 202t143 126.5t203.5 42.5q114 0 204.5 -42.5zM388 1360q-34 -82 -34 -252t34 -252t91 -82q58 0 92.5 82t34.5 252t-34.5 252 t-92.5 82q-57 0 -91 -82z" />
<glyph unicode="&#xbb;" horiz-adv-x="1165" d="M810 781.5q137 -135.5 302 -240.5v-25q-165 -104 -301.5 -240t-261.5 -309l-33 13q49 159 129 310.5t162 235.5q-82 83 -162 237t-129 316l33 11q124 -173 261 -308.5zM382 755q124 -123 273 -214v-25q-150 -92 -274.5 -215t-241.5 -285l-30 13q41 146 110 282.5 t141 214.5q-72 78 -140.5 217t-110.5 287l30 10q119 -162 243 -285z" />
<glyph unicode="&#xbc;" horiz-adv-x="1452" d="M200 -113l-39 27l1198 1774l39 -27zM478.5 959q30.5 -21 106.5 -21v-43q-90 4 -236 4q-145 0 -243 -4v43q76 0 113.5 21.5t37.5 78.5v265q0 59 -14.5 87t-48 37t-103.5 9v43q127 2 208 16t149 47v-504q0 -58 30.5 -79zM1280 31q-24 6 -77 6h-54v-240h-149v240h-400v43 l506 559h43v-483h29q32 0 49.5 7t27 21t19.5 41l35 -6q-23 -74 -29 -188zM1000 472l-286 -316h286v316z" />
<glyph unicode="&#xbd;" horiz-adv-x="1475" d="M167 -113l-39 27l1198 1774l39 -27zM480.5 959q30.5 -21 106.5 -21v-43q-90 4 -236 4q-145 0 -243 -4v43q76 0 113.5 21.5t37.5 78.5v265q0 59 -14.5 87t-48 37t-103.5 9v43q127 2 208 16t149 47v-504q0 -58 30.5 -79zM925 605q73 46 184 46q101 0 164 -38.5t63 -112.5 t-54 -128t-150 -118t-134 -94h276q32 0 49.5 7t27 21t20.5 41l35 -6q-28 -137 -31 -227q-25 6 -78 6h-500v41q24 20 127 98.5t162 156.5t59 165q0 51 -32 78.5t-92 27.5q-116 0 -179 -98l-30 16q40 72 113 118z" />
<glyph unicode="&#xbe;" horiz-adv-x="1540" d="M285 -113l-39 27l1198 1774l39 -27zM393 1548q103 0 168.5 -39t65.5 -108q0 -71 -64 -122t-176 -73q74 3 137 -19t100 -65t37 -102q0 -94 -83.5 -161t-213.5 -103.5t-272 -42.5v35q110 11 197 48.5t136.5 97.5t49.5 136q0 64 -33.5 107t-91.5 47l-26 -13t-26.5 -12 t-21.5 -4q-32 0 -32 25q0 19 23 24.5t67 3.5q55 26 78.5 68.5t23.5 81.5q0 50 -34.5 81t-94.5 31q-56 0 -102.5 -26.5t-77.5 -75.5l-31 16q90 164 297 164zM1374 31q-24 6 -77 6h-54v-240h-149v240h-400v43l506 559h43v-483h29q32 0 49.5 7t27 21t19.5 41l35 -6 q-23 -74 -29 -188zM1094 472l-286 -316h286v316z" />
<glyph unicode="&#xbf;" horiz-adv-x="1030" d="M728 1047.5q47 -42.5 47 -115.5t-47 -115.5t-128 -42.5q-80 0 -127 42.5t-47 115.5t47 115.5t127 42.5q81 0 128 -42.5zM453.5 272.5q-59.5 -59.5 -80.5 -127.5t-21 -155q0 -170 67 -252t183 -82q127 0 178 45q-114 36 -114 149q0 65 45.5 106.5t117.5 41.5 q42 0 74.5 -19.5t51 -51.5t18.5 -70q0 -112 -117 -174q-116 -68 -305 -68q-146 0 -257.5 43.5t-173 124.5t-61.5 192q0 157 141 266t382 156v265h41v-283q-110 -47 -169.5 -106.5z" />
<glyph unicode="&#xc0;" horiz-adv-x="1366" d="M1312 73.5q34 -30.5 68 -32.5v-41q-123 6 -311 6q-210 0 -311 -6v41q77 3 110.5 19t33.5 56q0 31 -25 97l-123 336h-446l-54 -141q-56 -144 -56 -228q0 -76 45 -106t136 -33v-41q-138 6 -254 6q-94 0 -156 -6v41q102 17 176 215l467 1198q33 -3 71 -3q40 0 71 3 l497 -1282q27 -68 61 -98.5zM536 1143l-212 -553h415zM667.5 1627q-59.5 17 -152.5 40.5t-138 48.5q-33 18 -51 45.5t-18 58.5q0 26 12 48q15 29 42.5 45t60.5 16q32 0 62 -16q32 -17 59 -41.5t102 -105.5t171 -160l-14 -25q-76 29 -135.5 46z" />
<glyph unicode="&#xc1;" horiz-adv-x="1366" d="M1312 73.5q34 -30.5 68 -32.5v-41q-123 6 -311 6q-210 0 -311 -6v41q77 3 110.5 19t33.5 56q0 31 -25 97l-123 336h-446l-54 -141q-56 -144 -56 -228q0 -76 45 -106t136 -33v-41q-138 6 -254 6q-94 0 -156 -6v41q102 17 176 215l467 1198q33 -3 71 -3q40 0 71 3 l497 -1282q27 -68 61 -98.5zM536 1143l-212 -553h415zM639.5 1703q44.5 44 110 114.5t112.5 95.5q32 16 63 16q32 0 60 -16t43 -45q12 -22 12 -47q0 -31 -18 -59t-51 -46q-45 -25 -120.5 -44t-143.5 -37t-162 -54l-15 25q65 53 109.5 97z" />
<glyph unicode="&#xc2;" horiz-adv-x="1366" d="M1312 73.5q34 -30.5 68 -32.5v-41q-123 6 -311 6q-210 0 -311 -6v41q77 3 110.5 19t33.5 56q0 31 -25 97l-123 336h-446l-54 -141q-56 -144 -56 -228q0 -76 45 -106t136 -33v-41q-138 6 -254 6q-94 0 -156 -6v41q102 17 176 215l467 1198q33 -3 71 -3q40 0 71 3 l497 -1282q27 -68 61 -98.5zM536 1143l-212 -553h415zM875.5 1747q111.5 -86 242.5 -141l-10 -31q-134 25 -263 61.5t-206 71.5q-64 -35 -170.5 -71.5t-216.5 -61.5l-10 31q131 55 242.5 140.5t177.5 178.5h37q65 -92 176.5 -178z" />
<glyph unicode="&#xc3;" horiz-adv-x="1366" d="M1312 73.5q34 -30.5 68 -32.5v-41q-123 6 -311 6q-210 0 -311 -6v41q77 3 110.5 19t33.5 56q0 31 -25 97l-123 336h-446l-54 -141q-56 -144 -56 -228q0 -76 45 -106t136 -33v-41q-138 6 -254 6q-94 0 -156 -6v41q102 17 176 215l467 1198q33 -3 71 -3q40 0 71 3 l497 -1282q27 -68 61 -98.5zM536 1143l-212 -553h415zM328.5 1822q74.5 70 171.5 70q67 0 118 -19.5t143 -72.5t169 -53q109 0 170 111l29 -11q-27 -135 -101 -204.5t-171 -69.5q-67 0 -117.5 19.5t-143.5 72.5t-172 53q-106 0 -170 -112l-28 10q28 136 102.5 206z" />
<glyph unicode="&#xc4;" horiz-adv-x="1366" d="M1312 73.5q34 -30.5 68 -32.5v-41q-123 6 -311 6q-210 0 -311 -6v41q77 3 110.5 19t33.5 56q0 31 -25 97l-123 336h-446l-54 -141q-56 -144 -56 -228q0 -76 45 -106t136 -33v-41q-138 6 -254 6q-94 0 -156 -6v41q102 17 176 215l467 1198q33 -3 71 -3q40 0 71 3 l497 -1282q27 -68 61 -98.5zM536 1143l-212 -553h415zM510 1856q36 -22 58 -58t22 -76q0 -41 -22 -76t-58 -56t-76 -21q-41 0 -76.5 20.5t-56 56t-20.5 76.5q0 40 21 76t56 58t76 22q40 0 76 -22zM1001.5 1856q35.5 -22 56.5 -58t21 -76q0 -41 -21 -76.5t-56.5 -56 t-75.5 -20.5q-42 0 -78 20.5t-57 56t-21 76.5t21 77t57 57.5t78 21.5q40 0 75.5 -22z" />
<glyph unicode="&#xc5;" horiz-adv-x="1366" d="M1312 73.5q34 -30.5 68 -32.5v-41q-123 6 -311 6q-210 0 -311 -6v41q77 3 110.5 19t33.5 56q0 31 -25 97l-123 336h-446l-54 -141q-56 -144 -56 -228q0 -76 45 -106t136 -33v-41q-138 6 -254 6q-94 0 -156 -6v41q102 17 176 215l467 1198q33 -3 71 -3q40 0 71 3 l497 -1282q27 -68 61 -98.5zM536 1143l-212 -553h415zM791.5 1894.5q51.5 -24.5 82 -69.5t30.5 -105t-30.5 -105.5t-82 -70t-111.5 -24.5q-59 0 -109.5 24.5t-81 70t-30.5 105.5q0 59 30.5 104.5t81 70t109.5 24.5q60 0 111.5 -24.5zM602 1857.5q-38 -18.5 -62 -54.5 t-24 -85t24 -84.5t61.5 -53t78.5 -17.5q42 0 80 17.5t62 53t24 84.5t-24 85t-62.5 54.5t-79.5 18.5q-40 0 -78 -18.5z" />
<glyph unicode="&#xc6;" horiz-adv-x="1821" d="M1714 287q0 -156 15 -287q-136 6 -453 6q-391 0 -590 -6v41q62 4 89.5 16.5t37.5 47.5t10 112v492h-343l-290 -496q-37 -62 -37 -100q0 -36 34.5 -52.5t107.5 -19.5v-41q-61 6 -186 6q-88 0 -138 -6v41q34 2 67 31.5t75 99.5l695 1182q-13 30 -43.5 41t-94.5 14v41 q83 -2 193 -3l79 134h49l-79 -135q144 -2 364 -2q289 0 412 6q-15 -151 -15 -279q0 -89 6 -139h-47q-17 138 -51 219.5t-85.5 116.5t-125.5 35h-67q-68 0 -99.5 -12t-43 -46.5t-11.5 -111.5v-483h108q65 0 101 38.5t47.5 76.5t30.5 126h47q-7 -91 -7 -174l1 -88 q0 -93 12 -262h-47q-12 76 -28 125.5t-53.5 83t-103.5 33.5h-108v-492q0 -77 11.5 -111.5t43 -46.5t99.5 -12h100q112 0 180 94.5t90 317.5h47q-6 -67 -6 -172zM823 1233q0 35 -2 58l-317 -541h319v483z" />
<glyph unicode="&#xc7;" horiz-adv-x="1444" d="M1265.5 92.5q-11.5 28.5 -33.5 28.5q-16 0 -42 -17q-60 -42 -111.5 -70t-118 -45.5t-149.5 -17.5q-217 0 -380.5 88t-253 255.5t-89.5 398.5q0 226 92 400t257 270t376 96q122 0 208.5 -35t168.5 -98q23 -18 40 -18q42 0 52 122h47q-8 -139 -8 -496h-47 q-13 103 -28.5 167.5t-45 113.5t-80.5 90q-51 49 -119 74.5t-141 25.5q-141 0 -232 -97t-133 -256t-42 -351t44 -351t137.5 -254.5t233.5 -95.5q71 0 139 26t115 75q52 40 81.5 92.5t44 121.5t26.5 181h47q0 -371 8 -516h-47q-5 64 -16.5 92.5zM958 -109q73 0 113 -30 t40 -80q0 -83 -91.5 -124.5t-231.5 -41.5q-119 0 -191 25l11 36q72 -8 102 -8q75 0 130.5 20.5t55.5 63.5q0 53 -94 53q-48 0 -80 -14l68 219h55l-45 -143q70 24 158 24z" />
<glyph unicode="&#xc8;" horiz-adv-x="1298" d="M1192 311q0 -188 14 -311q-139 6 -469 6q-446 0 -667 -6v41q68 3 99 16t42.5 48t11.5 112v1016q0 77 -11.5 112t-42.5 48t-99 16v41q221 -6 667 -6q301 0 428 6q-14 -169 -14 -303q0 -91 6 -139h-47q-21 149 -64 235t-109 123t-163 37h-84q-64 0 -92.5 -10.5t-38.5 -40 t-10 -95.5v-507h65q110 0 166 80t78 190h47q-7 -101 -7 -193l1 -98q0 -104 12 -291h-47q-41 271 -250 271h-65v-516q0 -66 10 -95.5t38.5 -40t92.5 -10.5h101q144 0 233.5 100t126.5 336h47q-6 -67 -6 -172zM631.5 1627q-59.5 17 -152.5 40.5t-138 48.5q-33 18 -51 45.5 t-18 58.5q0 26 12 48q15 29 42.5 45t60.5 16q32 0 62 -16q32 -17 59 -41.5t102 -105.5t171 -160l-14 -25q-76 29 -135.5 46z" />
<glyph unicode="&#xc9;" horiz-adv-x="1298" d="M1192 311q0 -188 14 -311q-139 6 -469 6q-446 0 -667 -6v41q68 3 99 16t42.5 48t11.5 112v1016q0 77 -11.5 112t-42.5 48t-99 16v41q221 -6 667 -6q301 0 428 6q-14 -169 -14 -303q0 -91 6 -139h-47q-21 149 -64 235t-109 123t-163 37h-84q-64 0 -92.5 -10.5t-38.5 -40 t-10 -95.5v-507h65q110 0 166 80t78 190h47q-7 -101 -7 -193l1 -98q0 -104 12 -291h-47q-41 271 -250 271h-65v-516q0 -66 10 -95.5t38.5 -40t92.5 -10.5h101q144 0 233.5 100t126.5 336h47q-6 -67 -6 -172zM603.5 1703q44.5 44 110 114.5t112.5 95.5q32 16 63 16 q32 0 60 -16t43 -45q12 -22 12 -47q0 -31 -18 -59t-51 -46q-45 -25 -120.5 -44t-143.5 -37t-162 -54l-15 25q65 53 109.5 97z" />
<glyph unicode="&#xca;" horiz-adv-x="1298" d="M1192 311q0 -188 14 -311q-139 6 -469 6q-446 0 -667 -6v41q68 3 99 16t42.5 48t11.5 112v1016q0 77 -11.5 112t-42.5 48t-99 16v41q221 -6 667 -6q301 0 428 6q-14 -169 -14 -303q0 -91 6 -139h-47q-21 149 -64 235t-109 123t-163 37h-84q-64 0 -92.5 -10.5t-38.5 -40 t-10 -95.5v-507h65q110 0 166 80t78 190h47q-7 -101 -7 -193l1 -98q0 -104 12 -291h-47q-41 271 -250 271h-65v-516q0 -66 10 -95.5t38.5 -40t92.5 -10.5h101q144 0 233.5 100t126.5 336h47q-6 -67 -6 -172zM839.5 1747q111.5 -86 242.5 -141l-10 -31q-134 25 -263 61.5 t-206 71.5q-64 -35 -170.5 -71.5t-216.5 -61.5l-10 31q131 55 242.5 140.5t177.5 178.5h37q65 -92 176.5 -178z" />
<glyph unicode="&#xcb;" horiz-adv-x="1298" d="M1192 311q0 -188 14 -311q-139 6 -469 6q-446 0 -667 -6v41q68 3 99 16t42.5 48t11.5 112v1016q0 77 -11.5 112t-42.5 48t-99 16v41q221 -6 667 -6q301 0 428 6q-14 -169 -14 -303q0 -91 6 -139h-47q-21 149 -64 235t-109 123t-163 37h-84q-64 0 -92.5 -10.5t-38.5 -40 t-10 -95.5v-507h65q110 0 166 80t78 190h47q-7 -101 -7 -193l1 -98q0 -104 12 -291h-47q-41 271 -250 271h-65v-516q0 -66 10 -95.5t38.5 -40t92.5 -10.5h101q144 0 233.5 100t126.5 336h47q-6 -67 -6 -172zM474 1856q36 -22 58 -58t22 -76q0 -41 -22 -76t-58 -56t-76 -21 q-41 0 -76.5 20.5t-56 56t-20.5 76.5q0 40 21 76t56 58t76 22q40 0 76 -22zM965.5 1856q35.5 -22 56.5 -58t21 -76q0 -41 -21 -76.5t-56.5 -56t-75.5 -20.5q-42 0 -78 20.5t-57 56t-21 76.5t21 77t57 57.5t78 21.5q40 0 75.5 -22z" />
<glyph unicode="&#xcc;" horiz-adv-x="770" d="M602 1393q-31 -13 -42 -48t-11 -112v-1016q0 -77 11 -112t42 -48t100 -16v-41q-109 6 -309 6q-219 0 -323 -6v41q68 3 99 16t42.5 48t11.5 112v1016q0 77 -11.5 112t-42.5 48t-99 16v41q103 -6 323 -6q200 0 309 6v-41q-69 -3 -100 -16zM379.5 1627q-59.5 17 -152.5 40.5 t-138 48.5q-33 18 -51 45.5t-18 58.5q0 26 12 48q15 29 42.5 45t60.5 16q32 0 62 -16q32 -17 59 -41.5t102 -105.5t171 -160l-14 -25q-76 29 -135.5 46z" />
<glyph unicode="&#xcd;" horiz-adv-x="770" d="M602 1393q-31 -13 -42 -48t-11 -112v-1016q0 -77 11 -112t42 -48t100 -16v-41q-109 6 -309 6q-219 0 -323 -6v41q68 3 99 16t42.5 48t11.5 112v1016q0 77 -11.5 112t-42.5 48t-99 16v41q103 -6 323 -6q200 0 309 6v-41q-69 -3 -100 -16zM351.5 1703q44.5 44 110 114.5 t112.5 95.5q32 16 63 16q32 0 60 -16t43 -45q12 -22 12 -47q0 -31 -18 -59t-51 -46q-45 -25 -120.5 -44t-143.5 -37t-162 -54l-15 25q65 53 109.5 97z" />
<glyph unicode="&#xce;" horiz-adv-x="770" d="M602 1393q-31 -13 -42 -48t-11 -112v-1016q0 -77 11 -112t42 -48t100 -16v-41q-109 6 -309 6q-219 0 -323 -6v41q68 3 99 16t42.5 48t11.5 112v1016q0 77 -11.5 112t-42.5 48t-99 16v41q103 -6 323 -6q200 0 309 6v-41q-69 -3 -100 -16zM587.5 1747q111.5 -86 242.5 -141 l-10 -31q-134 25 -263 61.5t-206 71.5q-64 -35 -170.5 -71.5t-216.5 -61.5l-10 31q131 55 242.5 140.5t177.5 178.5h37q65 -92 176.5 -178z" />
<glyph unicode="&#xcf;" horiz-adv-x="770" d="M602 1393q-31 -13 -42 -48t-11 -112v-1016q0 -77 11 -112t42 -48t100 -16v-41q-109 6 -309 6q-219 0 -323 -6v41q68 3 99 16t42.5 48t11.5 112v1016q0 77 -11.5 112t-42.5 48t-99 16v41q103 -6 323 -6q200 0 309 6v-41q-69 -3 -100 -16zM222 1856q36 -22 58 -58t22 -76 q0 -41 -22 -76t-58 -56t-76 -21q-41 0 -76.5 20.5t-56 56t-20.5 76.5q0 40 21 76t56 58t76 22q40 0 76 -22zM713.5 1856q35.5 -22 56.5 -58t21 -76q0 -41 -21 -76.5t-56.5 -56t-75.5 -20.5q-42 0 -78 20.5t-57 56t-21 76.5t21 77t57 57.5t78 21.5q40 0 75.5 -22z" />
<glyph unicode="&#xd0;" horiz-adv-x="1589" d="M318 1443l64 1q288 6 321 6q400 0 598.5 -181t198.5 -528q0 -223 -97 -390.5t-281 -259t-437 -91.5q-30 0 -140.5 3t-158.5 3q-211 0 -315 -6v41q68 3 99 16t42.5 48t11.5 112v492h-154v41h154v483q0 77 -11.5 112t-42.5 48t-99 16v41q131 -7 247 -7zM562 102.5 q12 -36.5 44 -51t97 -14.5q169 0 269.5 79.5t144 232t43.5 384.5q0 233 -46.5 382.5t-147.5 223.5t-265 74q-64 0 -95.5 -14.5t-43.5 -51.5t-12 -110v-487h253v-41h-253v-496q0 -74 12 -110.5z" />
<glyph unicode="&#xd1;" horiz-adv-x="1479" d="M1320.5 1374.5q-31.5 -25.5 -43 -78t-11.5 -157.5v-1143q-15 1 -50 1q-36 0 -55 -1l-889 1126v-786q0 -121 13 -177.5t53.5 -82.5t132.5 -35v-41q-79 6 -221 6q-113 0 -178 -6v41q67 9 98.5 34.5t43 78t11.5 157.5v922q0 77 -11.5 112t-42.5 48t-99 16v41q65 -6 178 -6 q103 0 176 6l793 -977v641q0 121 -13 177.5t-53.5 82.5t-132.5 35v41q79 -6 221 -6q114 0 178 6v-41q-67 -9 -98.5 -34.5zM424.5 1822q74.5 70 171.5 70q67 0 118 -19.5t143 -72.5t169 -53q109 0 170 111l29 -11q-27 -135 -101 -204.5t-171 -69.5q-67 0 -117.5 19.5 t-143.5 72.5t-172 53q-106 0 -170 -112l-28 10q28 136 102.5 206z" />
<glyph unicode="&#xd2;" horiz-adv-x="1624" d="M1192.5 1391q163.5 -88 253.5 -255.5t90 -398.5q0 -226 -92.5 -400t-257.5 -270t-375 -96q-217 0 -380.5 88t-253 255.5t-89.5 398.5q0 226 92 400t257 270t376 96q216 0 379.5 -88zM606.5 1350.5q-85.5 -91.5 -132 -255t-46.5 -374.5q0 -213 52 -375t141 -250t198 -88 q113 0 198.5 91.5t132 255t46.5 374.5q0 212 -52 374.5t-141.5 250.5t-197.5 88q-113 0 -198.5 -91.5zM796.5 1627q-59.5 17 -152.5 40.5t-138 48.5q-33 18 -51 45.5t-18 58.5q0 26 12 48q15 29 42.5 45t60.5 16q32 0 62 -16q32 -17 59 -41.5t102 -105.5t171 -160l-14 -25 q-76 29 -135.5 46z" />
<glyph unicode="&#xd3;" horiz-adv-x="1624" d="M1192.5 1391q163.5 -88 253.5 -255.5t90 -398.5q0 -226 -92.5 -400t-257.5 -270t-375 -96q-217 0 -380.5 88t-253 255.5t-89.5 398.5q0 226 92 400t257 270t376 96q216 0 379.5 -88zM606.5 1350.5q-85.5 -91.5 -132 -255t-46.5 -374.5q0 -213 52 -375t141 -250t198 -88 q113 0 198.5 91.5t132 255t46.5 374.5q0 212 -52 374.5t-141.5 250.5t-197.5 88q-113 0 -198.5 -91.5zM768.5 1703q44.5 44 110 114.5t112.5 95.5q32 16 63 16q32 0 60 -16t43 -45q12 -22 12 -47q0 -31 -18 -59t-51 -46q-45 -25 -120.5 -44t-143.5 -37t-162 -54l-15 25 q65 53 109.5 97z" />
<glyph unicode="&#xd4;" horiz-adv-x="1624" d="M1192.5 1391q163.5 -88 253.5 -255.5t90 -398.5q0 -226 -92.5 -400t-257.5 -270t-375 -96q-217 0 -380.5 88t-253 255.5t-89.5 398.5q0 226 92 400t257 270t376 96q216 0 379.5 -88zM606.5 1350.5q-85.5 -91.5 -132 -255t-46.5 -374.5q0 -213 52 -375t141 -250t198 -88 q113 0 198.5 91.5t132 255t46.5 374.5q0 212 -52 374.5t-141.5 250.5t-197.5 88q-113 0 -198.5 -91.5zM1004.5 1747q111.5 -86 242.5 -141l-10 -31q-134 25 -263 61.5t-206 71.5q-64 -35 -170.5 -71.5t-216.5 -61.5l-10 31q131 55 242.5 140.5t177.5 178.5h37 q65 -92 176.5 -178z" />
<glyph unicode="&#xd5;" horiz-adv-x="1624" d="M1192.5 1391q163.5 -88 253.5 -255.5t90 -398.5q0 -226 -92.5 -400t-257.5 -270t-375 -96q-217 0 -380.5 88t-253 255.5t-89.5 398.5q0 226 92 400t257 270t376 96q216 0 379.5 -88zM606.5 1350.5q-85.5 -91.5 -132 -255t-46.5 -374.5q0 -213 52 -375t141 -250t198 -88 q113 0 198.5 91.5t132 255t46.5 374.5q0 212 -52 374.5t-141.5 250.5t-197.5 88q-113 0 -198.5 -91.5zM457.5 1822q74.5 70 171.5 70q67 0 118 -19.5t143 -72.5t169 -53q109 0 170 111l29 -11q-27 -135 -101 -204.5t-171 -69.5q-67 0 -117.5 19.5t-143.5 72.5t-172 53 q-106 0 -170 -112l-28 10q28 136 102.5 206z" />
<glyph unicode="&#xd6;" horiz-adv-x="1624" d="M1192.5 1391q163.5 -88 253.5 -255.5t90 -398.5q0 -226 -92.5 -400t-257.5 -270t-375 -96q-217 0 -380.5 88t-253 255.5t-89.5 398.5q0 226 92 400t257 270t376 96q216 0 379.5 -88zM606.5 1350.5q-85.5 -91.5 -132 -255t-46.5 -374.5q0 -213 52 -375t141 -250t198 -88 q113 0 198.5 91.5t132 255t46.5 374.5q0 212 -52 374.5t-141.5 250.5t-197.5 88q-113 0 -198.5 -91.5zM639 1856q36 -22 58 -58t22 -76q0 -41 -22 -76t-58 -56t-76 -21q-41 0 -76.5 20.5t-56 56t-20.5 76.5q0 40 21 76t56 58t76 22q40 0 76 -22zM1130.5 1856 q35.5 -22 56.5 -58t21 -76q0 -41 -21 -76.5t-56.5 -56t-75.5 -20.5q-42 0 -78 20.5t-57 56t-21 76.5t21 77t57 57.5t78 21.5q40 0 75.5 -22z" />
<glyph unicode="&#xd7;" horiz-adv-x="1010" d="M862 1126l45 -45l-354 -352l354 -354l-45 -45l-354 354l-356 -356l-46 45l357 354l-359 358l46 45l358 -358z" />
<glyph unicode="&#xd8;" horiz-adv-x="1624" d="M1462 1103.5q74 -157.5 74 -366.5q0 -226 -92.5 -400t-257.5 -270t-375 -96q-242 0 -416 109l-170 -242l-43 29l171 242q-128 95 -196.5 249t-68.5 355q0 226 92 400t257 270t376 96q229 0 398 -98l147 214l39 -26l-145 -214q136 -94 210 -251.5zM965 1385.5 q-75 56.5 -160 56.5q-113 0 -198.5 -91.5t-132 -255t-46.5 -374.5q0 -248 71 -429l595 933q-54 104 -129 160.5zM653.5 67q76.5 -59 165.5 -59q113 0 198.5 91.5t132 255t46.5 374.5q0 258 -78 444l-594 -937q53 -110 129.5 -169z" />
<glyph unicode="&#xd9;" horiz-adv-x="1411" d="M1275.5 1374.5q-31.5 -25.5 -43 -78t-11.5 -157.5v-543q0 -293 -84 -434q-56 -91 -160 -141t-256 -50q-236 0 -369 103q-65 52 -99.5 121t-47 161.5t-12.5 233.5v643q0 77 -11.5 112t-43 48t-99.5 16v41q105 -6 319 -6q212 0 326 6v-41q-74 -3 -107.5 -16t-46 -48 t-12.5 -112v-772q0 -144 26 -234.5t87.5 -137t169.5 -46.5q204 0 288.5 138t84.5 392v541q0 119 -14.5 176.5t-55.5 83.5t-129 35v41q77 -6 221 -6q114 0 178 6v-41q-67 -9 -98.5 -34.5zM719.5 1627q-59.5 17 -152.5 40.5t-138 48.5q-33 18 -51 45.5t-18 58.5q0 26 12 48 q15 29 42.5 45t60.5 16q32 0 62 -16q32 -17 59 -41.5t102 -105.5t171 -160l-14 -25q-76 29 -135.5 46z" />
<glyph unicode="&#xda;" horiz-adv-x="1411" d="M1275.5 1374.5q-31.5 -25.5 -43 -78t-11.5 -157.5v-543q0 -293 -84 -434q-56 -91 -160 -141t-256 -50q-236 0 -369 103q-65 52 -99.5 121t-47 161.5t-12.5 233.5v643q0 77 -11.5 112t-43 48t-99.5 16v41q105 -6 319 -6q212 0 326 6v-41q-74 -3 -107.5 -16t-46 -48 t-12.5 -112v-772q0 -144 26 -234.5t87.5 -137t169.5 -46.5q204 0 288.5 138t84.5 392v541q0 119 -14.5 176.5t-55.5 83.5t-129 35v41q77 -6 221 -6q114 0 178 6v-41q-67 -9 -98.5 -34.5zM691.5 1703q44.5 44 110 114.5t112.5 95.5q32 16 63 16q32 0 60 -16t43 -45 q12 -22 12 -47q0 -31 -18 -59t-51 -46q-45 -25 -120.5 -44t-143.5 -37t-162 -54l-15 25q65 53 109.5 97z" />
<glyph unicode="&#xdb;" horiz-adv-x="1411" d="M1275.5 1374.5q-31.5 -25.5 -43 -78t-11.5 -157.5v-543q0 -293 -84 -434q-56 -91 -160 -141t-256 -50q-236 0 -369 103q-65 52 -99.5 121t-47 161.5t-12.5 233.5v643q0 77 -11.5 112t-43 48t-99.5 16v41q105 -6 319 -6q212 0 326 6v-41q-74 -3 -107.5 -16t-46 -48 t-12.5 -112v-772q0 -144 26 -234.5t87.5 -137t169.5 -46.5q204 0 288.5 138t84.5 392v541q0 119 -14.5 176.5t-55.5 83.5t-129 35v41q77 -6 221 -6q114 0 178 6v-41q-67 -9 -98.5 -34.5zM927.5 1747q111.5 -86 242.5 -141l-10 -31q-134 25 -263 61.5t-206 71.5 q-64 -35 -170.5 -71.5t-216.5 -61.5l-10 31q131 55 242.5 140.5t177.5 178.5h37q65 -92 176.5 -178z" />
<glyph unicode="&#xdc;" horiz-adv-x="1411" d="M1275.5 1374.5q-31.5 -25.5 -43 -78t-11.5 -157.5v-543q0 -293 -84 -434q-56 -91 -160 -141t-256 -50q-236 0 -369 103q-65 52 -99.5 121t-47 161.5t-12.5 233.5v643q0 77 -11.5 112t-43 48t-99.5 16v41q105 -6 319 -6q212 0 326 6v-41q-74 -3 -107.5 -16t-46 -48 t-12.5 -112v-772q0 -144 26 -234.5t87.5 -137t169.5 -46.5q204 0 288.5 138t84.5 392v541q0 119 -14.5 176.5t-55.5 83.5t-129 35v41q77 -6 221 -6q114 0 178 6v-41q-67 -9 -98.5 -34.5zM562 1856q36 -22 58 -58t22 -76q0 -41 -22 -76t-58 -56t-76 -21q-41 0 -76.5 20.5 t-56 56t-20.5 76.5q0 40 21 76t56 58t76 22q40 0 76 -22zM1053.5 1856q35.5 -22 56.5 -58t21 -76q0 -41 -21 -76.5t-56.5 -56t-75.5 -20.5q-42 0 -78 20.5t-57 56t-21 76.5t21 77t57 57.5t78 21.5q40 0 75.5 -22z" />
<glyph unicode="&#xdd;" horiz-adv-x="1276" d="M1108 1446q94 0 156 6v-41q-47 -20 -94.5 -75.5t-102.5 -161.5l-242 -479v-478q0 -77 11.5 -112t42.5 -48t100 -16v-41q-111 6 -315 6q-219 0 -318 -6v41q68 3 99.5 16t43 48t11.5 112v346l-396 731q-63 115 -118 115v43q89 -10 241 -10q192 0 385 10v-43 q-72 0 -113.5 -12.5t-41.5 -47.5q0 -21 14 -46l312 -600l159 319q81 162 81 253q0 69 -44 101t-127 35v41q138 -6 256 -6zM636.5 1703q44.5 44 110 114.5t112.5 95.5q32 16 63 16q32 0 60 -16t43 -45q12 -22 12 -47q0 -31 -18 -59t-51 -46q-45 -25 -120.5 -44t-143.5 -37 t-162 -54l-15 25q65 53 109.5 97z" />
<glyph unicode="&#xde;" horiz-adv-x="1272" d="M549 217q0 -77 11 -112t42 -48t100 -16v-41q-109 6 -309 6q-219 0 -323 -6v41q68 3 99 16t42.5 48t11.5 112v1016q0 77 -11.5 112t-42.5 48t-99 16v41q104 -6 323 -6q200 0 309 6v-41q-69 -3 -100 -16t-42 -48t-11 -112v-74l115 2q281 0 424 -101.5t143 -291.5 q0 -128 -56 -232.5t-192.5 -170.5t-364.5 -66h-69v-82zM828 450q63 110 63 300q0 188 -64.5 280t-214.5 92l-63 -1v-781h49q167 0 230 110z" />
<glyph unicode="&#xdf;" horiz-adv-x="1346" d="M300 1470q130 132 378 132q136 0 233 -38.5t147 -107.5t50 -158q0 -98 -62 -183t-161.5 -144t-210.5 -84q192 -28 331 -101t212 -180.5t73 -236.5q0 -123 -62.5 -213.5t-166.5 -137.5t-225 -47q-125 0 -207 51t-82 160q0 74 38.5 119t106.5 45q64 0 104 -39t40 -102 q0 -61 -36.5 -106t-92.5 -66q25 -27 79 -27q61 0 106 40t69 114.5t24 177.5q0 220 -98 347.5t-246 178.5q-43 -26 -72 -26q-17 0 -29 8.5t-12 23.5q0 18 12.5 28.5t34.5 10.5q32 0 68 -16q102 72 142 160.5t40 224.5q0 293 -182 293q-64 0 -102.5 -37.5t-57 -125.5 t-18.5 -243v-1188q-101 26 -256 29q-13 1 -38 1q-52 0 -132 -7v43q73 0 102 36t29 124v866q0 269 130 401z" />
<glyph unicode="&#xe0;" horiz-adv-x="1061" d="M575.5 998q-40.5 49 -126.5 49q-40 0 -80 -12.5t-66 -37.5q57 -19 89 -59.5t32 -101.5q0 -42 -20.5 -75.5t-58.5 -53t-87 -19.5q-66 0 -105.5 45t-39.5 113q0 106 114 172q125 69 312 69q210 0 299 -92q43 -43 58 -107t15 -179v-557q0 -50 9.5 -70.5t33.5 -20.5 q33 0 76 35l21 -35q-47 -39 -102 -57t-132 -18q-104 0 -150 46t-46 120q-50 -83 -131 -124.5t-173 -41.5q-117 0 -187.5 61.5t-70.5 171.5q0 107 70 177t217 124q16 6 104 39.5t127 68.5t39 77v159q0 85 -40.5 134zM573.5 575.5q-29.5 -23.5 -84.5 -57.5 q-65 -45 -102 -101.5t-37 -140.5q0 -80 35 -119.5t92 -39.5q81 0 139 84v420q-13 -22 -42.5 -45.5zM506 1321.5q-49 38.5 -126.5 94t-109.5 95.5t-32 83q0 47 38 79q30 26 70 26q28 0 54 -13t44 -35q24 -28 40 -60.5t56 -135.5t99 -210l-23 -18q-61 56 -110 94.5z" />
<glyph unicode="&#xe1;" horiz-adv-x="1061" d="M575.5 998q-40.5 49 -126.5 49q-40 0 -80 -12.5t-66 -37.5q57 -19 89 -59.5t32 -101.5q0 -42 -20.5 -75.5t-58.5 -53t-87 -19.5q-66 0 -105.5 45t-39.5 113q0 106 114 172q125 69 312 69q210 0 299 -92q43 -43 58 -107t15 -179v-557q0 -50 9.5 -70.5t33.5 -20.5 q33 0 76 35l21 -35q-47 -39 -102 -57t-132 -18q-104 0 -150 46t-46 120q-50 -83 -131 -124.5t-173 -41.5q-117 0 -187.5 61.5t-70.5 171.5q0 107 70 177t217 124q16 6 104 39.5t127 68.5t39 77v159q0 85 -40.5 134zM573.5 575.5q-29.5 -23.5 -84.5 -57.5 q-65 -45 -102 -101.5t-37 -140.5q0 -80 35 -119.5t92 -39.5q81 0 139 84v420q-13 -22 -42.5 -45.5zM486.5 1440.5q34.5 88.5 53 132.5t48.5 78q17 23 42.5 35.5t52.5 12.5q42 0 72 -26q38 -30 38 -79q0 -45 -31 -83q-32 -40 -95 -85t-120 -87.5t-132 -111.5l-22 18 q59 107 93.5 195.5z" />
<glyph unicode="&#xe2;" horiz-adv-x="1061" d="M575.5 998q-40.5 49 -126.5 49q-40 0 -80 -12.5t-66 -37.5q57 -19 89 -59.5t32 -101.5q0 -42 -20.5 -75.5t-58.5 -53t-87 -19.5q-66 0 -105.5 45t-39.5 113q0 106 114 172q125 69 312 69q210 0 299 -92q43 -43 58 -107t15 -179v-557q0 -50 9.5 -70.5t33.5 -20.5 q33 0 76 35l21 -35q-47 -39 -102 -57t-132 -18q-104 0 -150 46t-46 120q-50 -83 -131 -124.5t-173 -41.5q-117 0 -187.5 61.5t-70.5 171.5q0 107 70 177t217 124q16 6 104 39.5t127 68.5t39 77v159q0 85 -40.5 134zM573.5 575.5q-29.5 -23.5 -84.5 -57.5 q-65 -45 -102 -101.5t-37 -140.5q0 -80 35 -119.5t92 -39.5q81 0 139 84v420q-13 -22 -42.5 -45.5zM703.5 1454.5q98.5 -108.5 213.5 -176.5l-17 -29q-117 28 -229 70.5t-180 85.5q-56 -43 -145.5 -85.5t-182.5 -70.5l-16 29q113 67 210 175t156 226h37 q55 -116 153.5 -224.5z" />
<glyph unicode="&#xe3;" horiz-adv-x="1061" d="M575.5 998q-40.5 49 -126.5 49q-40 0 -80 -12.5t-66 -37.5q57 -19 89 -59.5t32 -101.5q0 -42 -20.5 -75.5t-58.5 -53t-87 -19.5q-66 0 -105.5 45t-39.5 113q0 106 114 172q125 69 312 69q210 0 299 -92q43 -43 58 -107t15 -179v-557q0 -50 9.5 -70.5t33.5 -20.5 q33 0 76 35l21 -35q-47 -39 -102 -57t-132 -18q-104 0 -150 46t-46 120q-50 -83 -131 -124.5t-173 -41.5q-117 0 -187.5 61.5t-70.5 171.5q0 107 70 177t217 124q16 6 104 39.5t127 68.5t39 77v159q0 85 -40.5 134zM573.5 575.5q-29.5 -23.5 -84.5 -57.5 q-65 -45 -102 -101.5t-37 -140.5q0 -80 35 -119.5t92 -39.5q81 0 139 84v420q-13 -22 -42.5 -45.5zM211.5 1540q68.5 70 155.5 70q58 0 99.5 -18.5t112.5 -67.5t134 -49q92 0 157 108l29 -14q-32 -145 -100 -215t-154 -70q-59 0 -101 19t-113 68.5t-134 49.5 q-92 0 -158 -110l-28 14q32 145 100.5 215z" />
<glyph unicode="&#xe4;" horiz-adv-x="1061" d="M575.5 998q-40.5 49 -126.5 49q-40 0 -80 -12.5t-66 -37.5q57 -19 89 -59.5t32 -101.5q0 -42 -20.5 -75.5t-58.5 -53t-87 -19.5q-66 0 -105.5 45t-39.5 113q0 106 114 172q125 69 312 69q210 0 299 -92q43 -43 58 -107t15 -179v-557q0 -50 9.5 -70.5t33.5 -20.5 q33 0 76 35l21 -35q-47 -39 -102 -57t-132 -18q-104 0 -150 46t-46 120q-50 -83 -131 -124.5t-173 -41.5q-117 0 -187.5 61.5t-70.5 171.5q0 107 70 177t217 124q16 6 104 39.5t127 68.5t39 77v159q0 85 -40.5 134zM573.5 575.5q-29.5 -23.5 -84.5 -57.5 q-65 -45 -102 -101.5t-37 -140.5q0 -80 35 -119.5t92 -39.5q81 0 139 84v420q-13 -22 -42.5 -45.5zM377 1535q36 -21 58 -56.5t22 -75.5q0 -42 -21.5 -77.5t-57.5 -56t-77 -20.5t-76.5 20.5t-56.5 56t-21 77.5q0 40 21 75.5t56.5 56.5t76.5 21q40 0 76 -21zM843.5 1535 q35.5 -21 56.5 -56.5t21 -75.5q0 -42 -21 -77.5t-56 -56t-76 -20.5q-42 0 -78 20.5t-57 56t-21 77.5q0 40 21 75.5t57 56.5t78 21q40 0 75.5 -21z" />
<glyph unicode="&#xe5;" horiz-adv-x="1061" d="M575.5 998q-40.5 49 -126.5 49q-40 0 -80 -12.5t-66 -37.5q57 -19 89 -59.5t32 -101.5q0 -42 -20.5 -75.5t-58.5 -53t-87 -19.5q-66 0 -105.5 45t-39.5 113q0 106 114 172q125 69 312 69q210 0 299 -92q43 -43 58 -107t15 -179v-557q0 -50 9.5 -70.5t33.5 -20.5 q33 0 76 35l21 -35q-47 -39 -102 -57t-132 -18q-104 0 -150 46t-46 120q-50 -83 -131 -124.5t-173 -41.5q-117 0 -187.5 61.5t-70.5 171.5q0 107 70 177t217 124q16 6 104 39.5t127 68.5t39 77v159q0 85 -40.5 134zM573.5 575.5q-29.5 -23.5 -84.5 -57.5 q-65 -45 -102 -101.5t-37 -140.5q0 -80 35 -119.5t92 -39.5q81 0 139 84v420q-13 -22 -42.5 -45.5zM643.5 1607.5q51.5 -24.5 82 -69.5t30.5 -104q0 -60 -30.5 -106t-82 -70.5t-111.5 -24.5q-59 0 -109.5 24.5t-81 70.5t-30.5 106q0 59 30.5 104t81 69.5t109.5 24.5 q60 0 111.5 -24.5zM454 1570.5q-38 -18.5 -62 -54t-24 -84.5q0 -50 24 -85t61.5 -53t78.5 -18q42 0 80 17.5t62 53t24 85.5q0 49 -24 84.5t-62.5 54t-79.5 18.5q-40 0 -78 -18.5z" />
<glyph unicode="&#xe6;" horiz-adv-x="1505" d="M905 537q0 -136 35 -225.5t90 -131t119 -41.5q150 0 240 164l38 -12q-25 -84 -75.5 -156.5t-128.5 -118t-179 -45.5q-129 0 -226.5 56t-151.5 169q-60 -109 -143 -162.5t-199 -53.5q-76 0 -135 27t-92.5 79t-33.5 125q0 111 70 182t215 125q104 42 149 63t76 51.5 t31 72.5v159q0 84 -42.5 133.5t-127.5 49.5q-37 0 -77 -12.5t-66 -37.5q117 -40 117 -153q0 -42 -21 -75.5t-58.5 -53t-84.5 -19.5q-64 0 -104 43.5t-40 108.5q0 53 31 97t84 75q120 67 279 67q99 0 165 -26t106 -88q120 114 308 114q367 0 367 -454h-532q-3 -30 -3 -96z M1154 939q-30 105 -91 105q-65 0 -108 -90.5t-53 -281.5h280q2 162 -28 267zM604 518q0 40 3 77l-3 26q-26 -43 -100 -97q-72 -52 -111 -109t-39 -136q0 -74 33.5 -111t93.5 -37q51 0 91.5 22t76.5 78l-1 6q-44 118 -44 281z" />
<glyph unicode="&#xe7;" horiz-adv-x="1016" d="M880 137.5q-52 -73.5 -135 -120t-194 -46.5q-137 0 -244.5 60t-170 184t-62.5 309q0 181 65.5 307.5t180 191t262.5 64.5q76 0 143 -16.5t113 -44.5q53 -33 82.5 -82.5t29.5 -109.5q0 -73 -45.5 -118.5t-116.5 -45.5q-72 0 -114.5 41t-42.5 110q0 62 39 107t96 61 q-16 22 -49.5 35.5t-73.5 13.5q-83 0 -141.5 -62.5t-88.5 -172t-30 -250.5q0 -150 38 -242t99 -131t135 -39q70 0 141 36.5t128 129.5l34 -12q-26 -84 -78 -157.5zM638 -109q68 0 105 -30t37 -80q0 -83 -81.5 -124.5t-205.5 -41.5q-110 0 -178 25l10 36q64 -8 90 -8 q60 0 105 20.5t45 63.5q0 53 -68 53q-47 0 -82 -14l66 213h55l-43 -137q65 24 145 24z" />
<glyph unicode="&#xe8;" horiz-adv-x="1032" d="M385 537q0 -136 38 -225.5t98.5 -131t129.5 -41.5q169 0 271 164l36 -12q-26 -84 -80.5 -156.5t-138 -118t-190.5 -45.5q-141 0 -247.5 60t-166 182.5t-59.5 304.5q0 186 64 313.5t177 191.5t261 64q385 0 385 -454h-575q-3 -30 -3 -96zM672.5 938q-35.5 106 -107.5 106 q-73 0 -121.5 -90.5t-59.5 -281.5h321q3 160 -32.5 266zM539 1321.5q-49 38.5 -126.5 94t-109.5 95.5t-32 83q0 47 38 79q30 26 70 26q28 0 54 -13t44 -35q24 -28 40 -60.5t56 -135.5t99 -210l-23 -18q-61 56 -110 94.5z" />
<glyph unicode="&#xe9;" horiz-adv-x="1032" d="M385 537q0 -136 38 -225.5t98.5 -131t129.5 -41.5q169 0 271 164l36 -12q-26 -84 -80.5 -156.5t-138 -118t-190.5 -45.5q-141 0 -247.5 60t-166 182.5t-59.5 304.5q0 186 64 313.5t177 191.5t261 64q385 0 385 -454h-575q-3 -30 -3 -96zM672.5 938q-35.5 106 -107.5 106 q-73 0 -121.5 -90.5t-59.5 -281.5h321q3 160 -32.5 266zM519.5 1440.5q34.5 88.5 53 132.5t48.5 78q17 23 42.5 35.5t52.5 12.5q42 0 72 -26q38 -30 38 -79q0 -45 -31 -83q-32 -40 -95 -85t-120 -87.5t-132 -111.5l-22 18q59 107 93.5 195.5z" />
<glyph unicode="&#xea;" horiz-adv-x="1032" d="M385 537q0 -136 38 -225.5t98.5 -131t129.5 -41.5q169 0 271 164l36 -12q-26 -84 -80.5 -156.5t-138 -118t-190.5 -45.5q-141 0 -247.5 60t-166 182.5t-59.5 304.5q0 186 64 313.5t177 191.5t261 64q385 0 385 -454h-575q-3 -30 -3 -96zM672.5 938q-35.5 106 -107.5 106 q-73 0 -121.5 -90.5t-59.5 -281.5h321q3 160 -32.5 266zM736.5 1454.5q98.5 -108.5 213.5 -176.5l-17 -29q-117 28 -229 70.5t-180 85.5q-56 -43 -145.5 -85.5t-182.5 -70.5l-16 29q113 67 210 175t156 226h37q55 -116 153.5 -224.5z" />
<glyph unicode="&#xeb;" horiz-adv-x="1032" d="M385 537q0 -136 38 -225.5t98.5 -131t129.5 -41.5q169 0 271 164l36 -12q-26 -84 -80.5 -156.5t-138 -118t-190.5 -45.5q-141 0 -247.5 60t-166 182.5t-59.5 304.5q0 186 64 313.5t177 191.5t261 64q385 0 385 -454h-575q-3 -30 -3 -96zM672.5 938q-35.5 106 -107.5 106 q-73 0 -121.5 -90.5t-59.5 -281.5h321q3 160 -32.5 266zM410 1535q36 -21 58 -56.5t22 -75.5q0 -42 -21.5 -77.5t-57.5 -56t-77 -20.5t-76.5 20.5t-56.5 56t-21 77.5q0 40 21 75.5t56.5 56.5t76.5 21q40 0 76 -21zM876.5 1535q35.5 -21 56.5 -56.5t21 -75.5q0 -42 -21 -77.5 t-56 -56t-76 -20.5q-42 0 -78 20.5t-57 56t-21 77.5q0 40 21 75.5t57 56.5t78 21q40 0 75.5 -21z" />
<glyph unicode="&#xec;" horiz-adv-x="645" d="M488 101q13 -32 41 -45t77 -13v-43q-204 8 -272 8q-65 0 -285 -8v43q49 0 77.5 13t41 45t12.5 89v646q0 95 -29 137.5t-102 42.5v43q65 -6 127 -6q181 0 299 28v-891q0 -57 13 -89zM296 1321.5q-49 38.5 -126.5 94t-109.5 95.5t-32 83q0 47 38 79q30 26 70 26 q28 0 54 -13t44 -35q24 -28 40 -60.5t56 -135.5t99 -210l-23 -18q-61 56 -110 94.5z" />
<glyph unicode="&#xed;" horiz-adv-x="645" d="M488 101q13 -32 41 -45t77 -13v-43q-204 8 -272 8q-65 0 -285 -8v43q49 0 77.5 13t41 45t12.5 89v646q0 95 -29 137.5t-102 42.5v43q65 -6 127 -6q181 0 299 28v-891q0 -57 13 -89zM276.5 1440.5q34.5 88.5 53 132.5t48.5 78q17 23 42.5 35.5t52.5 12.5q42 0 72 -26 q38 -30 38 -79q0 -45 -31 -83q-32 -40 -95 -85t-120 -87.5t-132 -111.5l-22 18q59 107 93.5 195.5z" />
<glyph unicode="&#xee;" horiz-adv-x="645" d="M488 101q13 -32 41 -45t77 -13v-43q-204 8 -272 8q-65 0 -285 -8v43q49 0 77.5 13t41 45t12.5 89v646q0 95 -29 137.5t-102 42.5v43q65 -6 127 -6q181 0 299 28v-891q0 -57 13 -89zM493.5 1454.5q98.5 -108.5 213.5 -176.5l-17 -29q-117 28 -229 70.5t-180 85.5 q-56 -43 -145.5 -85.5t-182.5 -70.5l-16 29q113 67 210 175t156 226h37q55 -116 153.5 -224.5z" />
<glyph unicode="&#xef;" horiz-adv-x="645" d="M488 101q13 -32 41 -45t77 -13v-43q-204 8 -272 8q-65 0 -285 -8v43q49 0 77.5 13t41 45t12.5 89v646q0 95 -29 137.5t-102 42.5v43q65 -6 127 -6q181 0 299 28v-891q0 -57 13 -89zM167 1535q36 -21 58 -56.5t22 -75.5q0 -42 -21.5 -77.5t-57.5 -56t-77 -20.5t-76.5 20.5 t-56.5 56t-21 77.5q0 40 21 75.5t56.5 56.5t76.5 21q40 0 76 -21zM633.5 1535q35.5 -21 56.5 -56.5t21 -75.5q0 -42 -21 -77.5t-56 -56t-76 -20.5q-42 0 -78 20.5t-57 56t-21 77.5q0 40 21 75.5t57 56.5t78 21q40 0 75.5 -21z" />
<glyph unicode="&#xf0;" horiz-adv-x="1161" d="M966 1072.5q109 -196.5 109 -449.5q0 -218 -64 -364.5t-176.5 -218t-259.5 -71.5q-231 0 -364 131t-133 408q-1 185 58 315.5t164.5 197t242.5 66.5q112 0 180 -56q-52 191 -168 323l-328 -160l-18 37l317 154q-104 106 -262 182l17 35q193 -66 346 -168l293 143l18 -37 l-273 -132q192 -139 301 -335.5zM716 152q56 142 56 462q0 212 -37 373q-47 53 -131 53q-217 0 -217 -514q0 -176 24 -291.5t65.5 -170t94.5 -54.5q89 0 145 142z" />
<glyph unicode="&#xf1;" horiz-adv-x="1257" d="M811 1087q84 0 137.5 -20t87.5 -59t49 -101t15 -166v-551q0 -57 13 -89t41 -45t77 -13v-43q-204 8 -270 8q-63 0 -267 -8v43q42 0 66 13t34.5 45t10.5 89v637q0 84 -27.5 127t-99.5 43q-56 0 -102.5 -31t-73.5 -85.5t-27 -120.5v-570q0 -57 11 -89t35 -45t65 -13v-43 q-188 8 -254 8q-63 0 -283 -8v43q49 0 77.5 13t41 45t12.5 89v646q0 95 -29 137.5t-102 42.5v43q65 -6 127 -6q181 0 299 28v-184q93 190 336 190zM320.5 1540q68.5 70 155.5 70q58 0 99.5 -18.5t112.5 -67.5t134 -49q92 0 157 108l29 -14q-32 -145 -100 -215t-154 -70 q-59 0 -101 19t-113 68.5t-134 49.5q-92 0 -158 -110l-28 14q32 145 100.5 215z" />
<glyph unicode="&#xf2;" horiz-adv-x="1157" d="M945.5 953q133.5 -134 133.5 -425q0 -290 -133.5 -423.5t-367.5 -133.5t-368 133.5t-134 423.5t134 424.5t368 134.5t367.5 -134zM437.5 919q-52.5 -128 -52.5 -391q0 -262 52.5 -389t140.5 -127q89 0 140.5 126.5t51.5 389.5q0 264 -51.5 391.5t-140.5 127.5 q-88 0 -140.5 -128zM555 1321.5q-49 38.5 -126.5 94t-109.5 95.5t-32 83q0 47 38 79q30 26 70 26q28 0 54 -13t44 -35q24 -28 40 -60.5t56 -135.5t99 -210l-23 -18q-61 56 -110 94.5z" />
<glyph unicode="&#xf3;" horiz-adv-x="1157" d="M945.5 953q133.5 -134 133.5 -425q0 -290 -133.5 -423.5t-367.5 -133.5t-368 133.5t-134 423.5t134 424.5t368 134.5t367.5 -134zM437.5 919q-52.5 -128 -52.5 -391q0 -262 52.5 -389t140.5 -127q89 0 140.5 126.5t51.5 389.5q0 264 -51.5 391.5t-140.5 127.5 q-88 0 -140.5 -128zM535.5 1440.5q34.5 88.5 53 132.5t48.5 78q17 23 42.5 35.5t52.5 12.5q42 0 72 -26q38 -30 38 -79q0 -45 -31 -83q-32 -40 -95 -85t-120 -87.5t-132 -111.5l-22 18q59 107 93.5 195.5z" />
<glyph unicode="&#xf4;" horiz-adv-x="1157" d="M945.5 953q133.5 -134 133.5 -425q0 -290 -133.5 -423.5t-367.5 -133.5t-368 133.5t-134 423.5t134 424.5t368 134.5t367.5 -134zM437.5 919q-52.5 -128 -52.5 -391q0 -262 52.5 -389t140.5 -127q89 0 140.5 126.5t51.5 389.5q0 264 -51.5 391.5t-140.5 127.5 q-88 0 -140.5 -128zM752.5 1454.5q98.5 -108.5 213.5 -176.5l-17 -29q-117 28 -229 70.5t-180 85.5q-56 -43 -145.5 -85.5t-182.5 -70.5l-16 29q113 67 210 175t156 226h37q55 -116 153.5 -224.5z" />
<glyph unicode="&#xf5;" horiz-adv-x="1157" d="M945.5 953q133.5 -134 133.5 -425q0 -290 -133.5 -423.5t-367.5 -133.5t-368 133.5t-134 423.5t134 424.5t368 134.5t367.5 -134zM437.5 919q-52.5 -128 -52.5 -391q0 -262 52.5 -389t140.5 -127q89 0 140.5 126.5t51.5 389.5q0 264 -51.5 391.5t-140.5 127.5 q-88 0 -140.5 -128zM260.5 1540q68.5 70 155.5 70q58 0 99.5 -18.5t112.5 -67.5t134 -49q92 0 157 108l29 -14q-32 -145 -100 -215t-154 -70q-59 0 -101 19t-113 68.5t-134 49.5q-92 0 -158 -110l-28 14q32 145 100.5 215z" />
<glyph unicode="&#xf6;" horiz-adv-x="1157" d="M945.5 953q133.5 -134 133.5 -425q0 -290 -133.5 -423.5t-367.5 -133.5t-368 133.5t-134 423.5t134 424.5t368 134.5t367.5 -134zM437.5 919q-52.5 -128 -52.5 -391q0 -262 52.5 -389t140.5 -127q89 0 140.5 126.5t51.5 389.5q0 264 -51.5 391.5t-140.5 127.5 q-88 0 -140.5 -128zM426 1535q36 -21 58 -56.5t22 -75.5q0 -42 -21.5 -77.5t-57.5 -56t-77 -20.5t-76.5 20.5t-56.5 56t-21 77.5q0 40 21 75.5t56.5 56.5t76.5 21q40 0 76 -21zM892.5 1535q35.5 -21 56.5 -56.5t21 -75.5q0 -42 -21 -77.5t-56 -56t-76 -20.5q-42 0 -78 20.5 t-57 56t-21 77.5q0 40 21 75.5t57 56.5t78 21q40 0 75.5 -21z" />
<glyph unicode="&#xf7;" horiz-adv-x="1296" d="M730.5 1101.5q33.5 -33.5 33.5 -79.5q0 -48 -33.5 -80.5t-81.5 -32.5q-46 0 -79 32.5t-33 80.5q0 46 33 79.5t79 33.5q48 0 81.5 -33.5zM138 696v62h1026v-62h-1026zM730.5 512q33.5 -33 33.5 -80t-33.5 -81t-81.5 -34q-46 0 -79 34t-33 81q0 46 33 79.5t79 33.5 q48 0 81.5 -33z" />
<glyph unicode="&#xf8;" horiz-adv-x="1155" d="M1079 528q0 -290 -133.5 -423.5t-367.5 -133.5q-177 0 -294 73l-134 -194l-41 27l134 197q-167 138 -167 454q0 290 134 424.5t368 134.5q183 0 300 -78l138 199l39 -26l-139 -202q163 -139 163 -452zM578 1047q-88 0 -140.5 -128t-52.5 -391q0 -148 18 -256l337 575 q-47 200 -162 200zM578 12q89 0 140.5 126.5t51.5 389.5q0 142 -16 248l-336 -577q49 -187 160 -187z" />
<glyph unicode="&#xf9;" horiz-adv-x="1241" d="M1098.5 85.5q29.5 -42.5 101.5 -42.5v-43q-64 6 -127 6q-180 0 -299 -29v185q-93 -191 -330 -191q-153 0 -223 80q-34 38 -48.5 101t-14.5 165v519q0 94 -29.5 137t-101.5 43v43q65 -6 127 -6q179 0 299 28v-848q0 -85 25.5 -128.5t96.5 -43.5q54 0 99.5 31.5t72.5 86 t27 120.5v537q0 94 -29.5 137t-101.5 43v43q65 -6 127 -6q179 0 299 28v-858q0 -95 29.5 -137.5zM566 1321.5q-49 38.5 -126.5 94t-109.5 95.5t-32 83q0 47 38 79q30 26 70 26q28 0 54 -13t44 -35q24 -28 40 -60.5t56 -135.5t99 -210l-23 -18q-61 56 -110 94.5z" />
<glyph unicode="&#xfa;" horiz-adv-x="1241" d="M1098.5 85.5q29.5 -42.5 101.5 -42.5v-43q-64 6 -127 6q-180 0 -299 -29v185q-93 -191 -330 -191q-153 0 -223 80q-34 38 -48.5 101t-14.5 165v519q0 94 -29.5 137t-101.5 43v43q65 -6 127 -6q179 0 299 28v-848q0 -85 25.5 -128.5t96.5 -43.5q54 0 99.5 31.5t72.5 86 t27 120.5v537q0 94 -29.5 137t-101.5 43v43q65 -6 127 -6q179 0 299 28v-858q0 -95 29.5 -137.5zM546.5 1440.5q34.5 88.5 53 132.5t48.5 78q17 23 42.5 35.5t52.5 12.5q42 0 72 -26q38 -30 38 -79q0 -45 -31 -83q-32 -40 -95 -85t-120 -87.5t-132 -111.5l-22 18 q59 107 93.5 195.5z" />
<glyph unicode="&#xfb;" horiz-adv-x="1241" d="M1098.5 85.5q29.5 -42.5 101.5 -42.5v-43q-64 6 -127 6q-180 0 -299 -29v185q-93 -191 -330 -191q-153 0 -223 80q-34 38 -48.5 101t-14.5 165v519q0 94 -29.5 137t-101.5 43v43q65 -6 127 -6q179 0 299 28v-848q0 -85 25.5 -128.5t96.5 -43.5q54 0 99.5 31.5t72.5 86 t27 120.5v537q0 94 -29.5 137t-101.5 43v43q65 -6 127 -6q179 0 299 28v-858q0 -95 29.5 -137.5zM763.5 1454.5q98.5 -108.5 213.5 -176.5l-17 -29q-117 28 -229 70.5t-180 85.5q-56 -43 -145.5 -85.5t-182.5 -70.5l-16 29q113 67 210 175t156 226h37q55 -116 153.5 -224.5z " />
<glyph unicode="&#xfc;" horiz-adv-x="1241" d="M1098.5 85.5q29.5 -42.5 101.5 -42.5v-43q-64 6 -127 6q-180 0 -299 -29v185q-93 -191 -330 -191q-153 0 -223 80q-34 38 -48.5 101t-14.5 165v519q0 94 -29.5 137t-101.5 43v43q65 -6 127 -6q179 0 299 28v-848q0 -85 25.5 -128.5t96.5 -43.5q54 0 99.5 31.5t72.5 86 t27 120.5v537q0 94 -29.5 137t-101.5 43v43q65 -6 127 -6q179 0 299 28v-858q0 -95 29.5 -137.5zM437 1535q36 -21 58 -56.5t22 -75.5q0 -42 -21.5 -77.5t-57.5 -56t-77 -20.5t-76.5 20.5t-56.5 56t-21 77.5q0 40 21 75.5t56.5 56.5t76.5 21q40 0 76 -21zM903.5 1535 q35.5 -21 56.5 -56.5t21 -75.5q0 -42 -21 -77.5t-56 -56t-76 -20.5q-42 0 -78 20.5t-57 56t-21 77.5q0 40 21 75.5t57 56.5t78 21q40 0 75.5 -21z" />
<glyph unicode="&#xfd;" horiz-adv-x="1063" d="M893 1053q103 0 158 6v-41q-43 -11 -77.5 -51t-64.5 -125l-366 -1030q-41 -107 -90 -146q-60 -51 -179 -51q-53 0 -104.5 17.5t-85 54.5t-33.5 92q0 63 45 101t119 38q69 0 111.5 -34t42.5 -95q0 -42 -27.5 -78.5t-75.5 -54.5q15 -2 47 -2q128 0 187 162l33 98l-435 987 q-32 71 -63.5 93t-63.5 22v43q135 -12 281 -12q121 0 285 12v-43q-44 0 -69 -3t-42.5 -15t-17.5 -39q0 -24 14 -58l251 -605l140 394q33 98 33 164q0 78 -40 118.5t-112 45.5v41q96 -6 199 -6zM482.5 1440.5q34.5 88.5 53 132.5t48.5 78q17 23 42.5 35.5t52.5 12.5 q42 0 72 -26q38 -30 38 -79q0 -45 -31 -83q-32 -40 -95 -85t-120 -87.5t-132 -111.5l-22 18q59 107 93.5 195.5z" />
<glyph unicode="&#xfe;" horiz-adv-x="1196" d="M559 1036q83 51 193 51q106 0 189 -57.5t130 -172t47 -279.5q0 -197 -58 -333t-164 -205t-251 -69q-134 0 -211 67v-206q0 -90 46 -125t138 -35v-43q-30 1 -135 5t-209 4q-74 0 -154.5 -4t-103.5 -5v43q46 0 72.5 12.5t38.5 42.5t12 85v1544q0 95 -28.5 137.5 t-102.5 42.5v43q65 -6 127 -6q183 0 299 29v-714q42 97 125 148zM565 27q130 0 187 130.5t57 379.5t-45.5 355.5t-130.5 106.5q-70 0 -125.5 -47.5t-73.5 -132.5v-736q45 -56 131 -56z" />
<glyph unicode="&#xff;" horiz-adv-x="1063" d="M893 1053q103 0 158 6v-41q-43 -11 -77.5 -51t-64.5 -125l-366 -1030q-41 -107 -90 -146q-60 -51 -179 -51q-53 0 -104.5 17.5t-85 54.5t-33.5 92q0 63 45 101t119 38q69 0 111.5 -34t42.5 -95q0 -42 -27.5 -78.5t-75.5 -54.5q15 -2 47 -2q128 0 187 162l33 98l-435 987 q-32 71 -63.5 93t-63.5 22v43q135 -12 281 -12q121 0 285 12v-43q-44 0 -69 -3t-42.5 -15t-17.5 -39q0 -24 14 -58l251 -605l140 394q33 98 33 164q0 78 -40 118.5t-112 45.5v41q96 -6 199 -6zM373 1535q36 -21 58 -56.5t22 -75.5q0 -42 -21.5 -77.5t-57.5 -56t-77 -20.5 t-76.5 20.5t-56.5 56t-21 77.5q0 40 21 75.5t56.5 56.5t76.5 21q40 0 76 -21zM839.5 1535q35.5 -21 56.5 -56.5t21 -75.5q0 -42 -21 -77.5t-56 -56t-76 -20.5q-42 0 -78 20.5t-57 56t-21 77.5q0 40 21 75.5t57 56.5t78 21q40 0 75.5 -21z" />
<glyph unicode="&#x100;" horiz-adv-x="1366" d="M1312 73.5q34 -30.5 68 -32.5v-41q-123 6 -311 6q-210 0 -311 -6v41q77 3 110.5 19t33.5 56q0 31 -25 97l-123 336h-446l-54 -141q-56 -144 -56 -228q0 -76 45 -106t136 -33v-41q-138 6 -254 6q-94 0 -156 -6v41q102 17 176 215l467 1198q33 -3 71 -3q40 0 71 3 l497 -1282q27 -68 61 -98.5zM536 1143l-212 -553h415zM270 1677v52h819v-52h-819z" />
<glyph unicode="&#x101;" horiz-adv-x="1061" d="M575.5 998q-40.5 49 -126.5 49q-40 0 -80 -12.5t-66 -37.5q57 -19 89 -59.5t32 -101.5q0 -42 -20.5 -75.5t-58.5 -53t-87 -19.5q-66 0 -105.5 45t-39.5 113q0 106 114 172q125 69 312 69q210 0 299 -92q43 -43 58 -107t15 -179v-557q0 -50 9.5 -70.5t33.5 -20.5 q33 0 76 35l21 -35q-47 -39 -102 -57t-132 -18q-104 0 -150 46t-46 120q-50 -83 -131 -124.5t-173 -41.5q-117 0 -187.5 61.5t-70.5 171.5q0 107 70 177t217 124q16 6 104 39.5t127 68.5t39 77v159q0 85 -40.5 134zM573.5 575.5q-29.5 -23.5 -84.5 -57.5 q-65 -45 -102 -101.5t-37 -140.5q0 -80 35 -119.5t92 -39.5q81 0 139 84v420q-13 -22 -42.5 -45.5zM182 1407v51h688v-51h-688z" />
<glyph unicode="&#x102;" horiz-adv-x="1366" d="M1312 73.5q34 -30.5 68 -32.5v-41q-123 6 -311 6q-210 0 -311 -6v41q77 3 110.5 19t33.5 56q0 31 -25 97l-123 336h-446l-54 -141q-56 -144 -56 -228q0 -76 45 -106t136 -33v-41q-138 6 -254 6q-94 0 -156 -6v41q102 17 176 215l467 1198q33 -3 71 -3q40 0 71 3 l497 -1282q27 -68 61 -98.5zM536 1143l-212 -553h415zM1031.5 1722.5q-61.5 -62.5 -154.5 -103t-210 -40.5t-209.5 40.5t-154 103t-92.5 130.5l24 21q69 -51 176 -87t256 -36q265 0 433 125l24 -23q-31 -68 -92.5 -130.5z" />
<glyph unicode="&#x103;" horiz-adv-x="1061" d="M575.5 998q-40.5 49 -126.5 49q-40 0 -80 -12.5t-66 -37.5q57 -19 89 -59.5t32 -101.5q0 -42 -20.5 -75.5t-58.5 -53t-87 -19.5q-66 0 -105.5 45t-39.5 113q0 106 114 172q125 69 312 69q210 0 299 -92q43 -43 58 -107t15 -179v-557q0 -50 9.5 -70.5t33.5 -20.5 q33 0 76 35l21 -35q-47 -39 -102 -57t-132 -18q-104 0 -150 46t-46 120q-50 -83 -131 -124.5t-173 -41.5q-117 0 -187.5 61.5t-70.5 171.5q0 107 70 177t217 124q16 6 104 39.5t127 68.5t39 77v159q0 85 -40.5 134zM573.5 575.5q-29.5 -23.5 -84.5 -57.5 q-65 -45 -102 -101.5t-37 -140.5q0 -80 35 -119.5t92 -39.5q81 0 139 84v420q-13 -22 -42.5 -45.5zM780.5 1366.5q-96.5 -94.5 -250.5 -94.5t-250.5 94.5t-140.5 228.5l35 19q128 -148 356 -148q226 0 357 148l34 -19q-44 -134 -140.5 -228.5z" />
<glyph unicode="&#x104;" horiz-adv-x="1366" d="M1312 73.5q34 -30.5 68 -32.5v-41q-123 6 -311 6q-210 0 -311 -6v41q77 3 110.5 19t33.5 56q0 31 -25 97l-123 336h-446l-54 -141q-56 -144 -56 -228q0 -76 45 -106t136 -33v-41q-138 6 -254 6q-94 0 -156 -6v41q102 17 176 215l467 1198q33 -3 71 -3q40 0 71 3 l497 -1282q27 -68 61 -98.5zM536 1143l-212 -553h415zM1185.5 -82.5q-54.5 -53.5 -54.5 -105.5q0 -84 86 -84q35 0 71.5 15.5t59.5 39.5l27 -29q-54 -73 -121 -106t-160 -33q-88 0 -137 37.5t-49 103.5q0 84 96.5 148.5t272.5 101.5h77q-114 -35 -168.5 -88.5z" />
<glyph unicode="&#x105;" horiz-adv-x="1061" d="M575.5 998q-40.5 49 -126.5 49q-40 0 -80 -12.5t-66 -37.5q57 -19 89 -59.5t32 -101.5q0 -42 -20.5 -75.5t-58.5 -53t-87 -19.5q-66 0 -105.5 45t-39.5 113q0 106 114 172q125 69 312 69q210 0 299 -92q43 -43 58 -107t15 -179v-557q0 -50 9.5 -70.5t33.5 -20.5 q33 0 76 35l21 -35q-47 -39 -102 -57t-132 -18q-104 0 -150 46t-46 120q-50 -83 -131 -124.5t-173 -41.5q-117 0 -187.5 61.5t-70.5 171.5q0 107 70 177t217 124q16 6 104 39.5t127 68.5t39 77v159q0 85 -40.5 134zM573.5 575.5q-29.5 -23.5 -84.5 -57.5 q-65 -45 -102 -101.5t-37 -140.5q0 -80 35 -119.5t92 -39.5q81 0 139 84v420q-13 -22 -42.5 -45.5zM933 -6q-82 -38 -118 -86t-36 -96q0 -84 84 -84q35 0 72.5 16t58.5 39l29 -29q-55 -73 -122.5 -106t-158.5 -33q-89 0 -137.5 37t-48.5 104q0 84 86.5 148.5t245.5 101.5 l84 12q-10 -12 -39 -24z" />
<glyph unicode="&#x106;" horiz-adv-x="1444" d="M1265.5 92.5q-11.5 28.5 -33.5 28.5q-16 0 -42 -17q-60 -42 -111.5 -70t-118 -45.5t-149.5 -17.5q-217 0 -380.5 88t-253 255.5t-89.5 398.5q0 226 92 400t257 270t376 96q122 0 208.5 -35t168.5 -98q23 -18 40 -18q42 0 52 122h47q-8 -139 -8 -496h-47 q-13 103 -28.5 167.5t-45 113.5t-80.5 90q-51 49 -119 74.5t-141 25.5q-141 0 -232 -97t-133 -256t-42 -351t44 -351t137.5 -254.5t233.5 -95.5q71 0 139 26t115 75q52 40 81.5 92.5t44 121.5t26.5 181h47q0 -371 8 -516h-47q-5 64 -16.5 92.5zM735.5 1703 q44.5 44 110 114.5t112.5 95.5q32 16 63 16q32 0 60 -16t43 -45q12 -22 12 -47q0 -31 -18 -59t-51 -46q-45 -25 -120.5 -44t-143.5 -37t-162 -54l-15 25q65 53 109.5 97z" />
<glyph unicode="&#x107;" horiz-adv-x="1016" d="M880 137.5q-52 -73.5 -135 -120t-194 -46.5q-137 0 -244.5 60t-170 184t-62.5 309q0 181 65.5 307.5t180 191t262.5 64.5q76 0 143 -16.5t113 -44.5q53 -33 82.5 -82.5t29.5 -109.5q0 -73 -45.5 -118.5t-116.5 -45.5q-72 0 -114.5 41t-42.5 110q0 62 39 107t96 61 q-16 22 -49.5 35.5t-73.5 13.5q-83 0 -141.5 -62.5t-88.5 -172t-30 -250.5q0 -150 38 -242t99 -131t135 -39q70 0 141 36.5t128 129.5l34 -12q-26 -84 -78 -157.5zM502.5 1440.5q34.5 88.5 53 132.5t48.5 78q17 23 42.5 35.5t52.5 12.5q42 0 72 -26q38 -30 38 -79 q0 -45 -31 -83q-32 -40 -95 -85t-120 -87.5t-132 -111.5l-22 18q59 107 93.5 195.5z" />
<glyph unicode="&#x108;" horiz-adv-x="1444" d="M1265.5 92.5q-11.5 28.5 -33.5 28.5q-16 0 -42 -17q-60 -42 -111.5 -70t-118 -45.5t-149.5 -17.5q-217 0 -380.5 88t-253 255.5t-89.5 398.5q0 226 92 400t257 270t376 96q122 0 208.5 -35t168.5 -98q23 -18 40 -18q42 0 52 122h47q-8 -139 -8 -496h-47 q-13 103 -28.5 167.5t-45 113.5t-80.5 90q-51 49 -119 74.5t-141 25.5q-141 0 -232 -97t-133 -256t-42 -351t44 -351t137.5 -254.5t233.5 -95.5q71 0 139 26t115 75q52 40 81.5 92.5t44 121.5t26.5 181h47q0 -371 8 -516h-47q-5 64 -16.5 92.5zM971.5 1747 q111.5 -86 242.5 -141l-10 -31q-134 25 -263 61.5t-206 71.5q-64 -35 -170.5 -71.5t-216.5 -61.5l-10 31q131 55 242.5 140.5t177.5 178.5h37q65 -92 176.5 -178z" />
<glyph unicode="&#x109;" horiz-adv-x="1016" d="M880 137.5q-52 -73.5 -135 -120t-194 -46.5q-137 0 -244.5 60t-170 184t-62.5 309q0 181 65.5 307.5t180 191t262.5 64.5q76 0 143 -16.5t113 -44.5q53 -33 82.5 -82.5t29.5 -109.5q0 -73 -45.5 -118.5t-116.5 -45.5q-72 0 -114.5 41t-42.5 110q0 62 39 107t96 61 q-16 22 -49.5 35.5t-73.5 13.5q-83 0 -141.5 -62.5t-88.5 -172t-30 -250.5q0 -150 38 -242t99 -131t135 -39q70 0 141 36.5t128 129.5l34 -12q-26 -84 -78 -157.5zM719.5 1454.5q98.5 -108.5 213.5 -176.5l-17 -29q-117 28 -229 70.5t-180 85.5q-56 -43 -145.5 -85.5 t-182.5 -70.5l-16 29q113 67 210 175t156 226h37q55 -116 153.5 -224.5z" />
<glyph unicode="&#x10a;" horiz-adv-x="1444" d="M1265.5 92.5q-11.5 28.5 -33.5 28.5q-16 0 -42 -17q-60 -42 -111.5 -70t-118 -45.5t-149.5 -17.5q-217 0 -380.5 88t-253 255.5t-89.5 398.5q0 226 92 400t257 270t376 96q122 0 208.5 -35t168.5 -98q23 -18 40 -18q42 0 52 122h47q-8 -139 -8 -496h-47 q-13 103 -28.5 167.5t-45 113.5t-80.5 90q-51 49 -119 74.5t-141 25.5q-141 0 -232 -97t-133 -256t-42 -351t44 -351t137.5 -254.5t233.5 -95.5q71 0 139 26t115 75q52 40 81.5 92.5t44 121.5t26.5 181h47q0 -371 8 -516h-47q-5 64 -16.5 92.5zM916 1840q47 -42 47 -116 q0 -73 -47 -115t-127 -42q-82 0 -128 41.5t-46 115.5t46 116t128 42q80 0 127 -42z" />
<glyph unicode="&#x10b;" horiz-adv-x="1016" d="M880 137.5q-52 -73.5 -135 -120t-194 -46.5q-137 0 -244.5 60t-170 184t-62.5 309q0 181 65.5 307.5t180 191t262.5 64.5q76 0 143 -16.5t113 -44.5q53 -33 82.5 -82.5t29.5 -109.5q0 -73 -45.5 -118.5t-116.5 -45.5q-72 0 -114.5 41t-42.5 110q0 62 39 107t96 61 q-16 22 -49.5 35.5t-73.5 13.5q-83 0 -141.5 -62.5t-88.5 -172t-30 -250.5q0 -150 38 -242t99 -131t135 -39q70 0 141 36.5t128 129.5l34 -12q-26 -84 -78 -157.5zM695.5 1545q50.5 -42 50.5 -115q0 -74 -50.5 -116t-135.5 -42q-87 0 -137 42t-50 116q0 73 50 115t137 42 q85 0 135.5 -42z" />
<glyph unicode="&#x10c;" horiz-adv-x="1444" d="M1265.5 92.5q-11.5 28.5 -33.5 28.5q-16 0 -42 -17q-60 -42 -111.5 -70t-118 -45.5t-149.5 -17.5q-217 0 -380.5 88t-253 255.5t-89.5 398.5q0 226 92 400t257 270t376 96q122 0 208.5 -35t168.5 -98q23 -18 40 -18q42 0 52 122h47q-8 -139 -8 -496h-47 q-13 103 -28.5 167.5t-45 113.5t-80.5 90q-51 49 -119 74.5t-141 25.5q-141 0 -232 -97t-133 -256t-42 -351t44 -351t137.5 -254.5t233.5 -95.5q71 0 139 26t115 75q52 40 81.5 92.5t44 121.5t26.5 181h47q0 -371 8 -516h-47q-5 64 -16.5 92.5zM967 1751q-111 -86 -178 -180 h-37q-64 93 -175.5 178.5t-244.5 140.5l10 31q134 -23 263.5 -60t205.5 -73q64 36 170.5 73t216.5 60l10 -31q-130 -53 -241 -139z" />
<glyph unicode="&#x10d;" horiz-adv-x="1016" d="M880 137.5q-52 -73.5 -135 -120t-194 -46.5q-137 0 -244.5 60t-170 184t-62.5 309q0 181 65.5 307.5t180 191t262.5 64.5q76 0 143 -16.5t113 -44.5q53 -33 82.5 -82.5t29.5 -109.5q0 -73 -45.5 -118.5t-116.5 -45.5q-72 0 -114.5 41t-42.5 110q0 62 39 107t96 61 q-16 22 -49.5 35.5t-73.5 13.5q-83 0 -141.5 -62.5t-88.5 -172t-30 -250.5q0 -150 38 -242t99 -131t135 -39q70 0 141 36.5t128 129.5l34 -12q-26 -84 -78 -157.5zM702 1476q-97 -108 -156 -227h-37q-54 116 -152.5 225t-213.5 177l16 28q118 -28 230 -70t180 -85 q55 43 144 85t183 70l17 -28q-114 -67 -211 -175z" />
<glyph unicode="&#x10e;" horiz-adv-x="1589" d="M317 1443l64 1q288 6 321 6q400 0 598.5 -181t198.5 -528q0 -223 -97 -390.5t-281 -259t-437 -91.5q-30 0 -140.5 3t-158.5 3q-211 0 -315 -6v41q68 3 99 16t42.5 48t11.5 112v1016q0 77 -11.5 112t-42.5 48t-99 16v41q131 -7 247 -7zM561 102.5q12 -36.5 44 -51 t97 -14.5q169 0 269.5 79.5t144 232t43.5 384.5q0 233 -46.5 382.5t-147.5 223.5t-265 74q-64 0 -95.5 -14.5t-43.5 -51.5t-12 -110v-1024q0 -74 12 -110.5zM893 1751q-111 -86 -178 -180h-37q-64 93 -175.5 178.5t-244.5 140.5l10 31q134 -23 263.5 -60t205.5 -73 q64 36 170.5 73t216.5 60l10 -31q-130 -53 -241 -139z" />
<glyph unicode="&#x10f;" horiz-adv-x="1225" d="M1085.5 87.5q28.5 -42.5 102.5 -42.5v-43q-65 6 -127 6q-181 0 -299 -28v176q-69 -185 -266 -185q-125 0 -219.5 60.5t-147 187t-51.5 316.5q-1 180 57.5 304t162 186t237.5 62q151 0 227 -77v348q0 95 -29.5 137.5t-101.5 42.5v43q65 -6 127 -6q180 0 299 29v-1379 q0 -95 28.5 -137.5zM612 1028q-108 0 -167 -125t-58 -373q-3 -471 193 -471q44 0 83 22t65.5 63.5t33.5 96.5v717q-52 70 -150 70zM1202 1582q80 0 170 24q4 -10 7 -37t3 -47q0 -38 -23 -88.5t-61.5 -110t-114.5 -170.5l-28 8q41 237 41 297q0 43 -8.5 62.5t-32.5 19.5v43 q17 -1 47 -1z" />
<glyph unicode="&#x110;" horiz-adv-x="1589" d="M318 1443l64 1q288 6 321 6q400 0 598.5 -181t198.5 -528q0 -223 -97 -390.5t-281 -259t-437 -91.5q-30 0 -140.5 3t-158.5 3q-211 0 -315 -6v41q68 3 99 16t42.5 48t11.5 112v492h-154v41h154v483q0 77 -11.5 112t-42.5 48t-99 16v41q131 -7 247 -7zM562 102.5 q12 -36.5 44 -51t97 -14.5q169 0 269.5 79.5t144 232t43.5 384.5q0 233 -46.5 382.5t-147.5 223.5t-265 74q-64 0 -95.5 -14.5t-43.5 -51.5t-12 -110v-487h253v-41h-253v-496q0 -74 12 -110.5z" />
<glyph unicode="&#x111;" horiz-adv-x="1225" d="M1057 225q0 -95 28.5 -137.5t102.5 -42.5v-43q-64 6 -127 6q-181 0 -299 -28v176q-68 -185 -266 -185q-125 0 -219.5 60.5t-147 187t-51.5 316.5q-1 180 57.5 304t162 186t237.5 62q151 0 227 -77v235h-340v41h340v72q0 95 -29.5 137.5t-101.5 42.5v43q65 -6 127 -6 q180 0 299 29v-318h151v-41h-151v-1020zM612 1028q-108 0 -167 -125t-58 -373q-3 -471 193 -471q43 0 82 22t66 63.5t34 96.5v717q-51 70 -150 70z" />
<glyph unicode="&#x112;" horiz-adv-x="1298" d="M1192 311q0 -188 14 -311q-139 6 -469 6q-446 0 -667 -6v41q68 3 99 16t42.5 48t11.5 112v1016q0 77 -11.5 112t-42.5 48t-99 16v41q221 -6 667 -6q301 0 428 6q-14 -169 -14 -303q0 -91 6 -139h-47q-21 149 -64 235t-109 123t-163 37h-84q-64 0 -92.5 -10.5t-38.5 -40 t-10 -95.5v-507h65q110 0 166 80t78 190h47q-7 -101 -7 -193l1 -98q0 -104 12 -291h-47q-41 271 -250 271h-65v-516q0 -66 10 -95.5t38.5 -40t92.5 -10.5h101q144 0 233.5 100t126.5 336h47q-6 -67 -6 -172zM234 1677v52h819v-52h-819z" />
<glyph unicode="&#x113;" horiz-adv-x="1032" d="M385 537q0 -136 38 -225.5t98.5 -131t129.5 -41.5q169 0 271 164l36 -12q-26 -84 -80.5 -156.5t-138 -118t-190.5 -45.5q-141 0 -247.5 60t-166 182.5t-59.5 304.5q0 186 64 313.5t177 191.5t261 64q385 0 385 -454h-575q-3 -30 -3 -96zM672.5 938q-35.5 106 -107.5 106 q-73 0 -121.5 -90.5t-59.5 -281.5h321q3 160 -32.5 266zM215 1407v51h688v-51h-688z" />
<glyph unicode="&#x114;" horiz-adv-x="1298" d="M1192 311q0 -188 14 -311q-139 6 -469 6q-446 0 -667 -6v41q68 3 99 16t42.5 48t11.5 112v1016q0 77 -11.5 112t-42.5 48t-99 16v41q221 -6 667 -6q301 0 428 6q-14 -169 -14 -303q0 -91 6 -139h-47q-21 149 -64 235t-109 123t-163 37h-84q-64 0 -92.5 -10.5t-38.5 -40 t-10 -95.5v-507h65q110 0 166 80t78 190h47q-7 -101 -7 -193l1 -98q0 -104 12 -291h-47q-41 271 -250 271h-65v-516q0 -66 10 -95.5t38.5 -40t92.5 -10.5h101q144 0 233.5 100t126.5 336h47q-6 -67 -6 -172zM995.5 1722.5q-61.5 -62.5 -154.5 -103t-210 -40.5t-209.5 40.5 t-154 103t-92.5 130.5l24 21q69 -51 176 -87t256 -36q265 0 433 125l24 -23q-31 -68 -92.5 -130.5z" />
<glyph unicode="&#x115;" horiz-adv-x="1032" d="M385 537q0 -136 38 -225.5t98.5 -131t129.5 -41.5q169 0 271 164l36 -12q-26 -84 -80.5 -156.5t-138 -118t-190.5 -45.5q-141 0 -247.5 60t-166 182.5t-59.5 304.5q0 186 64 313.5t177 191.5t261 64q385 0 385 -454h-575q-3 -30 -3 -96zM672.5 938q-35.5 106 -107.5 106 q-73 0 -121.5 -90.5t-59.5 -281.5h321q3 160 -32.5 266zM813.5 1366.5q-96.5 -94.5 -250.5 -94.5t-250.5 94.5t-140.5 228.5l35 19q128 -148 356 -148q226 0 357 148l34 -19q-44 -134 -140.5 -228.5z" />
<glyph unicode="&#x116;" horiz-adv-x="1298" d="M1192 311q0 -188 14 -311q-139 6 -469 6q-446 0 -667 -6v41q68 3 99 16t42.5 48t11.5 112v1016q0 77 -11.5 112t-42.5 48t-99 16v41q221 -6 667 -6q301 0 428 6q-14 -169 -14 -303q0 -91 6 -139h-47q-21 149 -64 235t-109 123t-163 37h-84q-64 0 -92.5 -10.5t-38.5 -40 t-10 -95.5v-507h65q110 0 166 80t78 190h47q-7 -101 -7 -193l1 -98q0 -104 12 -291h-47q-41 271 -250 271h-65v-516q0 -66 10 -95.5t38.5 -40t92.5 -10.5h101q144 0 233.5 100t126.5 336h47q-6 -67 -6 -172zM784 1840q47 -42 47 -116q0 -73 -47 -115t-127 -42 q-82 0 -128 41.5t-46 115.5t46 116t128 42q80 0 127 -42z" />
<glyph unicode="&#x117;" horiz-adv-x="1032" d="M385 537q0 -136 38 -225.5t98.5 -131t129.5 -41.5q169 0 271 164l36 -12q-26 -84 -80.5 -156.5t-138 -118t-190.5 -45.5q-141 0 -247.5 60t-166 182.5t-59.5 304.5q0 186 64 313.5t177 191.5t261 64q385 0 385 -454h-575q-3 -30 -3 -96zM672.5 938q-35.5 106 -107.5 106 q-73 0 -121.5 -90.5t-59.5 -281.5h321q3 160 -32.5 266zM700.5 1545q50.5 -42 50.5 -115q0 -74 -50.5 -116t-135.5 -42q-87 0 -137 42t-50 116q0 73 50 115t137 42q85 0 135.5 -42z" />
<glyph unicode="&#x118;" horiz-adv-x="1298" d="M1192 311q0 -188 14 -311q-139 6 -469 6q-446 0 -667 -6v41q68 3 99 16t42.5 48t11.5 112v1016q0 77 -11.5 112t-42.5 48t-99 16v41q221 -6 667 -6q301 0 428 6q-14 -169 -14 -303q0 -91 6 -139h-47q-21 149 -64 235t-109 123t-163 37h-84q-64 0 -92.5 -10.5t-38.5 -40 t-10 -95.5v-507h65q110 0 166 80t78 190h47q-7 -101 -7 -193l1 -98q0 -104 12 -291h-47q-41 271 -250 271h-65v-516q0 -66 10 -95.5t38.5 -40t92.5 -10.5h101q144 0 233.5 100t126.5 336h47q-6 -67 -6 -172zM1030.5 -82.5q-54.5 -53.5 -54.5 -105.5q0 -84 86 -84 q35 0 71.5 15.5t59.5 39.5l27 -29q-54 -73 -121 -106t-160 -33q-88 0 -137 37.5t-49 103.5q0 84 96.5 148.5t272.5 101.5h77q-114 -35 -168.5 -88.5z" />
<glyph unicode="&#x119;" horiz-adv-x="1032" d="M385 537q0 -136 38 -225.5t98.5 -131t129.5 -41.5q169 0 271 164l36 -12q-26 -84 -80.5 -156.5t-138 -118t-190.5 -45.5q-141 0 -247.5 60t-166 182.5t-59.5 304.5q0 186 64 313.5t177 191.5t261 64q385 0 385 -454h-575q-3 -30 -3 -96zM672.5 938q-35.5 106 -107.5 106 q-73 0 -121.5 -90.5t-59.5 -281.5h321q3 160 -32.5 266zM692 -6q-82 -38 -118 -86t-36 -96q0 -84 84 -84q35 0 72.5 16t58.5 39l29 -29q-55 -73 -122.5 -106t-158.5 -33q-89 0 -137.5 37t-48.5 104q0 84 86.5 148.5t245.5 101.5l84 12q-10 -12 -39 -24z" />
<glyph unicode="&#x11a;" horiz-adv-x="1298" d="M1192 311q0 -188 14 -311q-139 6 -469 6q-446 0 -667 -6v41q68 3 99 16t42.5 48t11.5 112v1016q0 77 -11.5 112t-42.5 48t-99 16v41q221 -6 667 -6q301 0 428 6q-14 -169 -14 -303q0 -91 6 -139h-47q-21 149 -64 235t-109 123t-163 37h-84q-64 0 -92.5 -10.5t-38.5 -40 t-10 -95.5v-507h65q110 0 166 80t78 190h47q-7 -101 -7 -193l1 -98q0 -104 12 -291h-47q-41 271 -250 271h-65v-516q0 -66 10 -95.5t38.5 -40t92.5 -10.5h101q144 0 233.5 100t126.5 336h47q-6 -67 -6 -172zM835 1751q-111 -86 -178 -180h-37q-64 93 -175.5 178.5 t-244.5 140.5l10 31q134 -23 263.5 -60t205.5 -73q64 36 170.5 73t216.5 60l10 -31q-130 -53 -241 -139z" />
<glyph unicode="&#x11b;" horiz-adv-x="1032" d="M385 537q0 -136 38 -225.5t98.5 -131t129.5 -41.5q169 0 271 164l36 -12q-26 -84 -80.5 -156.5t-138 -118t-190.5 -45.5q-141 0 -247.5 60t-166 182.5t-59.5 304.5q0 186 64 313.5t177 191.5t261 64q385 0 385 -454h-575q-3 -30 -3 -96zM672.5 938q-35.5 106 -107.5 106 q-73 0 -121.5 -90.5t-59.5 -281.5h321q3 160 -32.5 266zM719 1476q-97 -108 -156 -227h-37q-54 116 -152.5 225t-213.5 177l16 28q118 -28 230 -70t180 -85q55 43 144 85t183 70l17 -28q-114 -67 -211 -175z" />
<glyph unicode="&#x11c;" horiz-adv-x="1505" d="M1308 80q-15 37 -42 37q-34 0 -111 -43q-178 -103 -336 -103q-236 0 -400 87.5t-247.5 253t-83.5 397.5q0 229 94.5 403.5t263 270.5t383.5 96q126 0 213.5 -34.5t171.5 -98.5q25 -19 41 -19q21 0 33 29t19 94h47q-8 -139 -8 -496h-48q-15 138 -47 224.5t-106 146.5 q-49 47 -121 73.5t-147 26.5q-143 0 -238 -97.5t-140.5 -257.5t-45.5 -349q0 -709 393 -709q89 0 145 41q27 18 38 43t11 64v200q0 96 -16 140.5t-57.5 61t-132.5 20.5v41q118 -7 350 -7q189 0 274 7v-41q-42 -4 -60 -16.5t-25 -47t-7 -112.5v-406h-41q-2 43 -17 80z M986.5 1747q111.5 -86 242.5 -141l-10 -31q-134 25 -263 61.5t-206 71.5q-64 -35 -170.5 -71.5t-216.5 -61.5l-10 31q131 55 242.5 140.5t177.5 178.5h37q65 -92 176.5 -178z" />
<glyph unicode="&#x11d;" horiz-adv-x="1102" d="M520 1405q-58 -43 -146.5 -86t-180.5 -70l-17 29q114 67 211 175t156 226h37q38 -103 98.5 -198t134.5 -164l-20 -29q-168 49 -273 117zM1001 210q76 -52 76 -171q0 -105 -66.5 -202.5t-199.5 -159.5t-324 -62q-146 0 -245 23.5t-147 63t-48 87.5q0 57 41.5 84t136 57 t134.5 58h-50q-50 0 -101.5 15.5t-89.5 58t-38 116.5q0 59 24 106.5t77.5 90.5t146.5 90q-110 34 -171 108.5t-61 188.5q0 109 56.5 182t155.5 108t229 35q132 0 229 -36q3 33 12 63q10 82 59 135.5t128 53.5q58 0 96.5 -30.5t38.5 -84.5q0 -48 -37.5 -80.5t-93.5 -32.5 q-54 0 -88 27t-45 69q-24 -28 -33 -92q-3 -21 -3 -41q177 -82 177 -276q0 -109 -56.5 -182t-155.5 -108.5t-228 -35.5q-93 0 -171 18q-56 -37 -80 -62.5t-24 -61.5q0 -38 22.5 -53t67.5 -15h449q124 0 200 -52zM434 985q-35 -66 -35 -223t35 -223t103 -66q67 0 102 66 t35 223t-35 223t-102 66q-68 0 -103 -66zM344.5 -90q-18.5 -46 -18.5 -86q0 -82 60 -128t155 -46q85 0 157.5 31.5t116 90t43.5 134.5q0 42 -27 62t-92 20h-341q-35 -32 -53.5 -78z" />
<glyph unicode="&#x11e;" horiz-adv-x="1505" d="M1308 80q-15 37 -42 37q-34 0 -111 -43q-178 -103 -336 -103q-236 0 -400 87.5t-247.5 253t-83.5 397.5q0 229 94.5 403.5t263 270.5t383.5 96q126 0 213.5 -34.5t171.5 -98.5q25 -19 41 -19q21 0 33 29t19 94h47q-8 -139 -8 -496h-48q-15 138 -47 224.5t-106 146.5 q-49 47 -121 73.5t-147 26.5q-143 0 -238 -97.5t-140.5 -257.5t-45.5 -349q0 -709 393 -709q89 0 145 41q27 18 38 43t11 64v200q0 96 -16 140.5t-57.5 61t-132.5 20.5v41q118 -7 350 -7q189 0 274 7v-41q-42 -4 -60 -16.5t-25 -47t-7 -112.5v-406h-41q-2 43 -17 80z M1142.5 1722.5q-61.5 -62.5 -154.5 -103t-210 -40.5t-209.5 40.5t-154 103t-92.5 130.5l24 21q69 -51 176 -87t256 -36q265 0 433 125l24 -23q-31 -68 -92.5 -130.5z" />
<glyph unicode="&#x11f;" horiz-adv-x="1102" d="M808.5 1366.5q-96.5 -94.5 -250.5 -94.5t-250.5 94.5t-140.5 228.5l35 19q128 -148 356 -148q226 0 357 148l34 -19q-44 -134 -140.5 -228.5zM1001 210q76 -52 76 -171q0 -105 -66.5 -202.5t-199.5 -159.5t-324 -62q-146 0 -245 23.5t-147 63t-48 87.5q0 57 41.5 84 t136 57t134.5 58h-50q-50 0 -101.5 15.5t-89.5 58t-38 116.5q0 59 24 106.5t77.5 90.5t146.5 90q-110 34 -171 108.5t-61 188.5q0 109 56.5 182t155.5 108t229 35q134 0 233 -37q-2 57 8 101q7 51 32 94t65.5 68.5t89.5 25.5q58 0 96.5 -33.5t38.5 -93.5q0 -52 -37.5 -88.5 t-93.5 -36.5q-54 0 -87.5 31t-45.5 78q-24 -26 -33 -80q-2 -24 -2 -39t2 -41q174 -82 174 -274q0 -109 -56.5 -182t-155.5 -108.5t-228 -35.5q-93 0 -171 18q-56 -37 -80 -62.5t-24 -61.5q0 -38 22.5 -53t67.5 -15h449q124 0 200 -52zM434 985q-35 -66 -35 -223t35 -223 t103 -66q67 0 102 66t35 223t-35 223t-102 66q-68 0 -103 -66zM344.5 -90q-18.5 -46 -18.5 -86q0 -82 60 -128t155 -46q85 0 157.5 31.5t116 90t43.5 134.5q0 42 -27 62t-92 20h-341q-35 -32 -53.5 -78z" />
<glyph unicode="&#x120;" horiz-adv-x="1505" d="M1308 80q-15 37 -42 37q-34 0 -111 -43q-178 -103 -336 -103q-236 0 -400 87.5t-247.5 253t-83.5 397.5q0 229 94.5 403.5t263 270.5t383.5 96q126 0 213.5 -34.5t171.5 -98.5q25 -19 41 -19q21 0 33 29t19 94h47q-8 -139 -8 -496h-48q-15 138 -47 224.5t-106 146.5 q-49 47 -121 73.5t-147 26.5q-143 0 -238 -97.5t-140.5 -257.5t-45.5 -349q0 -709 393 -709q89 0 145 41q27 18 38 43t11 64v200q0 96 -16 140.5t-57.5 61t-132.5 20.5v41q118 -7 350 -7q189 0 274 7v-41q-42 -4 -60 -16.5t-25 -47t-7 -112.5v-406h-41q-2 43 -17 80z M931 1840q47 -42 47 -116q0 -73 -47 -115t-127 -42q-82 0 -128 41.5t-46 115.5t46 116t128 42q80 0 127 -42z" />
<glyph unicode="&#x121;" horiz-adv-x="1102" d="M412 1314q-50 42 -50 116q0 73 50 115t137 42q85 0 135.5 -42t50.5 -115q0 -74 -50.5 -116t-135.5 -42q-87 0 -137 42zM1001 210q76 -52 76 -171q0 -105 -66.5 -202.5t-199.5 -159.5t-324 -62q-146 0 -245 23.5t-147 63t-48 87.5q0 57 41.5 84t136 57t134.5 58h-50 q-50 0 -101.5 15.5t-89.5 58t-38 116.5q0 59 24 106.5t77.5 90.5t146.5 90q-110 34 -171 108.5t-61 188.5q0 109 56.5 182t155.5 108t229 35q105 0 190 -23q2 56 14 103q11 85 62.5 143t136.5 58q63 0 105 -38t42 -101q0 -59 -40 -98t-103 -39q-60 0 -101 30t-50 90 q-18 -24 -27 -82q-5 -39 -3 -77q101 -36 157.5 -109t56.5 -182t-56.5 -182t-155.5 -108.5t-228 -35.5q-93 0 -171 18q-56 -37 -80 -62.5t-24 -61.5q0 -38 22.5 -53t67.5 -15h449q124 0 200 -52zM434 985q-35 -66 -35 -223t35 -223t103 -66q67 0 102 66t35 223t-35 223 t-102 66q-68 0 -103 -66zM344.5 -90q-18.5 -46 -18.5 -86q0 -82 60 -128t155 -46q85 0 157.5 31.5t116 90t43.5 134.5q0 42 -27 62t-92 20h-341q-35 -32 -53.5 -78z" />
<glyph unicode="&#x122;" horiz-adv-x="1505" d="M1308 80q-15 37 -42 37q-34 0 -111 -43q-178 -103 -336 -103q-236 0 -400 87.5t-247.5 253t-83.5 397.5q0 229 94.5 403.5t263 270.5t383.5 96q126 0 213.5 -34.5t171.5 -98.5q25 -19 41 -19q21 0 33 29t19 94h47q-8 -139 -8 -496h-48q-15 138 -47 224.5t-106 146.5 q-49 47 -121 73.5t-147 26.5q-143 0 -238 -97.5t-140.5 -257.5t-45.5 -349q0 -709 393 -709q89 0 145 41q27 18 38 43t11 64v200q0 96 -16 140.5t-57.5 61t-132.5 20.5v41q118 -7 350 -7q189 0 274 7v-41q-42 -4 -60 -16.5t-25 -47t-7 -112.5v-406h-41q-2 43 -17 80z M908 -344q-34 -31 -100 -31q-68 0 -107 33t-39 96q0 61 42 97t114 36q76 0 122 -42t46 -115q0 -95 -57.5 -154t-176.5 -74l-8 41q150 27 164 113z" />
<glyph unicode="&#x123;" horiz-adv-x="1102" d="M460 1520q37 33 100 33q67 0 106.5 -33.5t39.5 -95.5q0 -63 -42 -98t-114 -35q-74 0 -121 42.5t-47 114.5q0 93 58 152t176 76l8 -43q-152 -24 -164 -113zM1001 210q76 -52 76 -171q0 -105 -66.5 -202.5t-199.5 -159.5t-324 -62q-146 0 -245 23.5t-147 63t-48 87.5 q0 57 41.5 84t136 57t134.5 58h-50q-50 0 -101.5 15.5t-89.5 58t-38 116.5q0 59 24 106.5t77.5 90.5t146.5 90q-110 34 -171 108.5t-61 188.5q0 109 56.5 182t155.5 108t229 35q110 0 197 -25q-1 8 -1 23q0 33 6 66q10 89 59.5 145t137.5 56q65 0 107 -34t42 -91 q0 -54 -40.5 -89.5t-104.5 -35.5q-114 0 -149 102q-20 -27 -27 -88q-1 -11 -1 -34q0 -20 1 -30q101 -36 157 -108.5t56 -181.5t-56.5 -182t-155.5 -108.5t-228 -35.5q-93 0 -171 18q-56 -37 -80 -62.5t-24 -61.5q0 -38 22.5 -53t67.5 -15h449q124 0 200 -52zM434 985 q-35 -66 -35 -223t35 -223t103 -66q67 0 102 66t35 223t-35 223t-102 66q-68 0 -103 -66zM344.5 -90q-18.5 -46 -18.5 -86q0 -82 60 -128t155 -46q85 0 157.5 31.5t116 90t43.5 134.5q0 42 -27 62t-92 20h-341q-35 -32 -53.5 -78z" />
<glyph unicode="&#x124;" horiz-adv-x="1638" d="M1471 1393q-31 -13 -42.5 -48t-11.5 -112v-1016q0 -77 11.5 -112t42.5 -48t100 -16v-41q-102 6 -311 6q-208 0 -322 -6v41q68 3 99.5 16t43 48t11.5 112v492h-543v-492q0 -77 11 -112t42 -48t100 -16v-41q-109 6 -309 6q-219 0 -323 -6v41q68 3 99 16t42.5 48t11.5 112 v1016q0 77 -11.5 112t-42.5 48t-99 16v41q103 -6 323 -6q200 0 309 6v-41q-69 -3 -100 -16t-42 -48t-11 -112v-483h543v483q0 77 -11.5 112t-43 48t-99.5 16v41q114 -6 322 -6q209 0 311 6v-41q-69 -3 -100 -16zM1020.5 1747q111.5 -86 242.5 -141l-10 -31 q-134 25 -263 61.5t-206 71.5q-64 -35 -170.5 -71.5t-216.5 -61.5l-10 31q131 55 242.5 140.5t177.5 178.5h37q65 -92 176.5 -178z" />
<glyph unicode="&#x125;" horiz-adv-x="1245" d="M799 1087q159 0 225 -79q34 -40 50 -102t16 -165v-551q0 -57 12.5 -89t40.5 -45t78 -13v-43q-216 8 -271 8q-70 0 -266 -8v43q41 0 65 13t35 45t11 89v637q0 84 -27.5 127t-99.5 43q-56 0 -102.5 -30.5t-73.5 -84t-27 -120.5v-572q0 -57 10.5 -89t34 -45t65.5 -13v-43 q-196 8 -253 8q-71 0 -283 -8v43q49 0 77 13t41 45t13 89v1166q0 95 -29.5 137.5t-101.5 42.5v43q65 -6 127 -6q180 0 299 29v-705q92 190 334 190zM793.5 1878q111.5 -86 242.5 -141l-10 -31q-134 25 -263 61.5t-206 71.5q-64 -35 -170.5 -71.5t-216.5 -61.5l-10 31 q131 55 242.5 140.5t177.5 178.5h37q65 -92 176.5 -178z" />
<glyph unicode="&#x126;" horiz-adv-x="1638" d="M1471 1393q-31 -13 -42.5 -48t-11.5 -112v-141h154v-41h-154v-834q0 -77 11.5 -112t42.5 -48t100 -16v-41q-102 6 -311 6q-208 0 -322 -6v41q68 3 99.5 16t43 48t11.5 112v492h-543v-492q0 -77 11 -112t42 -48t100 -16v-41q-109 6 -309 6q-219 0 -323 -6v41q68 3 99 16 t42.5 48t11.5 112v834h-153v41h153v141q0 77 -11.5 112t-42.5 48t-99 16v41q103 -6 323 -6q200 0 309 6v-41q-69 -3 -100 -16t-42 -48t-11 -112v-141h543v141q0 77 -11.5 112t-43 48t-99.5 16v41q114 -6 322 -6q209 0 311 6v-41q-69 -3 -100 -16zM549 1051v-301h543v301 h-543z" />
<glyph unicode="&#x127;" horiz-adv-x="1245" d="M1102.5 101q12.5 -32 40.5 -45t78 -13v-43q-216 8 -271 8q-70 0 -266 -8v43q41 0 65 13t35 45t11 89v637q0 84 -27.5 127t-99.5 43q-56 0 -102.5 -30.5t-73.5 -84t-27 -120.5v-572q0 -57 10.5 -89t34 -45t65.5 -13v-43q-196 8 -253 8q-71 0 -283 -8v43q49 0 77 13t41 45 t13 89v1055h-152v41h152v70q0 95 -29.5 137.5t-101.5 42.5v43q65 -6 127 -6q180 0 299 29v-316h319v-41h-319v-348q92 190 334 190q159 0 225 -79q34 -40 50 -102t16 -165v-551q0 -57 12.5 -89z" />
<glyph unicode="&#x128;" horiz-adv-x="770" d="M602 1393q-31 -13 -42 -48t-11 -112v-1016q0 -77 11 -112t42 -48t100 -16v-41q-109 6 -309 6q-219 0 -323 -6v41q68 3 99 16t42.5 48t11.5 112v1016q0 77 -11.5 112t-42.5 48t-99 16v41q103 -6 323 -6q200 0 309 6v-41q-69 -3 -100 -16zM40.5 1822q74.5 70 171.5 70 q67 0 118 -19.5t143 -72.5t169 -53q109 0 170 111l29 -11q-27 -135 -101 -204.5t-171 -69.5q-67 0 -117.5 19.5t-143.5 72.5t-172 53q-106 0 -170 -112l-28 10q28 136 102.5 206z" />
<glyph unicode="&#x129;" horiz-adv-x="645" d="M488 101q13 -32 41 -45t77 -13v-43q-204 8 -272 8q-65 0 -285 -8v43q49 0 77.5 13t41 45t12.5 89v646q0 95 -29 137.5t-102 42.5v43q65 -6 127 -6q181 0 299 28v-891q0 -57 13 -89zM1.5 1540q68.5 70 155.5 70q58 0 99.5 -18.5t112.5 -67.5t134 -49q92 0 157 108l29 -14 q-32 -145 -100 -215t-154 -70q-59 0 -101 19t-113 68.5t-134 49.5q-92 0 -158 -110l-28 14q32 145 100.5 215z" />
<glyph unicode="&#x12a;" horiz-adv-x="770" d="M602 1393q-31 -13 -42 -48t-11 -112v-1016q0 -77 11 -112t42 -48t100 -16v-41q-109 6 -309 6q-219 0 -323 -6v41q68 3 99 16t42.5 48t11.5 112v1016q0 77 -11.5 112t-42.5 48t-99 16v41q103 -6 323 -6q200 0 309 6v-41q-69 -3 -100 -16zM-18 1677v52h819v-52h-819z" />
<glyph unicode="&#x12b;" horiz-adv-x="645" d="M-20 1407v51h647v-51h-647zM488 101q13 -32 41 -45t77 -13v-43q-204 8 -272 8q-65 0 -285 -8v43q49 0 77.5 13t41 45t12.5 89v646q0 95 -29 137.5t-102 42.5v43q65 -6 127 -6q181 0 299 28v-891q0 -57 13 -89z" />
<glyph unicode="&#x12c;" horiz-adv-x="770" d="M602 1393q-31 -13 -42 -48t-11 -112v-1016q0 -77 11 -112t42 -48t100 -16v-41q-109 6 -309 6q-219 0 -323 -6v41q68 3 99 16t42.5 48t11.5 112v1016q0 77 -11.5 112t-42.5 48t-99 16v41q103 -6 323 -6q200 0 309 6v-41q-69 -3 -100 -16zM743.5 1722.5 q-61.5 -62.5 -154.5 -103t-210 -40.5t-209.5 40.5t-154 103t-92.5 130.5l24 21q69 -51 176 -87t256 -36q265 0 433 125l24 -23q-31 -68 -92.5 -130.5z" />
<glyph unicode="&#x12d;" horiz-adv-x="645" d="M488 101q13 -32 41 -45t77 -13v-43q-204 8 -272 8q-65 0 -285 -8v43q49 0 77.5 13t41 45t12.5 89v646q0 95 -29 137.5t-102 42.5v43q65 -6 127 -6q181 0 299 28v-891q0 -57 13 -89zM570.5 1366.5q-96.5 -94.5 -250.5 -94.5t-250.5 94.5t-140.5 228.5l35 19 q128 -148 356 -148q226 0 357 148l34 -19q-44 -134 -140.5 -228.5z" />
<glyph unicode="&#x12e;" horiz-adv-x="770" d="M602 1393q-31 -13 -42 -48t-11 -112v-1016q0 -77 11 -112t42 -48t100 -16v-41q-109 6 -309 6q-219 0 -323 -6v41q68 3 99 16t42.5 48t11.5 112v1016q0 77 -11.5 112t-42.5 48t-99 16v41q103 -6 323 -6q200 0 309 6v-41q-69 -3 -100 -16zM508.5 -82.5 q-54.5 -53.5 -54.5 -105.5q0 -84 86 -84q35 0 71.5 15.5t59.5 39.5l27 -29q-54 -73 -121 -106t-160 -33q-88 0 -137 37.5t-49 103.5q0 84 96.5 148.5t272.5 101.5h77q-114 -35 -168.5 -88.5z" />
<glyph unicode="&#x12f;" horiz-adv-x="645" d="M450.5 1545q50.5 -42 50.5 -115q0 -74 -50.5 -116t-135.5 -42q-87 0 -137 42t-50 116q0 73 50 115t137 42q85 0 135.5 -42zM488 101q13 -32 41 -45t77 -13v-43q-204 8 -272 8q-65 0 -285 -8v43q49 0 77.5 13t41 45t12.5 89v646q0 95 -29 137.5t-102 42.5v43q65 -6 127 -6 q181 0 299 28v-891q0 -57 13 -89zM552 -6q-82 -38 -118 -86t-36 -96q0 -84 84 -84q35 0 72.5 16t58.5 39l29 -29q-55 -73 -122.5 -106t-158.5 -33q-89 0 -137.5 37t-48.5 104q0 84 86.5 148.5t245.5 101.5l84 12q-10 -12 -39 -24z" />
<glyph unicode="&#x130;" horiz-adv-x="770" d="M602 1393q-31 -13 -42 -48t-11 -112v-1016q0 -77 11 -112t42 -48t100 -16v-41q-109 6 -309 6q-219 0 -323 -6v41q68 3 99 16t42.5 48t11.5 112v1016q0 77 -11.5 112t-42.5 48t-99 16v41q103 -6 323 -6q200 0 309 6v-41q-69 -3 -100 -16zM527.5 1942q50.5 -42 50.5 -115 q0 -74 -50.5 -116t-135.5 -42q-87 0 -137 42t-50 116q0 73 50 115t137 42q85 0 135.5 -42z" />
<glyph unicode="&#x131;" horiz-adv-x="645" d="M488 101q13 -32 41 -45t77 -13v-43q-204 8 -272 8q-65 0 -285 -8v43q49 0 77.5 13t41 45t12.5 89v646q0 95 -29 137.5t-102 42.5v43q65 -6 127 -6q181 0 299 28v-891q0 -57 13 -89z" />
<glyph unicode="&#x132;" horiz-adv-x="1511" d="M602 1393q-31 -13 -42 -48t-11 -112v-1016q0 -77 11 -112t42 -48t100 -16v-41q-109 6 -309 6q-219 0 -323 -6v41q68 3 99 16t42.5 48t11.5 112v1016q0 77 -11.5 112t-42.5 48t-99 16v41q103 -6 323 -6q200 0 309 6v-41q-69 -3 -100 -16zM1354 1393q-31 -13 -42 -48 t-11 -112v-750v-122q0 -137 -6.5 -238t-28.5 -174q-28 -96 -98.5 -171.5t-178 -119t-241.5 -43.5q-130 0 -207 39q-101 50 -101 147q0 63 45 101.5t119 38.5q72 0 114 -35.5t42 -100.5q0 -46 -27 -82t-78 -53q20 -14 74 -14q75 0 129 40t78 107q18 53 26.5 112t10.5 140 t2 242v936q0 77 -11.5 112t-43 48t-99.5 16v41q102 -6 312 -6q207 0 321 6v-41q-69 -3 -100 -16z" />
<glyph unicode="&#x133;" horiz-adv-x="1210" d="M422.5 1545q50.5 -42 50.5 -115q0 -74 -50.5 -116t-135.5 -42q-87 0 -137 42t-50 116q0 73 50 115t137 42q85 0 135.5 -42zM1042.5 1545q50.5 -42 50.5 -115q0 -74 -50.5 -116t-135.5 -42q-87 0 -137 42t-50 116q0 73 50 115t137 42q85 0 135.5 -42zM1025.5 -121 q-43.5 -127 -148 -195.5t-283.5 -68.5q-117 0 -186.5 36t-69.5 111q0 54 44 89.5t124 35.5q72 0 119 -31t47 -85q0 -43 -29.5 -73.5t-81.5 -45.5q19 -2 43 -2q63 0 100 27t53.5 83.5t16.5 147.5v260q-44 -97 -128.5 -147t-201.5 -50q-153 0 -223 80q-34 38 -48.5 101 t-14.5 165v519q0 94 -29.5 137t-101.5 43v43q65 -6 127 -6q179 0 299 28v-848q0 -85 25.5 -128.5t96.5 -43.5q56 0 101.5 31.5t71.5 85.5t26 121v537q0 94 -29.5 137t-101.5 43v43q65 -6 127 -6q179 0 299 28v-884q0 -191 -43.5 -318z" />
<glyph unicode="&#x134;" horiz-adv-x="745" d="M590 1393q-31 -13 -42 -48t-11 -112v-750v-122q0 -137 -6.5 -238t-28.5 -174q-28 -96 -98.5 -171.5t-178 -119t-241.5 -43.5q-130 0 -207 39q-101 50 -101 147q0 63 45 101.5t119 38.5q72 0 114 -35.5t42 -100.5q0 -46 -27 -82t-78 -53q20 -14 74 -14q75 0 129 40t78 107 q18 53 26.5 112t10.5 140t2 242v936q0 77 -11.5 112t-43 48t-99.5 16v41q102 -6 312 -6q207 0 321 6v-41q-69 -3 -100 -16zM564.5 1747q111.5 -86 242.5 -141l-10 -31q-134 25 -263 61.5t-206 71.5q-64 -35 -170.5 -71.5t-216.5 -61.5l-10 31q131 55 242.5 140.5 t177.5 178.5h37q65 -92 176.5 -178z" />
<glyph unicode="&#x135;" horiz-adv-x="608" d="M438 -90q-29 -110 -102 -184q-111 -111 -332 -111q-109 0 -182 37q-38 19 -59 53.5t-21 75.5q0 62 44 99.5t118 37.5q71 0 112 -33.5t41 -97.5q0 -43 -25.5 -78t-76.5 -53q32 -4 47 -4q87 0 129 57q24 37 32.5 110.5t8.5 225.5v791q0 94 -29.5 137t-101.5 43v43 q65 -6 127 -6q179 0 299 28v-888q0 -173 -29 -283zM469.5 1454.5q98.5 -108.5 213.5 -176.5l-17 -29q-117 28 -229 70.5t-180 85.5q-56 -43 -145.5 -85.5t-182.5 -70.5l-16 29q113 67 210 175t156 226h37q55 -116 153.5 -224.5z" />
<glyph unicode="&#x136;" horiz-adv-x="1462" d="M1397.5 90q32.5 -28 85.5 -49v-41q-146 6 -320 6q-135 0 -260 -6v41q58 3 83 12t25 28q0 17 -22 52l-297 481q-28 45 -48.5 68.5t-41.5 33t-53 12.5v-511q0 -77 11 -112t42 -48t100 -16v-41q-110 6 -309 6q-220 0 -323 -6v41q68 3 99 16t42.5 48t11.5 112v1016 q0 77 -11.5 112t-42.5 48t-99 16v41q103 -6 323 -6q199 0 309 6v-41q-69 -3 -100 -16t-42 -48t-11 -112v-461q81 5 149 50t154 143l121 145q93 110 93 189q0 51 -39.5 80t-111.5 32v39q151 -6 304 -6q118 0 192 6v-39q-162 -37 -297 -197l-256 -304l477 -744 q30 -48 62.5 -76zM898 -344q-34 -31 -100 -31q-68 0 -107 33t-39 96q0 61 42 97t114 36q76 0 122 -42t46 -115q0 -95 -57.5 -154t-176.5 -74l-8 41q150 27 164 113z" />
<glyph unicode="&#x137;" horiz-adv-x="1198" d="M1142 77.5q21 -23.5 54 -34.5v-43q-164 8 -215 8q-68 0 -264 -8v43q61 0 61 39q0 13 -10 31l-203 366q-20 34 -42.5 47.5t-57.5 15.5v-352q0 -57 12 -89t38.5 -45t72.5 -13v-43q-204 8 -266 8q-71 0 -283 -8v43q49 0 77 13t41 45t13 89v1168q0 95 -29.5 137.5 t-101.5 42.5v43q65 -6 127 -6q180 0 299 29v-1021q41 4 70 15.5t53 36.5l155 151q69 69 69 125q0 47 -44.5 75.5t-114.5 31.5v41q114 -6 240 -6q168 0 240 6v-41q-122 -27 -256 -158l-131 -136l344 -574q31 -49 52 -72.5zM311 -342q-37 -33 -100 -33q-67 0 -106.5 33.5 t-39.5 95.5q0 63 42 98t114 35q74 0 121 -42.5t47 -114.5q0 -93 -58 -152t-176 -76l-8 43q152 24 164 113z" />
<glyph unicode="&#x138;" horiz-adv-x="1210" d="M1206 43v-43q-164 8 -215 8q-56 0 -252 -8v43q29 0 46 10.5t17 28.5q0 14 -11 31l-230 344q-37 55 -86 59v-326q0 -57 12 -89t38.5 -45t72.5 -13v-43q-196 8 -264 8q-65 0 -285 -8v43q49 0 77.5 13t41 45t12.5 89v646q0 95 -29 137.5t-102 42.5v43q65 -6 127 -6 q181 0 299 28v-523q59 5 99 28.5t81 70.5l191 217q31 37 31 70t-31.5 53t-89.5 21v41q107 -6 211 -6q116 0 186 6v-41q-71 -6 -114.5 -27t-86.5 -71l-213 -244l348 -524q61 -99 119 -109z" />
<glyph unicode="&#x139;" horiz-adv-x="1251" d="M607.5 1393q-33.5 -13 -46 -48t-12.5 -112v-1040q0 -66 9.5 -95.5t36 -40t83.5 -10.5h100q93 0 170.5 57t130 160.5t72.5 239.5h47q-6 -70 -6 -180q0 -197 14 -324q-139 6 -469 6q-446 0 -667 -6v41q68 3 99 16t42.5 48t11.5 112v1016q0 77 -11.5 112t-42.5 48t-99 16v41 q103 -6 323 -6q208 0 322 6v-41q-74 -3 -107.5 -16zM351.5 1703q44.5 44 110 114.5t112.5 95.5q32 16 63 16q32 0 60 -16t43 -45q12 -22 12 -47q0 -31 -18 -59t-51 -46q-45 -25 -120.5 -44t-143.5 -37t-162 -54l-15 25q65 53 109.5 97z" />
<glyph unicode="&#x13a;" horiz-adv-x="637" d="M479.5 101q12.5 -32 41 -45t77.5 -13v-43q-212 8 -274 8q-71 0 -283 -8v43q49 0 77 13t41 45t13 89v1168q0 95 -29.5 137.5t-101.5 42.5v43q65 -6 127 -6q180 0 299 29v-1414q0 -57 12.5 -89zM275.5 1834q44.5 44 110 114.5t112.5 95.5q32 16 63 16q32 0 60 -16t43 -45 q12 -22 12 -47q0 -31 -18 -59t-51 -46q-45 -25 -120.5 -44t-143.5 -37t-162 -54l-15 25q65 53 109.5 97z" />
<glyph unicode="&#x13b;" horiz-adv-x="1251" d="M607.5 1393q-33.5 -13 -46 -48t-12.5 -112v-1040q0 -66 9.5 -95.5t36 -40t83.5 -10.5h100q93 0 170.5 57t130 160.5t72.5 239.5h47q-6 -70 -6 -180q0 -197 14 -324q-139 6 -469 6q-446 0 -667 -6v41q68 3 99 16t42.5 48t11.5 112v1016q0 77 -11.5 112t-42.5 48t-99 16v41 q103 -6 323 -6q208 0 322 6v-41q-74 -3 -107.5 -16zM808 -344q-34 -31 -100 -31q-68 0 -107 33t-39 96q0 61 42 97t114 36q76 0 122 -42t46 -115q0 -95 -57.5 -154t-176.5 -74l-8 41q150 27 164 113z" />
<glyph unicode="&#x13c;" horiz-adv-x="637" d="M479.5 101q12.5 -32 41 -45t77.5 -13v-43q-212 8 -274 8q-71 0 -283 -8v43q49 0 77 13t41 45t13 89v1168q0 95 -29.5 137.5t-101.5 42.5v43q65 -6 127 -6q180 0 299 29v-1414q0 -57 12.5 -89zM-32 -342q-37 -33 -100 -33q-67 0 -106.5 33.5t-39.5 95.5q0 63 42 98t114 35 q74 0 121 -42.5t47 -114.5q0 -93 -58 -152t-176 -76l-8 43q152 24 164 113z" />
<glyph unicode="&#x13d;" horiz-adv-x="1251" d="M607.5 1393q-33.5 -13 -46 -48t-12.5 -112v-1040q0 -66 9.5 -95.5t36 -40t83.5 -10.5h100q93 0 170.5 57t130 160.5t72.5 239.5h47q-6 -70 -6 -180q0 -197 14 -324q-139 6 -469 6q-446 0 -667 -6v41q68 3 99 16t42.5 48t11.5 112v1016q0 77 -11.5 112t-42.5 48t-99 16v41 q103 -6 323 -6q208 0 322 6v-41q-74 -3 -107.5 -16zM832 1446q87 0 170 16q10 -23 10 -73q0 -42 -27.5 -98t-71.5 -118.5t-140 -193.5l-29 8q41 260 41 338q0 43 -12.5 62.5t-48.5 19.5v43q56 -4 108 -4z" />
<glyph unicode="&#x13e;" horiz-adv-x="637" d="M479.5 101q12.5 -32 41 -45t77.5 -13v-43q-212 8 -274 8q-71 0 -283 -8v43q49 0 77 13t41 45t13 89v1168q0 95 -29.5 137.5t-101.5 42.5v43q65 -6 127 -6q180 0 299 29v-1414q0 -57 12.5 -89zM616 1582q80 0 170 24q4 -10 7 -37t3 -47q0 -38 -23 -88.5t-61.5 -110 t-114.5 -170.5l-28 8q41 237 41 297q0 43 -8.5 62.5t-32.5 19.5v43q17 -1 47 -1z" />
<glyph unicode="&#x13f;" horiz-adv-x="1346" d="M607.5 1393q-33.5 -13 -46 -48t-12.5 -112v-1040q0 -66 9.5 -95.5t36 -40t83.5 -10.5h100q93 0 170.5 57t130 160.5t72.5 239.5h47q-6 -70 -6 -180q0 -197 14 -324q-139 6 -469 6q-446 0 -667 -6v41q68 3 99 16t42.5 48t11.5 112v1016q0 77 -11.5 112t-42.5 48t-99 16v41 q103 -6 323 -6q208 0 322 6v-41q-74 -3 -107.5 -16zM1254 871.5q47 -42.5 47 -115.5t-47 -115.5t-128 -42.5q-80 0 -127 42.5t-47 115.5t47 115.5t127 42.5q81 0 128 -42.5z" />
<glyph unicode="&#x140;" horiz-adv-x="1026" d="M479.5 101q12.5 -32 41 -45t77.5 -13v-43q-212 8 -274 8q-71 0 -283 -8v43q49 0 77 13t41 45t13 89v1168q0 95 -29.5 137.5t-101.5 42.5v43q65 -6 127 -6q180 0 299 29v-1414q0 -57 12.5 -89zM962 746.5q47 -42.5 47 -115.5t-47 -115.5t-128 -42.5q-80 0 -127 42.5 t-47 115.5t47 115.5t127 42.5q81 0 128 -42.5z" />
<glyph unicode="&#x141;" horiz-adv-x="1251" d="M1192 324q0 -197 14 -324q-139 6 -469 6q-446 0 -667 -6v41q68 3 99 16t42.5 48t11.5 112v292l-153 -89v47l153 89v677q0 77 -11.5 112t-42.5 48t-99 16v41q103 -6 323 -6q208 0 322 6v-41q-74 -3 -107.5 -16t-46 -48t-12.5 -112v-508l420 244v-47l-420 -244v-485 q0 -66 9.5 -95.5t36 -40t83.5 -10.5h100q93 0 170.5 57t130 160.5t72.5 239.5h47q-6 -70 -6 -180z" />
<glyph unicode="&#x142;" horiz-adv-x="637" d="M467 190q0 -57 12.5 -89t41 -45t77.5 -13v-43q-212 8 -274 8q-71 0 -283 -8v43q49 0 77 13t41 45t13 89v472l-199 -173v62l199 173v634q0 95 -29.5 137.5t-101.5 42.5v43q65 -6 127 -6q180 0 299 29v-695l197 172v-61l-197 -172v-658z" />
<glyph unicode="&#x143;" horiz-adv-x="1479" d="M1320.5 1374.5q-31.5 -25.5 -43 -78t-11.5 -157.5v-1143q-15 1 -50 1q-36 0 -55 -1l-889 1126v-786q0 -121 13 -177.5t53.5 -82.5t132.5 -35v-41q-79 6 -221 6q-113 0 -178 -6v41q67 9 98.5 34.5t43 78t11.5 157.5v922q0 77 -11.5 112t-42.5 48t-99 16v41q65 -6 178 -6 q103 0 176 6l793 -977v641q0 121 -13 177.5t-53.5 82.5t-132.5 35v41q79 -6 221 -6q114 0 178 6v-41q-67 -9 -98.5 -34.5zM735.5 1703q44.5 44 110 114.5t112.5 95.5q32 16 63 16q32 0 60 -16t43 -45q12 -22 12 -47q0 -31 -18 -59t-51 -46q-45 -25 -120.5 -44t-143.5 -37 t-162 -54l-15 25q65 53 109.5 97z" />
<glyph unicode="&#x144;" horiz-adv-x="1257" d="M811 1087q84 0 137.5 -20t87.5 -59t49 -101t15 -166v-551q0 -57 13 -89t41 -45t77 -13v-43q-204 8 -270 8q-63 0 -267 -8v43q42 0 66 13t34.5 45t10.5 89v637q0 84 -27.5 127t-99.5 43q-56 0 -102.5 -31t-73.5 -85.5t-27 -120.5v-570q0 -57 11 -89t35 -45t65 -13v-43 q-188 8 -254 8q-63 0 -283 -8v43q49 0 77.5 13t41 45t12.5 89v646q0 95 -29 137.5t-102 42.5v43q65 -6 127 -6q181 0 299 28v-184q93 190 336 190zM595.5 1440.5q34.5 88.5 53 132.5t48.5 78q17 23 42.5 35.5t52.5 12.5q42 0 72 -26q38 -30 38 -79q0 -45 -31 -83 q-32 -40 -95 -85t-120 -87.5t-132 -111.5l-22 18q59 107 93.5 195.5z" />
<glyph unicode="&#x145;" horiz-adv-x="1479" d="M1320.5 1374.5q-31.5 -25.5 -43 -78t-11.5 -157.5v-1143q-15 1 -50 1q-36 0 -55 -1l-889 1126v-786q0 -121 13 -177.5t53.5 -82.5t132.5 -35v-41q-79 6 -221 6q-113 0 -178 -6v41q67 9 98.5 34.5t43 78t11.5 157.5v922q0 77 -11.5 112t-42.5 48t-99 16v41q65 -6 178 -6 q103 0 176 6l793 -977v641q0 121 -13 177.5t-53.5 82.5t-132.5 35v41q79 -6 221 -6q114 0 178 6v-41q-67 -9 -98.5 -34.5zM845 -344q-34 -31 -100 -31q-68 0 -107 33t-39 96q0 61 42 97t114 36q76 0 122 -42t46 -115q0 -95 -57.5 -154t-176.5 -74l-8 41q150 27 164 113z" />
<glyph unicode="&#x146;" horiz-adv-x="1257" d="M811 1087q84 0 137.5 -20t87.5 -59t49 -101t15 -166v-551q0 -57 13 -89t41 -45t77 -13v-43q-204 8 -270 8q-63 0 -267 -8v43q42 0 66 13t34.5 45t10.5 89v637q0 84 -27.5 127t-99.5 43q-56 0 -102.5 -31t-73.5 -85.5t-27 -120.5v-570q0 -57 11 -89t35 -45t65 -13v-43 q-188 8 -254 8q-63 0 -283 -8v43q49 0 77.5 13t41 45t12.5 89v646q0 95 -29 137.5t-102 42.5v43q65 -6 127 -6q181 0 299 28v-184q93 190 336 190zM314 -342q-37 -33 -100 -33q-67 0 -106.5 33.5t-39.5 95.5q0 63 42 98t114 35q74 0 121 -42.5t47 -114.5q0 -93 -58 -152 t-176 -76l-8 43q152 24 164 113z" />
<glyph unicode="&#x147;" horiz-adv-x="1479" d="M1320.5 1374.5q-31.5 -25.5 -43 -78t-11.5 -157.5v-1143q-15 1 -50 1q-36 0 -55 -1l-889 1126v-786q0 -121 13 -177.5t53.5 -82.5t132.5 -35v-41q-79 6 -221 6q-113 0 -178 -6v41q67 9 98.5 34.5t43 78t11.5 157.5v922q0 77 -11.5 112t-42.5 48t-99 16v41q65 -6 178 -6 q103 0 176 6l793 -977v641q0 121 -13 177.5t-53.5 82.5t-132.5 35v41q79 -6 221 -6q114 0 178 6v-41q-67 -9 -98.5 -34.5zM967 1751q-111 -86 -178 -180h-37q-64 93 -175.5 178.5t-244.5 140.5l10 31q134 -23 263.5 -60t205.5 -73q64 36 170.5 73t216.5 60l10 -31 q-130 -53 -241 -139z" />
<glyph unicode="&#x148;" horiz-adv-x="1257" d="M811 1087q84 0 137.5 -20t87.5 -59t49 -101t15 -166v-551q0 -57 13 -89t41 -45t77 -13v-43q-204 8 -270 8q-63 0 -267 -8v43q42 0 66 13t34.5 45t10.5 89v637q0 84 -27.5 127t-99.5 43q-56 0 -102.5 -31t-73.5 -85.5t-27 -120.5v-570q0 -57 11 -89t35 -45t65 -13v-43 q-188 8 -254 8q-63 0 -283 -8v43q49 0 77.5 13t41 45t12.5 89v646q0 95 -29 137.5t-102 42.5v43q65 -6 127 -6q181 0 299 28v-184q93 190 336 190zM795 1476q-97 -108 -156 -227h-37q-54 116 -152.5 225t-213.5 177l16 28q118 -28 230 -70t180 -85q55 43 144 85t183 70 l17 -28q-114 -67 -211 -175z" />
<glyph unicode="&#x149;" horiz-adv-x="1257" d="M811 1087q84 0 137.5 -20t87.5 -59t49 -101t15 -166v-551q0 -57 13 -89t41 -45t77 -13v-43q-204 8 -270 8q-63 0 -267 -8v43q42 0 66 13t34.5 45t10.5 89v637q0 84 -27.5 127t-99.5 43q-56 0 -102.5 -31t-73.5 -85.5t-27 -120.5v-570q0 -57 11 -89t35 -45t65 -13v-43 q-188 8 -254 8q-63 0 -283 -8v43q49 0 77.5 13t41 45t12.5 89v646q0 95 -29 137.5t-102 42.5v43q65 -6 127 -6q181 0 299 28v-184q93 190 336 190zM84 1126q44 51 53 104q5 28 5 48q0 23 -5 38q-47 -49 -119 -49t-117 42t-45 116q0 70 47.5 114t120.5 44q100 0 146 -72 q21 -31 33 -76.5t12 -93.5q0 -105 -54 -192t-161 -136l-19 37q59 25 103 76z" />
<glyph unicode="&#x14a;" horiz-adv-x="1473" d="M1239 1444q113 0 178 6v-41q-69 -3 -100 -16t-42 -48t-11 -112v-1102q0 -204 -35.5 -317t-99.5 -156t-162 -43q-106 0 -172 41t-66 123q0 63 44 100t114 37q68 0 109.5 -34.5t41.5 -92.5q0 -42 -23 -78t-69 -55q12 -2 41 -2q108 0 163 85.5t65 258.5q-32 0 -58 -2 l-887 1126v-905q0 -77 12.5 -112t46 -48t107.5 -16v-41q-74 6 -188 6q-117 0 -178 -6v41q68 3 99 16t42.5 48t11.5 112v1016q0 77 -11.5 112t-42.5 48t-99 16v41q61 -6 178 -6q112 0 188 6l781 -961v744q0 77 -12.5 112t-46 48t-107.5 16v41q73 -6 188 -6z" />
<glyph unicode="&#x14b;" horiz-adv-x="1231" d="M811 1087q153 0 225 -79q34 -39 49 -101t15 -166v-548q0 -171 -29.5 -281t-101.5 -186q-49 -54 -128.5 -82.5t-205.5 -28.5q-55 0 -115 13.5t-102.5 44.5t-42.5 81q0 34 19.5 63.5t57 47.5t89.5 18q72 0 118 -32t46 -84q0 -75 -95 -111q55 0 82 18q68 10 94 86 q19 46 19 236v49v780q0 85 -27.5 128.5t-99.5 43.5q-56 0 -102.5 -31t-73.5 -85.5t-27 -120.5v-570q0 -57 11 -89t35 -45t65 -13v-43q-188 8 -254 8q-63 0 -283 -8v43q49 0 77.5 13t41 45t12.5 89v646q0 95 -29 137.5t-102 42.5v43q65 -6 127 -6q181 0 299 28v-184 q93 190 336 190z" />
<glyph unicode="&#x14c;" horiz-adv-x="1624" d="M1192.5 1391q163.5 -88 253.5 -255.5t90 -398.5q0 -226 -92.5 -400t-257.5 -270t-375 -96q-217 0 -380.5 88t-253 255.5t-89.5 398.5q0 226 92 400t257 270t376 96q216 0 379.5 -88zM606.5 1350.5q-85.5 -91.5 -132 -255t-46.5 -374.5q0 -213 52 -375t141 -250t198 -88 q113 0 198.5 91.5t132 255t46.5 374.5q0 212 -52 374.5t-141.5 250.5t-197.5 88q-113 0 -198.5 -91.5zM399 1677v52h819v-52h-819z" />
<glyph unicode="&#x14d;" horiz-adv-x="1157" d="M945.5 953q133.5 -134 133.5 -425q0 -290 -133.5 -423.5t-367.5 -133.5t-368 133.5t-134 423.5t134 424.5t368 134.5t367.5 -134zM437.5 919q-52.5 -128 -52.5 -391q0 -262 52.5 -389t140.5 -127q89 0 140.5 126.5t51.5 389.5q0 264 -51.5 391.5t-140.5 127.5 q-88 0 -140.5 -128zM231 1407v51h688v-51h-688z" />
<glyph unicode="&#x14e;" horiz-adv-x="1624" d="M1192.5 1391q163.5 -88 253.5 -255.5t90 -398.5q0 -226 -92.5 -400t-257.5 -270t-375 -96q-217 0 -380.5 88t-253 255.5t-89.5 398.5q0 226 92 400t257 270t376 96q216 0 379.5 -88zM606.5 1350.5q-85.5 -91.5 -132 -255t-46.5 -374.5q0 -213 52 -375t141 -250t198 -88 q113 0 198.5 91.5t132 255t46.5 374.5q0 212 -52 374.5t-141.5 250.5t-197.5 88q-113 0 -198.5 -91.5zM1160.5 1722.5q-61.5 -62.5 -154.5 -103t-210 -40.5t-209.5 40.5t-154 103t-92.5 130.5l24 21q69 -51 176 -87t256 -36q265 0 433 125l24 -23q-31 -68 -92.5 -130.5z" />
<glyph unicode="&#x14f;" horiz-adv-x="1157" d="M945.5 953q133.5 -134 133.5 -425q0 -290 -133.5 -423.5t-367.5 -133.5t-368 133.5t-134 423.5t134 424.5t368 134.5t367.5 -134zM437.5 919q-52.5 -128 -52.5 -391q0 -262 52.5 -389t140.5 -127q89 0 140.5 126.5t51.5 389.5q0 264 -51.5 391.5t-140.5 127.5 q-88 0 -140.5 -128zM829.5 1366.5q-96.5 -94.5 -250.5 -94.5t-250.5 94.5t-140.5 228.5l35 19q128 -148 356 -148q226 0 357 148l34 -19q-44 -134 -140.5 -228.5z" />
<glyph unicode="&#x150;" horiz-adv-x="1624" d="M1192.5 1391q163.5 -88 253.5 -255.5t90 -398.5q0 -226 -92.5 -400t-257.5 -270t-375 -96q-217 0 -380.5 88t-253 255.5t-89.5 398.5q0 226 92 400t257 270t376 96q216 0 379.5 -88zM606.5 1350.5q-85.5 -91.5 -132 -255t-46.5 -374.5q0 -213 52 -375t141 -250t198 -88 q113 0 198.5 91.5t132 255t46.5 374.5q0 212 -52 374.5t-141.5 250.5t-197.5 88q-113 0 -198.5 -91.5zM585 1741.5q47 70.5 75 109t59 64.5q33 26 75 26q59 0 93 -49q21 -30 21 -62q0 -55 -56 -97q-28 -20 -62.5 -35t-125.5 -48t-165 -69l-20 23q59 67 106 137.5z M1017 1741.5q47 70.5 75 109t59 64.5q33 26 75 26q59 0 93 -49q22 -29 22 -62q0 -54 -57 -97q-28 -20 -62.5 -35t-125 -48t-164.5 -69l-21 23q59 67 106 137.5z" />
<glyph unicode="&#x151;" horiz-adv-x="1157" d="M945.5 953q133.5 -134 133.5 -425q0 -290 -133.5 -423.5t-367.5 -133.5t-368 133.5t-134 423.5t134 424.5t368 134.5t367.5 -134zM437.5 919q-52.5 -128 -52.5 -391q0 -262 52.5 -389t140.5 -127q89 0 140.5 126.5t51.5 389.5q0 264 -51.5 391.5t-140.5 127.5 q-88 0 -140.5 -128zM398.5 1426q25.5 86 39.5 130t36 76q39 57 103 57q36 0 65 -20q44 -30 44 -83q0 -39 -26 -77q-18 -26 -43.5 -49.5t-105.5 -90.5t-156 -144l-24 16q42 99 67.5 185zM759 1423q26 86 41.5 131t38.5 78q36 57 100 57q36 0 65 -20q46 -31 46 -84 q0 -38 -27 -76q-18 -26 -43.5 -50t-106 -91t-155.5 -143l-25 16q40 96 66 182z" />
<glyph unicode="&#x152;" horiz-adv-x="2038" d="M1931 287q0 -157 15 -287q-134 6 -453 6q-324 0 -520 -2q-84 -33 -174 -33q-213 0 -373.5 88t-249 255.5t-88.5 398.5q0 226 91 400t253 270t369 96q87 0 178 -33q197 -2 514 -2q291 0 412 6q-15 -151 -15 -279q0 -89 6 -139h-47q-18 140 -54 220.5t-92 115.5t-140 35 h-43q-67 0 -98.5 -12t-43.5 -47t-12 -111v-483h84q93 0 130 58t49.5 113.5t15.5 69.5h47q-7 -86 -7 -166l1 -96q0 -93 12 -262h-47q-14 79 -30.5 127t-56.5 81.5t-114 33.5h-84v-492q0 -76 12 -111t43.5 -47t98.5 -12h59q131 0 209.5 94.5t101.5 317.5h47q-6 -67 -6 -172z M1002.5 1361q-37.5 44 -93.5 62.5t-116 18.5q-110 0 -193 -91.5t-127.5 -255t-44.5 -374.5q0 -213 50 -375t136.5 -250t192.5 -88q53 0 107 20t90 61.5t36 103.5v1052q0 72 -37.5 116z" />
<glyph unicode="&#x153;" horiz-adv-x="1667" d="M1053 537q0 -136 38 -225.5t98.5 -131t129.5 -41.5q151 0 235 164l39 -12q-25 -84 -75.5 -156.5t-127.5 -118t-176 -45.5q-104 0 -187.5 42.5t-138.5 126.5q-105 -169 -329 -169q-225 0 -353 133.5t-128 423.5q0 291 128 425t353 134q228 0 333 -176q56 87 140 131.5 t187 44.5q378 0 378 -454h-541q-3 -30 -3 -96zM693.5 138q49.5 126 49.5 388q0 265 -49.5 393t-134.5 128q-79 0 -125.5 -127.5t-46.5 -391.5q0 -263 46.5 -389.5t125.5 -126.5q85 0 134.5 126zM1308 939q-33 105 -100 105q-64 0 -106 -90.5t-52 -281.5h289q2 162 -31 267z " />
<glyph unicode="&#x154;" horiz-adv-x="1417" d="M1338.5 -1q-63.5 -28 -152.5 -28q-118 0 -187 50t-90 172l-37 204q-18 99 -37.5 159.5t-56 96t-96.5 35.5h-133v-471q0 -77 11 -112t42 -48t100 -16v-41q-109 6 -309 6q-219 0 -323 -6v41q68 3 99 16t42.5 48t11.5 112v1016q0 77 -11.5 112t-42.5 48t-99 16v41 q104 -6 311 -6q82 0 182 2t139 2q282 0 425 -92.5t143 -263.5q0 -91 -43 -173t-146 -142.5t-272 -80.5h2q124 -11 203.5 -42t124.5 -86.5t63 -141.5l47 -211q17 -83 38.5 -115t60.5 -32q24 1 42 12t40 35l28 -25q-56 -63 -119.5 -91zM816.5 773q64.5 44 89 118t24.5 178 q0 168 -59.5 254t-194.5 86q-55 0 -81.5 -14.5t-36 -51t-9.5 -110.5v-504h88q115 0 179.5 44zM622.5 1703q44.5 44 110 114.5t112.5 95.5q32 16 63 16q32 0 60 -16t43 -45q12 -22 12 -47q0 -31 -18 -59t-51 -46q-45 -25 -120.5 -44t-143.5 -37t-162 -54l-15 25 q65 53 109.5 97z" />
<glyph unicode="&#x155;" horiz-adv-x="956" d="M587.5 1032.5q73.5 54.5 166.5 54.5q62 0 104 -27t62 -69.5t20 -91.5q0 -76 -44 -124t-116 -48q-70 0 -110.5 35.5t-40.5 95.5q0 98 90 160q-13 3 -25 3q-14 0 -32 -5q-52 -8 -95 -49.5t-67.5 -99.5t-24.5 -113v-543q0 -95 46 -131.5t147 -36.5v-43q-256 8 -326 8 q-65 0 -293 -8v43q49 0 77.5 13t41 45t12.5 89v646q0 95 -29 137.5t-102 42.5v43q65 -6 127 -6q181 0 299 28v-190q39 87 112.5 141.5zM441.5 1440.5q34.5 88.5 53 132.5t48.5 78q17 23 42.5 35.5t52.5 12.5q42 0 72 -26q38 -30 38 -79q0 -45 -31 -83q-32 -40 -95 -85 t-120 -87.5t-132 -111.5l-22 18q59 107 93.5 195.5z" />
<glyph unicode="&#x156;" horiz-adv-x="1417" d="M1338.5 -1q-63.5 -28 -152.5 -28q-118 0 -187 50t-90 172l-37 204q-18 99 -37.5 159.5t-56 96t-96.5 35.5h-133v-471q0 -77 11 -112t42 -48t100 -16v-41q-109 6 -309 6q-219 0 -323 -6v41q68 3 99 16t42.5 48t11.5 112v1016q0 77 -11.5 112t-42.5 48t-99 16v41 q104 -6 311 -6q82 0 182 2t139 2q282 0 425 -92.5t143 -263.5q0 -91 -43 -173t-146 -142.5t-272 -80.5h2q124 -11 203.5 -42t124.5 -86.5t63 -141.5l47 -211q17 -83 38.5 -115t60.5 -32q24 1 42 12t40 35l28 -25q-56 -63 -119.5 -91zM816.5 773q64.5 44 89 118t24.5 178 q0 168 -59.5 254t-194.5 86q-55 0 -81.5 -14.5t-36 -51t-9.5 -110.5v-504h88q115 0 179.5 44zM831 -344q-34 -31 -100 -31q-68 0 -107 33t-39 96q0 61 42 97t114 36q76 0 122 -42t46 -115q0 -95 -57.5 -154t-176.5 -74l-8 41q150 27 164 113z" />
<glyph unicode="&#x157;" horiz-adv-x="956" d="M587.5 1032.5q73.5 54.5 166.5 54.5q62 0 104 -27t62 -69.5t20 -91.5q0 -76 -44 -124t-116 -48q-70 0 -110.5 35.5t-40.5 95.5q0 98 90 160q-13 3 -25 3q-14 0 -32 -5q-52 -8 -95 -49.5t-67.5 -99.5t-24.5 -113v-543q0 -95 46 -131.5t147 -36.5v-43q-256 8 -326 8 q-65 0 -293 -8v43q49 0 77.5 13t41 45t12.5 89v646q0 95 -29 137.5t-102 42.5v43q65 -6 127 -6q181 0 299 28v-190q39 87 112.5 141.5zM4 -342q-37 -33 -100 -33q-67 0 -106.5 33.5t-39.5 95.5q0 63 42 98t114 35q74 0 121 -42.5t47 -114.5q0 -93 -58 -152t-176 -76l-8 43 q152 24 164 113z" />
<glyph unicode="&#x158;" horiz-adv-x="1417" d="M1338.5 -1q-63.5 -28 -152.5 -28q-118 0 -187 50t-90 172l-37 204q-18 99 -37.5 159.5t-56 96t-96.5 35.5h-133v-471q0 -77 11 -112t42 -48t100 -16v-41q-109 6 -309 6q-219 0 -323 -6v41q68 3 99 16t42.5 48t11.5 112v1016q0 77 -11.5 112t-42.5 48t-99 16v41 q104 -6 311 -6q82 0 182 2t139 2q282 0 425 -92.5t143 -263.5q0 -91 -43 -173t-146 -142.5t-272 -80.5h2q124 -11 203.5 -42t124.5 -86.5t63 -141.5l47 -211q17 -83 38.5 -115t60.5 -32q24 1 42 12t40 35l28 -25q-56 -63 -119.5 -91zM816.5 773q64.5 44 89 118t24.5 178 q0 168 -59.5 254t-194.5 86q-55 0 -81.5 -14.5t-36 -51t-9.5 -110.5v-504h88q115 0 179.5 44zM854 1751q-111 -86 -178 -180h-37q-64 93 -175.5 178.5t-244.5 140.5l10 31q134 -23 263.5 -60t205.5 -73q64 36 170.5 73t216.5 60l10 -31q-130 -53 -241 -139z" />
<glyph unicode="&#x159;" horiz-adv-x="956" d="M587.5 1032.5q73.5 54.5 166.5 54.5q62 0 104 -27t62 -69.5t20 -91.5q0 -76 -44 -124t-116 -48q-70 0 -110.5 35.5t-40.5 95.5q0 98 90 160q-13 3 -25 3q-14 0 -32 -5q-52 -8 -95 -49.5t-67.5 -99.5t-24.5 -113v-543q0 -95 46 -131.5t147 -36.5v-43q-256 8 -326 8 q-65 0 -293 -8v43q49 0 77.5 13t41 45t12.5 89v646q0 95 -29 137.5t-102 42.5v43q65 -6 127 -6q181 0 299 28v-190q39 87 112.5 141.5zM641 1476q-97 -108 -156 -227h-37q-54 116 -152.5 225t-213.5 177l16 28q118 -28 230 -70t180 -85q55 43 144 85t183 70l17 -28 q-114 -67 -211 -175z" />
<glyph unicode="&#x15a;" horiz-adv-x="1196" d="M269.5 167.5q88.5 -142.5 271.5 -142.5q72 0 129.5 25.5t91 77.5t33.5 126q0 80 -37.5 143.5t-101 116t-169.5 121.5q-124 80 -196.5 139t-120 140t-47.5 188q0 124 63 208.5t167 125.5t229 41q74 0 128.5 -11t91 -27.5t79.5 -41.5q49 -29 69 -29q19 0 29 21.5t16 68.5 h47q-10 -137 -10 -467h-47q-7 111 -49.5 211t-119 162.5t-179.5 62.5q-65 0 -116.5 -25t-80 -72.5t-28.5 -110.5q0 -102 61 -167t159 -131.5t132 -89.5q120 -80 190 -139t114 -138t44 -183q0 -131 -68 -221t-183 -134.5t-257 -44.5q-115 0 -190.5 20.5t-139.5 55.5 q-44 29 -69 29q-19 0 -29 -21.5t-16 -68.5h-47q8 128 8 553h47q13 -229 101.5 -371.5zM569.5 1703q44.5 44 110 114.5t112.5 95.5q32 16 63 16q32 0 60 -16t43 -45q12 -22 12 -47q0 -31 -18 -59t-51 -46q-45 -25 -120.5 -44t-143.5 -37t-162 -54l-15 25q65 53 109.5 97z" />
<glyph unicode="&#x15b;" horiz-adv-x="946" d="M231.5 118q66.5 -100 188.5 -100q60 0 102.5 36.5t42.5 109.5q0 57 -25.5 102t-64.5 80t-117 96q-95 77 -142.5 121t-81.5 104.5t-34 137.5q0 88 48 152t129 97t176 33q78 0 143 -19t102 -44q20 -14 36 -14q38 0 48 75h45q-8 -103 -8 -360h-45q-18 134 -80.5 225.5 t-181.5 91.5q-61 0 -100 -35t-39 -96q0 -69 46 -119t111 -96t95 -69q84 -63 133.5 -110t80.5 -106.5t31 -136.5q0 -90 -52.5 -159t-141.5 -106.5t-195 -37.5q-109 0 -190 43q-61 31 -96 43q-6 2 -10 2q-33 0 -48 -73h-45q8 117 8 409h45q20 -177 86.5 -277zM431.5 1440.5 q34.5 88.5 53 132.5t48.5 78q17 23 42.5 35.5t52.5 12.5q42 0 72 -26q38 -30 38 -79q0 -45 -31 -83q-32 -40 -95 -85t-120 -87.5t-132 -111.5l-22 18q59 107 93.5 195.5z" />
<glyph unicode="&#x15c;" horiz-adv-x="1196" d="M269.5 167.5q88.5 -142.5 271.5 -142.5q72 0 129.5 25.5t91 77.5t33.5 126q0 80 -37.5 143.5t-101 116t-169.5 121.5q-124 80 -196.5 139t-120 140t-47.5 188q0 124 63 208.5t167 125.5t229 41q74 0 128.5 -11t91 -27.5t79.5 -41.5q49 -29 69 -29q19 0 29 21.5t16 68.5 h47q-10 -137 -10 -467h-47q-7 111 -49.5 211t-119 162.5t-179.5 62.5q-65 0 -116.5 -25t-80 -72.5t-28.5 -110.5q0 -102 61 -167t159 -131.5t132 -89.5q120 -80 190 -139t114 -138t44 -183q0 -131 -68 -221t-183 -134.5t-257 -44.5q-115 0 -190.5 20.5t-139.5 55.5 q-44 29 -69 29q-19 0 -29 -21.5t-16 -68.5h-47q8 128 8 553h47q13 -229 101.5 -371.5zM805.5 1747q111.5 -86 242.5 -141l-10 -31q-134 25 -263 61.5t-206 71.5q-64 -35 -170.5 -71.5t-216.5 -61.5l-10 31q131 55 242.5 140.5t177.5 178.5h37q65 -92 176.5 -178z" />
<glyph unicode="&#x15d;" horiz-adv-x="946" d="M231.5 118q66.5 -100 188.5 -100q60 0 102.5 36.5t42.5 109.5q0 57 -25.5 102t-64.5 80t-117 96q-95 77 -142.5 121t-81.5 104.5t-34 137.5q0 88 48 152t129 97t176 33q78 0 143 -19t102 -44q20 -14 36 -14q38 0 48 75h45q-8 -103 -8 -360h-45q-18 134 -80.5 225.5 t-181.5 91.5q-61 0 -100 -35t-39 -96q0 -69 46 -119t111 -96t95 -69q84 -63 133.5 -110t80.5 -106.5t31 -136.5q0 -90 -52.5 -159t-141.5 -106.5t-195 -37.5q-109 0 -190 43q-61 31 -96 43q-6 2 -10 2q-33 0 -48 -73h-45q8 117 8 409h45q20 -177 86.5 -277zM648.5 1454.5 q98.5 -108.5 213.5 -176.5l-17 -29q-117 28 -229 70.5t-180 85.5q-56 -43 -145.5 -85.5t-182.5 -70.5l-16 29q113 67 210 175t156 226h37q55 -116 153.5 -224.5z" />
<glyph unicode="&#x15e;" horiz-adv-x="1196" d="M269.5 167.5q88.5 -142.5 271.5 -142.5q72 0 129.5 25.5t91 77.5t33.5 126q0 80 -37.5 143.5t-101 116t-169.5 121.5q-124 80 -196.5 139t-120 140t-47.5 188q0 124 63 208.5t167 125.5t229 41q74 0 128.5 -11t91 -27.5t79.5 -41.5q49 -29 69 -29q19 0 29 21.5t16 68.5 h47q-10 -137 -10 -467h-47q-7 111 -49.5 211t-119 162.5t-179.5 62.5q-65 0 -116.5 -25t-80 -72.5t-28.5 -110.5q0 -102 61 -167t159 -131.5t132 -89.5q120 -80 190 -139t114 -138t44 -183q0 -131 -68 -221t-183 -134.5t-257 -44.5q-115 0 -190.5 20.5t-139.5 55.5 q-44 29 -69 29q-19 0 -29 -21.5t-16 -68.5h-47q8 128 8 553h47q13 -229 101.5 -371.5zM757 -109q73 0 113 -30t40 -80q0 -83 -91.5 -124.5t-231.5 -41.5q-119 0 -191 25l11 36q72 -8 102 -8q75 0 130.5 20.5t55.5 63.5q0 53 -94 53q-48 0 -80 -14l68 219h55l-45 -143 q70 24 158 24z" />
<glyph unicode="&#x15f;" horiz-adv-x="946" d="M231.5 118q66.5 -100 188.5 -100q60 0 102.5 36.5t42.5 109.5q0 57 -25.5 102t-64.5 80t-117 96q-95 77 -142.5 121t-81.5 104.5t-34 137.5q0 88 48 152t129 97t176 33q78 0 143 -19t102 -44q20 -14 36 -14q38 0 48 75h45q-8 -103 -8 -360h-45q-18 134 -80.5 225.5 t-181.5 91.5q-61 0 -100 -35t-39 -96q0 -69 46 -119t111 -96t95 -69q84 -63 133.5 -110t80.5 -106.5t31 -136.5q0 -90 -52.5 -159t-141.5 -106.5t-195 -37.5q-109 0 -190 43q-61 31 -96 43q-6 2 -10 2q-33 0 -48 -73h-45q8 117 8 409h45q20 -177 86.5 -277zM558 -109 q68 0 105 -30t37 -80q0 -83 -81.5 -124.5t-205.5 -41.5q-110 0 -178 25l10 36q64 -8 90 -8q60 0 105 20.5t45 63.5q0 53 -68 53q-47 0 -82 -14l66 213h55l-43 -137q65 24 145 24z" />
<glyph unicode="&#x160;" horiz-adv-x="1196" d="M269.5 167.5q88.5 -142.5 271.5 -142.5q72 0 129.5 25.5t91 77.5t33.5 126q0 80 -37.5 143.5t-101 116t-169.5 121.5q-124 80 -196.5 139t-120 140t-47.5 188q0 124 63 208.5t167 125.5t229 41q74 0 128.5 -11t91 -27.5t79.5 -41.5q49 -29 69 -29q19 0 29 21.5t16 68.5 h47q-10 -137 -10 -467h-47q-7 111 -49.5 211t-119 162.5t-179.5 62.5q-65 0 -116.5 -25t-80 -72.5t-28.5 -110.5q0 -102 61 -167t159 -131.5t132 -89.5q120 -80 190 -139t114 -138t44 -183q0 -131 -68 -221t-183 -134.5t-257 -44.5q-115 0 -190.5 20.5t-139.5 55.5 q-44 29 -69 29q-19 0 -29 -21.5t-16 -68.5h-47q8 128 8 553h47q13 -229 101.5 -371.5zM801 1751q-111 -86 -178 -180h-37q-64 93 -175.5 178.5t-244.5 140.5l10 31q134 -23 263.5 -60t205.5 -73q64 36 170.5 73t216.5 60l10 -31q-130 -53 -241 -139z" />
<glyph unicode="&#x161;" horiz-adv-x="946" d="M231.5 118q66.5 -100 188.5 -100q60 0 102.5 36.5t42.5 109.5q0 57 -25.5 102t-64.5 80t-117 96q-95 77 -142.5 121t-81.5 104.5t-34 137.5q0 88 48 152t129 97t176 33q78 0 143 -19t102 -44q20 -14 36 -14q38 0 48 75h45q-8 -103 -8 -360h-45q-18 134 -80.5 225.5 t-181.5 91.5q-61 0 -100 -35t-39 -96q0 -69 46 -119t111 -96t95 -69q84 -63 133.5 -110t80.5 -106.5t31 -136.5q0 -90 -52.5 -159t-141.5 -106.5t-195 -37.5q-109 0 -190 43q-61 31 -96 43q-6 2 -10 2q-33 0 -48 -73h-45q8 117 8 409h45q20 -177 86.5 -277zM631 1476 q-97 -108 -156 -227h-37q-54 116 -152.5 225t-213.5 177l16 28q118 -28 230 -70t180 -85q55 43 144 85t183 70l17 -28q-114 -67 -211 -175z" />
<glyph unicode="&#x162;" horiz-adv-x="1368" d="M66 1102q0 140 -15 348q187 -6 633 -6t631 6q-15 -208 -15 -348q0 -88 7 -156h-47q-34 171 -83 270.5t-117.5 143t-166.5 43.5h-47v-1170q0 -85 17.5 -124t62 -53t139.5 -15v-41q-258 6 -389 6q-129 0 -375 -6v41q96 1 140.5 15t61.5 53t17 124v1170h-45 q-99 0 -167.5 -43t-117.5 -142.5t-84 -271.5h-47q7 68 7 156zM819 -109q73 0 113 -30t40 -80q0 -83 -91.5 -124.5t-231.5 -41.5q-119 0 -191 25l11 36q72 -8 102 -8q75 0 130.5 20.5t55.5 63.5q0 53 -94 53q-48 0 -80 -14l68 219h55l-45 -143q70 24 158 24z" />
<glyph unicode="&#x163;" horiz-adv-x="721" d="M707 1057v-41h-242v-826q0 -61 22 -86.5t68 -25.5q87 0 139 123l35 -19q-77 -211 -280 -211q-135 0 -205 70q-43 42 -58.5 106.5t-15.5 178.5v690h-172v41h172v272q169 0 295 66v-338h242zM538 -109q68 0 105 -30t37 -80q0 -83 -81.5 -124.5t-205.5 -41.5q-110 0 -178 25 l10 36q64 -8 90 -8q60 0 105 20.5t45 63.5q0 53 -68 53q-47 0 -82 -14l66 213h55l-43 -137q65 24 145 24z" />
<glyph unicode="&#x164;" horiz-adv-x="1368" d="M66 1102q0 140 -15 348q187 -6 633 -6t631 6q-15 -208 -15 -348q0 -88 7 -156h-47q-34 171 -83 270.5t-117.5 143t-166.5 43.5h-47v-1170q0 -85 17.5 -124t62 -53t139.5 -15v-41q-258 6 -389 6q-129 0 -375 -6v41q96 1 140.5 15t61.5 53t17 124v1170h-45 q-99 0 -167.5 -43t-117.5 -142.5t-84 -271.5h-47q7 68 7 156zM876 1751q-111 -86 -178 -180h-37q-64 93 -175.5 178.5t-244.5 140.5l10 31q134 -23 263.5 -60t205.5 -73q64 36 170.5 73t216.5 60l10 -31q-130 -53 -241 -139z" />
<glyph unicode="&#x165;" horiz-adv-x="721" d="M707 1057v-41h-242v-826q0 -61 22 -86.5t68 -25.5q87 0 139 123l35 -19q-77 -211 -280 -211q-135 0 -205 70q-43 42 -58.5 106.5t-15.5 178.5v690h-172v41h172v272q169 0 295 66v-338h242zM627 1580q80 0 170 24q4 -10 7 -37t3 -47q0 -38 -23 -88.5t-61.5 -110 t-114.5 -170.5l-28 8q41 237 41 297q0 43 -8.5 62.5t-32.5 19.5v43q17 -1 47 -1z" />
<glyph unicode="&#x166;" horiz-adv-x="1372" d="M68 1102q0 139 -15 348q187 -6 633 -6t631 6q-15 -208 -15 -348q0 -88 7 -156h-47q-34 171 -83 270.5t-117.5 143t-166.5 43.5h-47v-653h272v-41h-272v-476q0 -85 17.5 -124t62 -53t139.5 -15v-41q-258 6 -389 6q-129 0 -375 -6v41q96 1 140.5 15t61.5 53t17 124v476 h-286v41h286v653h-45q-99 0 -167.5 -43t-117.5 -142.5t-84 -271.5h-47q7 68 7 156z" />
<glyph unicode="&#x167;" horiz-adv-x="741" d="M454 -29q-135 0 -205 70q-43 42 -58.5 106.5t-15.5 178.5v495h-171v41h171v154h-172v41h172v272q169 0 295 66v-338h242v-41h-242v-154h243v-41h-243v-631q0 -61 22 -86.5t68 -25.5q87 0 139 123l35 -19q-77 -211 -280 -211z" />
<glyph unicode="&#x168;" horiz-adv-x="1411" d="M1275.5 1374.5q-31.5 -25.5 -43 -78t-11.5 -157.5v-543q0 -293 -84 -434q-56 -91 -160 -141t-256 -50q-236 0 -369 103q-65 52 -99.5 121t-47 161.5t-12.5 233.5v643q0 77 -11.5 112t-43 48t-99.5 16v41q105 -6 319 -6q212 0 326 6v-41q-74 -3 -107.5 -16t-46 -48 t-12.5 -112v-772q0 -144 26 -234.5t87.5 -137t169.5 -46.5q204 0 288.5 138t84.5 392v541q0 119 -14.5 176.5t-55.5 83.5t-129 35v41q77 -6 221 -6q114 0 178 6v-41q-67 -9 -98.5 -34.5zM380.5 1822q74.5 70 171.5 70q67 0 118 -19.5t143 -72.5t169 -53q109 0 170 111 l29 -11q-27 -135 -101 -204.5t-171 -69.5q-67 0 -117.5 19.5t-143.5 72.5t-172 53q-106 0 -170 -112l-28 10q28 136 102.5 206z" />
<glyph unicode="&#x169;" horiz-adv-x="1241" d="M1098.5 85.5q29.5 -42.5 101.5 -42.5v-43q-64 6 -127 6q-180 0 -299 -29v185q-93 -191 -330 -191q-153 0 -223 80q-34 38 -48.5 101t-14.5 165v519q0 94 -29.5 137t-101.5 43v43q65 -6 127 -6q179 0 299 28v-848q0 -85 25.5 -128.5t96.5 -43.5q54 0 99.5 31.5t72.5 86 t27 120.5v537q0 94 -29.5 137t-101.5 43v43q65 -6 127 -6q179 0 299 28v-858q0 -95 29.5 -137.5zM271.5 1540q68.5 70 155.5 70q58 0 99.5 -18.5t112.5 -67.5t134 -49q92 0 157 108l29 -14q-32 -145 -100 -215t-154 -70q-59 0 -101 19t-113 68.5t-134 49.5q-92 0 -158 -110 l-28 14q32 145 100.5 215z" />
<glyph unicode="&#x16a;" horiz-adv-x="1411" d="M1275.5 1374.5q-31.5 -25.5 -43 -78t-11.5 -157.5v-543q0 -293 -84 -434q-56 -91 -160 -141t-256 -50q-236 0 -369 103q-65 52 -99.5 121t-47 161.5t-12.5 233.5v643q0 77 -11.5 112t-43 48t-99.5 16v41q105 -6 319 -6q212 0 326 6v-41q-74 -3 -107.5 -16t-46 -48 t-12.5 -112v-772q0 -144 26 -234.5t87.5 -137t169.5 -46.5q204 0 288.5 138t84.5 392v541q0 119 -14.5 176.5t-55.5 83.5t-129 35v41q77 -6 221 -6q114 0 178 6v-41q-67 -9 -98.5 -34.5zM322 1677v52h819v-52h-819z" />
<glyph unicode="&#x16b;" horiz-adv-x="1241" d="M1098.5 85.5q29.5 -42.5 101.5 -42.5v-43q-64 6 -127 6q-180 0 -299 -29v185q-93 -191 -330 -191q-153 0 -223 80q-34 38 -48.5 101t-14.5 165v519q0 94 -29.5 137t-101.5 43v43q65 -6 127 -6q179 0 299 28v-848q0 -85 25.5 -128.5t96.5 -43.5q54 0 99.5 31.5t72.5 86 t27 120.5v537q0 94 -29.5 137t-101.5 43v43q65 -6 127 -6q179 0 299 28v-858q0 -95 29.5 -137.5zM242 1407v51h688v-51h-688z" />
<glyph unicode="&#x16c;" horiz-adv-x="1411" d="M1275.5 1374.5q-31.5 -25.5 -43 -78t-11.5 -157.5v-543q0 -293 -84 -434q-56 -91 -160 -141t-256 -50q-236 0 -369 103q-65 52 -99.5 121t-47 161.5t-12.5 233.5v643q0 77 -11.5 112t-43 48t-99.5 16v41q105 -6 319 -6q212 0 326 6v-41q-74 -3 -107.5 -16t-46 -48 t-12.5 -112v-772q0 -144 26 -234.5t87.5 -137t169.5 -46.5q204 0 288.5 138t84.5 392v541q0 119 -14.5 176.5t-55.5 83.5t-129 35v41q77 -6 221 -6q114 0 178 6v-41q-67 -9 -98.5 -34.5zM1083.5 1722.5q-61.5 -62.5 -154.5 -103t-210 -40.5t-209.5 40.5t-154 103 t-92.5 130.5l24 21q69 -51 176 -87t256 -36q265 0 433 125l24 -23q-31 -68 -92.5 -130.5z" />
<glyph unicode="&#x16d;" horiz-adv-x="1241" d="M1098.5 85.5q29.5 -42.5 101.5 -42.5v-43q-64 6 -127 6q-180 0 -299 -29v185q-93 -191 -330 -191q-153 0 -223 80q-34 38 -48.5 101t-14.5 165v519q0 94 -29.5 137t-101.5 43v43q65 -6 127 -6q179 0 299 28v-848q0 -85 25.5 -128.5t96.5 -43.5q54 0 99.5 31.5t72.5 86 t27 120.5v537q0 94 -29.5 137t-101.5 43v43q65 -6 127 -6q179 0 299 28v-858q0 -95 29.5 -137.5zM840.5 1366.5q-96.5 -94.5 -250.5 -94.5t-250.5 94.5t-140.5 228.5l35 19q128 -148 356 -148q226 0 357 148l34 -19q-44 -134 -140.5 -228.5z" />
<glyph unicode="&#x16e;" horiz-adv-x="1411" d="M1275.5 1374.5q-31.5 -25.5 -43 -78t-11.5 -157.5v-543q0 -293 -84 -434q-56 -91 -160 -141t-256 -50q-236 0 -369 103q-65 52 -99.5 121t-47 161.5t-12.5 233.5v643q0 77 -11.5 112t-43 48t-99.5 16v41q105 -6 319 -6q212 0 326 6v-41q-74 -3 -107.5 -16t-46 -48 t-12.5 -112v-772q0 -144 26 -234.5t87.5 -137t169.5 -46.5q204 0 288.5 138t84.5 392v541q0 119 -14.5 176.5t-55.5 83.5t-129 35v41q77 -6 221 -6q114 0 178 6v-41q-67 -9 -98.5 -34.5zM843.5 2004.5q51.5 -24.5 82 -69.5t30.5 -104q0 -60 -30.5 -106t-82 -70.5 t-111.5 -24.5q-59 0 -109.5 24.5t-81 70.5t-30.5 106q0 59 30.5 104t81 69.5t109.5 24.5q60 0 111.5 -24.5zM654 1967.5q-38 -18.5 -62 -54t-24 -84.5q0 -50 24 -85t61.5 -53t78.5 -18q42 0 80 17.5t62 53t24 85.5q0 49 -24 84.5t-62.5 54t-79.5 18.5q-40 0 -78 -18.5z" />
<glyph unicode="&#x16f;" horiz-adv-x="1241" d="M1098.5 85.5q29.5 -42.5 101.5 -42.5v-43q-64 6 -127 6q-180 0 -299 -29v185q-93 -191 -330 -191q-153 0 -223 80q-34 38 -48.5 101t-14.5 165v519q0 94 -29.5 137t-101.5 43v43q65 -6 127 -6q179 0 299 28v-848q0 -85 25.5 -128.5t96.5 -43.5q54 0 99.5 31.5t72.5 86 t27 120.5v537q0 94 -29.5 137t-101.5 43v43q65 -6 127 -6q179 0 299 28v-858q0 -95 29.5 -137.5zM703.5 1607.5q51.5 -24.5 82 -69.5t30.5 -104q0 -60 -30.5 -106t-82 -70.5t-111.5 -24.5q-59 0 -109.5 24.5t-81 70.5t-30.5 106q0 59 30.5 104t81 69.5t109.5 24.5 q60 0 111.5 -24.5zM514 1570.5q-38 -18.5 -62 -54t-24 -84.5q0 -50 24 -85t61.5 -53t78.5 -18q42 0 80 17.5t62 53t24 85.5q0 49 -24 84.5t-62.5 54t-79.5 18.5q-40 0 -78 -18.5z" />
<glyph unicode="&#x170;" horiz-adv-x="1411" d="M1275.5 1374.5q-31.5 -25.5 -43 -78t-11.5 -157.5v-543q0 -293 -84 -434q-56 -91 -160 -141t-256 -50q-236 0 -369 103q-65 52 -99.5 121t-47 161.5t-12.5 233.5v643q0 77 -11.5 112t-43 48t-99.5 16v41q105 -6 319 -6q212 0 326 6v-41q-74 -3 -107.5 -16t-46 -48 t-12.5 -112v-772q0 -144 26 -234.5t87.5 -137t169.5 -46.5q204 0 288.5 138t84.5 392v541q0 119 -14.5 176.5t-55.5 83.5t-129 35v41q77 -6 221 -6q114 0 178 6v-41q-67 -9 -98.5 -34.5zM508 1741.5q47 70.5 75 109t59 64.5q33 26 75 26q59 0 93 -49q21 -30 21 -62 q0 -55 -56 -97q-28 -20 -62.5 -35t-125.5 -48t-165 -69l-20 23q59 67 106 137.5zM940 1741.5q47 70.5 75 109t59 64.5q33 26 75 26q59 0 93 -49q22 -29 22 -62q0 -54 -57 -97q-28 -20 -62.5 -35t-125 -48t-164.5 -69l-21 23q59 67 106 137.5z" />
<glyph unicode="&#x171;" horiz-adv-x="1241" d="M1098.5 85.5q29.5 -42.5 101.5 -42.5v-43q-64 6 -127 6q-180 0 -299 -29v185q-93 -191 -330 -191q-153 0 -223 80q-34 38 -48.5 101t-14.5 165v519q0 94 -29.5 137t-101.5 43v43q65 -6 127 -6q179 0 299 28v-848q0 -85 25.5 -128.5t96.5 -43.5q54 0 99.5 31.5t72.5 86 t27 120.5v537q0 94 -29.5 137t-101.5 43v43q65 -6 127 -6q179 0 299 28v-858q0 -95 29.5 -137.5zM409.5 1426q25.5 86 39.5 130t36 76q39 57 103 57q36 0 65 -20q44 -30 44 -83q0 -39 -26 -77q-18 -26 -43.5 -49.5t-105.5 -90.5t-156 -144l-24 16q42 99 67.5 185zM770 1423 q26 86 41.5 131t38.5 78q36 57 100 57q36 0 65 -20q46 -31 46 -84q0 -38 -27 -76q-18 -26 -43.5 -50t-106 -91t-155.5 -143l-25 16q40 96 66 182z" />
<glyph unicode="&#x172;" horiz-adv-x="1411" d="M1275.5 1374.5q-31.5 -25.5 -43 -78t-11.5 -157.5v-543q0 -293 -84 -434q-56 -91 -160 -141t-256 -50q-236 0 -369 103q-65 52 -99.5 121t-47 161.5t-12.5 233.5v643q0 77 -11.5 112t-43 48t-99.5 16v41q105 -6 319 -6q212 0 326 6v-41q-74 -3 -107.5 -16t-46 -48 t-12.5 -112v-772q0 -144 26 -234.5t87.5 -137t169.5 -46.5q204 0 288.5 138t84.5 392v541q0 119 -14.5 176.5t-55.5 83.5t-129 35v41q77 -6 221 -6q114 0 178 6v-41q-67 -9 -98.5 -34.5zM770.5 -82.5q-54.5 -53.5 -54.5 -105.5q0 -84 86 -84q35 0 71.5 15.5t59.5 39.5 l27 -29q-54 -73 -121 -106t-160 -33q-88 0 -137 37.5t-49 103.5q0 84 96.5 148.5t272.5 101.5h77q-114 -35 -168.5 -88.5z" />
<glyph unicode="&#x173;" horiz-adv-x="1241" d="M1098.5 85.5q29.5 -42.5 101.5 -42.5v-43q-64 6 -127 6q-180 0 -299 -29v185q-93 -191 -330 -191q-153 0 -223 80q-34 38 -48.5 101t-14.5 165v519q0 94 -29.5 137t-101.5 43v43q65 -6 127 -6q179 0 299 28v-848q0 -85 25.5 -128.5t96.5 -43.5q54 0 99.5 31.5t72.5 86 t27 120.5v537q0 94 -29.5 137t-101.5 43v43q65 -6 127 -6q179 0 299 28v-858q0 -95 29.5 -137.5zM1133 -6q-82 -38 -118 -86t-36 -96q0 -84 84 -84q35 0 72.5 16t58.5 39l29 -29q-55 -73 -122.5 -106t-158.5 -33q-89 0 -137.5 37t-48.5 104q0 84 86.5 148.5t245.5 101.5 l84 12q-10 -12 -39 -24z" />
<glyph unicode="&#x174;" horiz-adv-x="1982" d="M1837 1444q97 0 158 6v-41q-120 -46 -180 -244l-361 -1169q-22 2 -72 2q-49 0 -71 -2l-302 913l-302 -913q-23 2 -72 2t-72 -2l-459 1282q-23 67 -58.5 98t-70.5 33v41q123 -6 306 -6q172 0 251 6v-41q-71 -9 -71 -80q0 -38 18 -92l299 -864l208 608l-105 317 q-20 60 -48 84t-65 27v41q114 -6 293 -6q199 0 295 6v-41q-75 -2 -107 -17t-32 -59q0 -33 20 -96l280 -857l195 619q46 150 46 239t-43.5 128.5t-131.5 42.5v41q138 -6 254 -6zM1220.5 1747q111.5 -86 242.5 -141l-10 -31q-134 25 -263 61.5t-206 71.5q-64 -35 -170.5 -71.5 t-216.5 -61.5l-10 31q131 55 242.5 140.5t177.5 178.5h37q65 -92 176.5 -178z" />
<glyph unicode="&#x175;" horiz-adv-x="1612" d="M1456 1053q103 0 156 6v-41q-43 -12 -78 -51.5t-61 -124.5l-273 -846q-33 3 -67 3q-33 0 -66 -3l-279 760l-227 -760q-31 3 -66 3q-32 0 -67 -3l-324 905q-40 115 -118 115v43q132 -12 290 -12q103 0 267 12v-43q-45 0 -71 -3.5t-41.5 -16.5t-15.5 -40q0 -20 11 -55 l186 -579l222 739q26 -1 75 -1q50 0 74 1l265 -782l130 411q28 90 28 156q0 157 -161 172v41q96 -6 211 -6zM1013.5 1454.5q98.5 -108.5 213.5 -176.5l-17 -29q-117 28 -229 70.5t-180 85.5q-56 -43 -145.5 -85.5t-182.5 -70.5l-16 29q113 67 210 175t156 226h37 q55 -116 153.5 -224.5z" />
<glyph unicode="&#x176;" horiz-adv-x="1276" d="M1108 1446q94 0 156 6v-41q-47 -20 -94.5 -75.5t-102.5 -161.5l-242 -479v-478q0 -77 11.5 -112t42.5 -48t100 -16v-41q-111 6 -315 6q-219 0 -318 -6v41q68 3 99.5 16t43 48t11.5 112v346l-396 731q-63 115 -118 115v43q89 -10 241 -10q192 0 385 10v-43 q-72 0 -113.5 -12.5t-41.5 -47.5q0 -21 14 -46l312 -600l159 319q81 162 81 253q0 69 -44 101t-127 35v41q138 -6 256 -6zM872.5 1747q111.5 -86 242.5 -141l-10 -31q-134 25 -263 61.5t-206 71.5q-64 -35 -170.5 -71.5t-216.5 -61.5l-10 31q131 55 242.5 140.5t177.5 178.5 h37q65 -92 176.5 -178z" />
<glyph unicode="&#x177;" horiz-adv-x="1063" d="M893 1053q103 0 158 6v-41q-43 -11 -77.5 -51t-64.5 -125l-366 -1030q-41 -107 -90 -146q-60 -51 -179 -51q-53 0 -104.5 17.5t-85 54.5t-33.5 92q0 63 45 101t119 38q69 0 111.5 -34t42.5 -95q0 -42 -27.5 -78.5t-75.5 -54.5q15 -2 47 -2q128 0 187 162l33 98l-435 987 q-32 71 -63.5 93t-63.5 22v43q135 -12 281 -12q121 0 285 12v-43q-44 0 -69 -3t-42.5 -15t-17.5 -39q0 -24 14 -58l251 -605l140 394q33 98 33 164q0 78 -40 118.5t-112 45.5v41q96 -6 199 -6zM699.5 1454.5q98.5 -108.5 213.5 -176.5l-17 -29q-117 28 -229 70.5t-180 85.5 q-56 -43 -145.5 -85.5t-182.5 -70.5l-16 29q113 67 210 175t156 226h37q55 -116 153.5 -224.5z" />
<glyph unicode="&#x178;" horiz-adv-x="1276" d="M1108 1446q94 0 156 6v-41q-47 -20 -94.5 -75.5t-102.5 -161.5l-242 -479v-478q0 -77 11.5 -112t42.5 -48t100 -16v-41q-111 6 -315 6q-219 0 -318 -6v41q68 3 99.5 16t43 48t11.5 112v346l-396 731q-63 115 -118 115v43q89 -10 241 -10q192 0 385 10v-43 q-72 0 -113.5 -12.5t-41.5 -47.5q0 -21 14 -46l312 -600l159 319q81 162 81 253q0 69 -44 101t-127 35v41q138 -6 256 -6zM507 1856q36 -22 58 -58t22 -76q0 -41 -22 -76t-58 -56t-76 -21q-41 0 -76.5 20.5t-56 56t-20.5 76.5q0 40 21 76t56 58t76 22q40 0 76 -22z M998.5 1856q35.5 -22 56.5 -58t21 -76q0 -41 -21 -76.5t-56.5 -56t-75.5 -20.5q-42 0 -78 20.5t-57 56t-21 76.5t21 77t57 57.5t78 21.5q40 0 75.5 -22z" />
<glyph unicode="&#x179;" horiz-adv-x="1233" d="M428 47h225q102 0 193 43.5t156.5 143t82.5 258.5h48q-7 -67 -7 -181q0 -188 15 -311q-152 6 -510 6q-381 0 -551 -6v41l715 1362h-234q-169 0 -275.5 -96t-133.5 -324h-48q7 55 7 156q0 124 -15 311q135 -6 461 -6q404 0 584 6v-41zM577.5 1703q44.5 44 110 114.5 t112.5 95.5q32 16 63 16q32 0 60 -16t43 -45q12 -22 12 -47q0 -31 -18 -59t-51 -46q-45 -25 -120.5 -44t-143.5 -37t-162 -54l-15 25q65 53 109.5 97z" />
<glyph unicode="&#x17a;" horiz-adv-x="971" d="M504 31q132 0 222 86.5t105 279.5h43q0 -276 9 -405q-167 8 -394 8q-199 0 -426 -10l512 1038h-114q-292 0 -320 -366h-43q0 290 -8 405q167 -8 393 -8q201 0 426 10l-512 -1038h107zM472.5 1440.5q34.5 88.5 53 132.5t48.5 78q17 23 42.5 35.5t52.5 12.5q42 0 72 -26 q38 -30 38 -79q0 -45 -31 -83q-32 -40 -95 -85t-120 -87.5t-132 -111.5l-22 18q59 107 93.5 195.5z" />
<glyph unicode="&#x17b;" horiz-adv-x="1233" d="M428 47h225q102 0 193 43.5t156.5 143t82.5 258.5h48q-7 -67 -7 -181q0 -188 15 -311q-152 6 -510 6q-381 0 -551 -6v41l715 1362h-234q-169 0 -275.5 -96t-133.5 -324h-48q7 55 7 156q0 124 -15 311q135 -6 461 -6q404 0 584 6v-41zM753.5 1942q50.5 -42 50.5 -115 q0 -74 -50.5 -116t-135.5 -42q-87 0 -137 42t-50 116q0 73 50 115t137 42q85 0 135.5 -42z" />
<glyph unicode="&#x17c;" horiz-adv-x="971" d="M504 31q132 0 222 86.5t105 279.5h43q0 -276 9 -405q-167 8 -394 8q-199 0 -426 -10l512 1038h-114q-292 0 -320 -366h-43q0 290 -8 405q167 -8 393 -8q201 0 426 10l-512 -1038h107zM653.5 1545q50.5 -42 50.5 -115q0 -74 -50.5 -116t-135.5 -42q-87 0 -137 42t-50 116 q0 73 50 115t137 42q85 0 135.5 -42z" />
<glyph unicode="&#x17d;" horiz-adv-x="1233" d="M428 47h225q102 0 193 43.5t156.5 143t82.5 258.5h48q-7 -67 -7 -181q0 -188 15 -311q-152 6 -510 6q-381 0 -551 -6v41l715 1362h-234q-169 0 -275.5 -96t-133.5 -324h-48q7 55 7 156q0 124 -15 311q135 -6 461 -6q404 0 584 6v-41zM809 1751q-111 -86 -178 -180h-37 q-64 93 -175.5 178.5t-244.5 140.5l10 31q134 -23 263.5 -60t205.5 -73q64 36 170.5 73t216.5 60l10 -31q-130 -53 -241 -139z" />
<glyph unicode="&#x17e;" horiz-adv-x="971" d="M504 31q132 0 222 86.5t105 279.5h43q0 -276 9 -405q-167 8 -394 8q-199 0 -426 -10l512 1038h-114q-292 0 -320 -366h-43q0 290 -8 405q167 -8 393 -8q201 0 426 10l-512 -1038h107zM672 1476q-97 -108 -156 -227h-37q-54 116 -152.5 225t-213.5 177l16 28 q118 -28 230 -70t180 -85q55 43 144 85t183 70l17 -28q-114 -67 -211 -175z" />
<glyph unicode="&#x192;" horiz-adv-x="1128" d="M370.5 1258.5q12.5 80.5 40.5 137.5t76 103q47 47 125 75t168 28q78 0 151.5 -22t121 -70t47.5 -121q0 -64 -42 -107t-108 -43q-70 0 -112.5 38t-42.5 101q0 54 29.5 95t84.5 61q-8 13 -33 22t-57 9q-40 0 -75 -19t-54 -51q-18 -30 -25.5 -79.5t-9.5 -123.5t-2 -235h371 v-41h-371v-823q0 -174 -29 -283.5t-102 -183.5q-109 -111 -332 -111q-61 0 -118.5 15.5t-96 51.5t-38.5 93q0 60 43.5 96.5t115.5 36.5q67 0 107.5 -34t40.5 -95q0 -35 -21.5 -69t-64.5 -56q55 4 78 18q30 5 56 22t40 44q17 35 21.5 97t4.5 210v971h-278v41h278 q0 121 12.5 201.5z" />
<glyph unicode="&#x1f4;" horiz-adv-x="1505" d="M1308 80q-15 37 -42 37q-34 0 -111 -43q-178 -103 -336 -103q-236 0 -400 87.5t-247.5 253t-83.5 397.5q0 229 94.5 403.5t263 270.5t383.5 96q126 0 213.5 -34.5t171.5 -98.5q25 -19 41 -19q21 0 33 29t19 94h47q-8 -139 -8 -496h-48q-15 138 -47 224.5t-106 146.5 q-49 47 -121 73.5t-147 26.5q-143 0 -238 -97.5t-140.5 -257.5t-45.5 -349q0 -709 393 -709q89 0 145 41q27 18 38 43t11 64v200q0 96 -16 140.5t-57.5 61t-132.5 20.5v41q118 -7 350 -7q189 0 274 7v-41q-42 -4 -60 -16.5t-25 -47t-7 -112.5v-406h-41q-2 43 -17 80z M750.5 1703q44.5 44 110 114.5t112.5 95.5q32 16 63 16q32 0 60 -16t43 -45q12 -22 12 -47q0 -31 -18 -59t-51 -46q-45 -25 -120.5 -44t-143.5 -37t-162 -54l-15 25q65 53 109.5 97z" />
<glyph unicode="&#x1f5;" horiz-adv-x="1112" d="M1010.5 210.5q76.5 -51.5 76.5 -167.5q0 -105 -66 -203.5t-200 -161.5t-327 -63q-150 0 -251.5 23.5t-151.5 63.5t-50 91q0 55 41.5 82t135.5 57t133 58h-48q-85 0 -157 41t-72 149q0 59 24.5 106.5t81 91t152.5 89.5q-105 36 -164 109.5t-59 185.5q0 162 120.5 243.5 t319.5 81.5q82 0 152 -14q-3 52 8 103q10 85 58 136.5t136 51.5q65 0 107.5 -34.5t42.5 -90.5q0 -52 -40.5 -85.5t-101.5 -33.5q-62 0 -97 29t-54 86q-22 -37 -31 -105q-1 -10 -1 -30q0 -22 1 -33q122 -31 191 -107.5t69 -197.5q0 -109 -56.5 -182t-155.5 -108.5t-228 -35.5 q-97 0 -177 20q-59 -34 -87.5 -62t-28.5 -64q0 -68 82 -68h473q123 0 199.5 -51.5zM447 985q-35 -66 -35 -223t35 -223t102 -66q68 0 102.5 66t34.5 223t-34.5 223t-102.5 66q-67 0 -102 -66zM337.5 -89q-18.5 -47 -18.5 -85q0 -85 64.5 -130.5t165.5 -45.5q83 0 154.5 30.5 t114 88.5t42.5 135q0 44 -26 65t-93 21h-351q-34 -32 -52.5 -79zM498.5 1440.5q34.5 88.5 53 132.5t48.5 78q17 23 42.5 35.5t52.5 12.5q42 0 72 -26q38 -30 38 -79q0 -45 -31 -83q-32 -40 -95 -85t-120 -87.5t-132 -111.5l-22 18q59 107 93.5 195.5z" />
<glyph unicode="&#x218;" horiz-adv-x="1196" d="M269.5 167.5q88.5 -142.5 271.5 -142.5q72 0 129.5 25.5t91 77.5t33.5 126q0 80 -37.5 143.5t-101 116t-169.5 121.5q-124 80 -196.5 139t-120 140t-47.5 188q0 124 63 208.5t167 125.5t229 41q74 0 128.5 -11t91 -27.5t79.5 -41.5q49 -29 69 -29q19 0 29 21.5t16 68.5 h47q-10 -137 -10 -467h-47q-7 111 -49.5 211t-119 162.5t-179.5 62.5q-65 0 -116.5 -25t-80 -72.5t-28.5 -110.5q0 -102 61 -167t159 -131.5t132 -89.5q120 -80 190 -139t114 -138t44 -183q0 -131 -68 -221t-183 -134.5t-257 -44.5q-115 0 -190.5 20.5t-139.5 55.5 q-44 29 -69 29q-19 0 -29 -21.5t-16 -68.5h-47q8 128 8 553h47q13 -229 101.5 -371.5zM702 -344q-34 -31 -100 -31q-68 0 -107 33t-39 96q0 61 42 97t114 36q76 0 122 -42t46 -115q0 -95 -57.5 -154t-176.5 -74l-8 41q150 27 164 113z" />
<glyph unicode="&#x219;" horiz-adv-x="946" d="M231.5 118q66.5 -100 188.5 -100q60 0 102.5 36.5t42.5 109.5q0 57 -25.5 102t-64.5 80t-117 96q-95 77 -142.5 121t-81.5 104.5t-34 137.5q0 88 48 152t129 97t176 33q78 0 143 -19t102 -44q20 -14 36 -14q38 0 48 75h45q-8 -103 -8 -360h-45q-18 134 -80.5 225.5 t-181.5 91.5q-61 0 -100 -35t-39 -96q0 -69 46 -119t111 -96t95 -69q84 -63 133.5 -110t80.5 -106.5t31 -136.5q0 -90 -52.5 -159t-141.5 -106.5t-195 -37.5q-109 0 -190 43q-61 31 -96 43q-6 2 -10 2q-33 0 -48 -73h-45q8 117 8 409h45q20 -177 86.5 -277zM129 -342 q-37 -33 -100 -33q-67 0 -106.5 33.5t-39.5 95.5q0 63 42 98t114 35q74 0 121 -42.5t47 -114.5q0 -93 -58 -152t-176 -76l-8 43q152 24 164 113z" />
<glyph unicode="&#x21a;" horiz-adv-x="1368" d="M66 1102q0 140 -15 348q187 -6 633 -6t631 6q-15 -208 -15 -348q0 -88 7 -156h-47q-34 171 -83 270.5t-117.5 143t-166.5 43.5h-47v-1170q0 -85 17.5 -124t62 -53t139.5 -15v-41q-258 6 -389 6q-129 0 -375 -6v41q96 1 140.5 15t61.5 53t17 124v1170h-45 q-99 0 -167.5 -43t-117.5 -142.5t-84 -271.5h-47q7 68 7 156zM764 -344q-34 -31 -100 -31q-68 0 -107 33t-39 96q0 61 42 97t114 36q76 0 122 -42t46 -115q0 -95 -57.5 -154t-176.5 -74l-8 41q150 27 164 113z" />
<glyph unicode="&#x21b;" horiz-adv-x="721" d="M707 1057v-41h-242v-826q0 -61 22 -86.5t68 -25.5q87 0 139 123l35 -19q-77 -211 -280 -211q-135 0 -205 70q-43 42 -58.5 106.5t-15.5 178.5v690h-172v41h172v272q169 0 295 66v-338h242zM109 -342q-37 -33 -100 -33q-67 0 -106.5 33.5t-39.5 95.5q0 63 42 98t114 35 q74 0 121 -42.5t47 -114.5q0 -93 -58 -152t-176 -76l-8 43q152 24 164 113z" />
<glyph unicode="&#x237;" horiz-adv-x="608" d="M438 -90q-29 -110 -102 -184q-111 -111 -332 -111q-109 0 -182 37q-38 19 -59 53.5t-21 75.5q0 62 44 99.5t118 37.5q71 0 112 -33.5t41 -97.5q0 -43 -25.5 -78t-76.5 -53q32 -4 47 -4q87 0 129 57q24 37 32.5 110.5t8.5 225.5v791q0 94 -29.5 137t-101.5 43v43 q65 -6 127 -6q179 0 299 28v-888q0 -173 -29 -283z" />
<glyph unicode="&#x2c6;" horiz-adv-x="823" d="M583.5 1454.5q98.5 -108.5 213.5 -176.5l-17 -29q-117 28 -229 70.5t-180 85.5q-56 -43 -145.5 -85.5t-182.5 -70.5l-16 29q113 67 210 175t156 226h37q55 -116 153.5 -224.5z" />
<glyph unicode="&#x2c7;" horiz-adv-x="823" d="M586 1476q-97 -108 -156 -227h-37q-54 116 -152.5 225t-213.5 177l16 28q118 -28 230 -70t180 -85q55 43 144 85t183 70l17 -28q-114 -67 -211 -175z" />
<glyph unicode="&#x2d8;" horiz-adv-x="877" d="M688.5 1366.5q-96.5 -94.5 -250.5 -94.5t-250.5 94.5t-140.5 228.5l35 19q128 -148 356 -148q226 0 357 148l34 -19q-44 -134 -140.5 -228.5z" />
<glyph unicode="&#x2d9;" horiz-adv-x="406" d="M338.5 1545q50.5 -42 50.5 -115q0 -74 -50.5 -116t-135.5 -42q-87 0 -137 42t-50 116q0 73 50 115t137 42q85 0 135.5 -42z" />
<glyph unicode="&#x2da;" horiz-adv-x="539" d="M379.5 1607.5q51.5 -24.5 82 -69.5t30.5 -104q0 -60 -30.5 -106t-82 -70.5t-111.5 -24.5q-59 0 -109.5 24.5t-81 70.5t-30.5 106q0 59 30.5 104t81 69.5t109.5 24.5q60 0 111.5 -24.5zM190 1570.5q-38 -18.5 -62 -54t-24 -84.5q0 -50 24 -85t61.5 -53t78.5 -18 q42 0 80 17.5t62 53t24 85.5q0 49 -24 84.5t-62.5 54t-79.5 18.5q-40 0 -78 -18.5z" />
<glyph unicode="&#x2db;" horiz-adv-x="496" d="M379 -6q-82 -38 -118 -86t-36 -96q0 -84 84 -84q35 0 72.5 16t58.5 39l29 -29q-55 -73 -122.5 -106t-158.5 -33q-89 0 -137.5 37t-48.5 104q0 84 86.5 148.5t245.5 101.5l84 12q-10 -12 -39 -24z" />
<glyph unicode="&#x2dc;" horiz-adv-x="842" d="M127.5 1540q68.5 70 155.5 70q58 0 99.5 -18.5t112.5 -67.5t134 -49q92 0 157 108l29 -14q-32 -145 -100 -215t-154 -70q-59 0 -101 19t-113 68.5t-134 49.5q-92 0 -158 -110l-28 14q32 145 100.5 215z" />
<glyph unicode="&#x2dd;" horiz-adv-x="842" d="M139.5 1426q25.5 86 39.5 130t36 76q39 57 103 57q36 0 65 -20q44 -30 44 -83q0 -39 -26 -77q-18 -26 -43.5 -49.5t-105.5 -90.5t-156 -144l-24 16q42 99 67.5 185zM500 1423q26 86 41.5 131t38.5 78q36 57 100 57q36 0 65 -20q46 -31 46 -84q0 -38 -27 -76 q-18 -26 -43.5 -50t-106 -91t-155.5 -143l-25 16q40 96 66 182z" />
<glyph unicode="&#x326;" horiz-adv-x="0" d="M-131 -342q-37 -33 -100 -33q-67 0 -106.5 33.5t-39.5 95.5q0 63 42 98t114 35q74 0 121 -42.5t47 -114.5q0 -93 -58 -152t-176 -76l-8 43q152 24 164 113z" />
<glyph unicode="&#x394;" horiz-adv-x="1024" d="M510 6q-227 0 -455 -6l477 1479h33l396 -1479q-225 6 -451 6zM651 61l-248 902l-286 -902h534z" />
<glyph unicode="&#x3a9;" horiz-adv-x="1550" d="M417 357q-153 191 -222.5 318.5t-69.5 291.5q0 159 76 274t222 176.5t353 61.5t353 -61.5t222 -176.5t76 -274q0 -164 -69.5 -291.5t-222.5 -318.5t-224 -310h109q97 0 165 35.5t112.5 116t66.5 215.5h47q-6 -58 -6 -148q0 -118 14 -266q-78 6 -266 6q-50 0 -137.5 -2.5 t-155.5 -3.5v33q95 169 173.5 400t78.5 493q0 254 -78.5 385t-257.5 131q-180 0 -258 -131t-78 -385q0 -263 78.5 -496t173.5 -397v-33q-66 1 -155.5 3.5t-139.5 2.5q-188 0 -266 -6q14 148 14 266q0 90 -6 148h47q22 -135 66.5 -215.5t112.5 -116t165 -35.5h111 q-71 119 -224 310z" />
<glyph unicode="&#x3bc;" horiz-adv-x="1434" d="M1310.5 282q-39.5 -123 -106 -217t-155.5 -94q-130 0 -130 183q0 36 7 92l8 72q-55 -148 -139 -247.5t-199 -99.5q-73 0 -109.5 59.5t-46.5 152.5q-21 -202 -42 -307t-50 -161q-24 -43 -70.5 -71.5t-107.5 -28.5q-56 0 -88.5 29t-32.5 80q0 39 19.5 74t44 61t90.5 90 q87 85 151 212t93 346q-9 98 -19 166t-23.5 143t-13.5 102q0 89 53 127t121 38q56 0 92.5 -27.5t36.5 -81.5q0 -8 -2 -26q-6 -44 -57 -118.5t-90 -150t-68 -210.5h-5l-3 -14q7 -82 51.5 -118t110.5 -36q115 0 193 51t128 168l3 -1l1 6q-10 148 -23 260t-13 132 q0 90 48.5 128t112.5 38q62 0 102 -28t40 -84q0 -7 -2 -23q-6 -43 -60 -109.5t-94.5 -131t-72.5 -181.5q-7 -48 -7 -92q0 -75 26.5 -104t82.5 -29q83 0 138.5 50.5t94.5 168.5l39 -8q-18 -107 -57.5 -230z" />
<glyph unicode="&#x3c0;" horiz-adv-x="1231" d="M743 421q0 -120 103 -120q83 0 138.5 50.5t94.5 168.5l39 -8q-18 -111 -54 -232.5t-100 -215t-153 -93.5q-71 0 -105.5 49.5t-34.5 155.5q0 72 17 180l63 418h-195q-45 -501 -155 -702q-24 -44 -68.5 -72.5t-111.5 -28.5q-54 0 -86.5 28.5t-32.5 76.5q0 41 18.5 72.5 t50.5 57t87 60.5q84 52 133 105.5t81.5 147.5t49.5 255h-90q-91 0 -150.5 -16.5t-106.5 -63.5t-85 -139l-35 8q37 164 97 271t162 165t261 58h590v-283h-374l-46 -319q-2 -24 -2 -34z" />
<glyph unicode="&#x401;" horiz-adv-x="1298" d="M1192 311q0 -188 14 -311q-139 6 -469 6q-446 0 -667 -6v41q68 3 99 16t42.5 48t11.5 112v1016q0 77 -11.5 112t-42.5 48t-99 16v41q221 -6 667 -6q301 0 428 6q-14 -169 -14 -303q0 -91 6 -139h-47q-21 149 -64 235t-109 123t-163 37h-84q-64 0 -92.5 -10.5t-38.5 -40 t-10 -95.5v-507h65q110 0 166 80t78 190h47q-7 -101 -7 -193l1 -98q0 -104 12 -291h-47q-41 271 -250 271h-65v-516q0 -66 10 -95.5t38.5 -40t92.5 -10.5h101q144 0 233.5 100t126.5 336h47q-6 -67 -6 -172zM474 1856q36 -22 58 -58t22 -76q0 -41 -22 -76t-58 -56t-76 -21 q-41 0 -76.5 20.5t-56 56t-20.5 76.5q0 40 21 76t56 58t76 22q40 0 76 -22zM965.5 1856q35.5 -22 56.5 -58t21 -76q0 -41 -21 -76.5t-56.5 -56t-75.5 -20.5q-42 0 -78 20.5t-57 56t-21 76.5t21 77t57 57.5t78 21.5q40 0 75.5 -22z" />
<glyph unicode="&#x402;" horiz-adv-x="1847" d="M1035.5 813q114.5 39 254.5 39q149 0 265 -49.5t182.5 -149.5t66.5 -245q0 -144 -69 -242.5t-185 -146.5t-258 -48q-88 0 -167.5 27t-129 82.5t-49.5 136.5q0 50 23.5 87.5t63.5 58t89 20.5q72 0 115 -41.5t43 -112.5q0 -133 -158 -180q20 -15 54.5 -25t70.5 -10 q116 0 180 96.5t64 288.5q0 185 -69.5 286t-241.5 101q-99 0 -193.5 -33.5t-140.5 -82.5v-693q-113 29 -297 29q-128 0 -248 -6v41q96 1 140.5 15t61.5 53t17 124v1170h-45q-99 0 -167.5 -43t-117.5 -142.5t-84 -271.5h-47q7 68 7 156q0 140 -15 348q187 -6 633 -6t631 6 q-15 -193 -15 -324q0 -87 7 -155h-47q-52 221 -139.5 326.5t-227.5 105.5h-47v-690q75 61 189.5 100z" />
<glyph unicode="&#x403;" horiz-adv-x="1171" d="M737 1444q277 0 396 6q-15 -170 -15 -311q0 -97 6 -156h-47q-27 157 -73 249t-113.5 131.5t-165.5 39.5h-35q-64 0 -92.5 -10.5t-38.5 -40t-10 -95.5v-1040q0 -77 13.5 -112t50.5 -48t118 -16v-41q-120 6 -338 6q-219 0 -323 -6v41q68 3 99 16t42.5 48t11.5 112v1016 q0 77 -11.5 112t-42.5 48t-99 16v41q221 -6 667 -6zM519.5 1703q44.5 44 110 114.5t112.5 95.5q32 16 63 16q32 0 60 -16t43 -45q12 -22 12 -47q0 -31 -18 -59t-51 -46q-45 -25 -120.5 -44t-143.5 -37t-162 -54l-15 25q65 53 109.5 97z" />
<glyph unicode="&#x404;" horiz-adv-x="1450" d="M1329 0h-47q-5 64 -16.5 92.5t-33.5 28.5q-16 0 -42 -17q-60 -42 -111.5 -70t-118 -45.5t-149.5 -17.5q-217 0 -380.5 88t-253 255.5t-89.5 398.5q0 226 92 400t257 270t376 96q122 0 208.5 -35t168.5 -98q22 -18 40 -18q42 0 52 122h47q-8 -120 -8 -422h-47 q-19 85 -35.5 132.5t-43.5 85.5t-75 79q-49 49 -117 74.5t-143 25.5q-141 0 -232 -97t-133 -256t-42 -351l1 -65q36 132 107 202t154 70q54 0 99.5 -20.5t133.5 -78t154 -57.5q47 0 91 32.5t62 102.5l35 -10q-18 -116 -58 -195.5t-94 -119t-116 -39.5q-55 0 -99.5 20 t-132.5 77.5t-161 57.5q-52 0 -97.5 -27.5t-72.5 -85.5q14 -161 63 -288.5t136 -202t210 -74.5q71 0 139 26t115 75q52 40 81.5 92.5t44 121.5t26.5 181h47q0 -371 8 -516z" />
<glyph unicode="&#x405;" horiz-adv-x="1196" d="M269.5 167.5q88.5 -142.5 271.5 -142.5q72 0 129.5 25.5t91 77.5t33.5 126q0 80 -37.5 143.5t-101 116t-169.5 121.5q-124 80 -196.5 139t-120 140t-47.5 188q0 124 63 208.5t167 125.5t229 41q74 0 128.5 -11t91 -27.5t79.5 -41.5q49 -29 69 -29q19 0 29 21.5t16 68.5 h47q-10 -137 -10 -467h-47q-7 111 -49.5 211t-119 162.5t-179.5 62.5q-65 0 -116.5 -25t-80 -72.5t-28.5 -110.5q0 -102 61 -167t159 -131.5t132 -89.5q120 -80 190 -139t114 -138t44 -183q0 -131 -68 -221t-183 -134.5t-257 -44.5q-115 0 -190.5 20.5t-139.5 55.5 q-44 29 -69 29q-19 0 -29 -21.5t-16 -68.5h-47q8 128 8 553h47q13 -229 101.5 -371.5z" />
<glyph unicode="&#x406;" horiz-adv-x="770" d="M602 1393q-31 -13 -42 -48t-11 -112v-1016q0 -77 11 -112t42 -48t100 -16v-41q-109 6 -309 6q-219 0 -323 -6v41q68 3 99 16t42.5 48t11.5 112v1016q0 77 -11.5 112t-42.5 48t-99 16v41q103 -6 323 -6q200 0 309 6v-41q-69 -3 -100 -16z" />
<glyph unicode="&#x407;" horiz-adv-x="770" d="M602 1393q-31 -13 -42 -48t-11 -112v-1016q0 -77 11 -112t42 -48t100 -16v-41q-109 6 -309 6q-219 0 -323 -6v41q68 3 99 16t42.5 48t11.5 112v1016q0 77 -11.5 112t-42.5 48t-99 16v41q103 -6 323 -6q200 0 309 6v-41q-69 -3 -100 -16zM222 1856q36 -22 58 -58t22 -76 q0 -41 -22 -76t-58 -56t-76 -21q-41 0 -76.5 20.5t-56 56t-20.5 76.5q0 40 21 76t56 58t76 22q40 0 76 -22zM713.5 1856q35.5 -22 56.5 -58t21 -76q0 -41 -21 -76.5t-56.5 -56t-75.5 -20.5q-42 0 -78 20.5t-57 56t-21 76.5t21 77t57 57.5t78 21.5q40 0 75.5 -22z" />
<glyph unicode="&#x408;" horiz-adv-x="745" d="M590 1393q-31 -13 -42 -48t-11 -112v-750v-122q0 -137 -6.5 -238t-28.5 -174q-28 -96 -98.5 -171.5t-178 -119t-241.5 -43.5q-130 0 -207 39q-101 50 -101 147q0 63 45 101.5t119 38.5q72 0 114 -35.5t42 -100.5q0 -46 -27 -82t-78 -53q20 -14 74 -14q75 0 129 40t78 107 q18 53 26.5 112t10.5 140t2 242v936q0 77 -11.5 112t-43 48t-99.5 16v41q102 -6 312 -6q207 0 321 6v-41q-69 -3 -100 -16z" />
<glyph unicode="&#x409;" horiz-adv-x="2013" d="M1368 823q212 0 344.5 -52.5t191 -141.5t58.5 -203q0 -118 -57.5 -212t-180 -151.5t-311.5 -62.5h-6h-29q-88 0 -185 5l-114 1q-223 0 -340 -6v41q81 3 118 16t51 48t14 112v1016q0 74 -13.5 111.5t-43 51t-85.5 13.5h-14q-51 0 -79 -14t-42.5 -51.5t-19.5 -110.5 q-6 -66 -32.5 -447.5t-121.5 -598t-274 -216.5q-62 0 -113.5 24t-82 67.5t-30.5 99.5q0 52 24.5 91.5t67.5 61t95 21.5q68 0 109.5 -34t41.5 -93q0 -71 -44 -119.5t-120 -69.5q25 -10 52 -10q146 0 223.5 174t106 413t51.5 636q2 32 2 45q0 53 -15 79.5t-50 37.5t-103 14v41 q85 -6 211 -6q31 0 90.5 3t89.5 3q50 0 141.5 -3t151.5 -3q209 0 317 6v-41q-74 -3 -107.5 -16t-46 -48t-12.5 -112v-410h121zM1258.5 108q11.5 -35 42.5 -48.5t98 -17.5q125 8 174 98.5t49 265.5q0 183 -65 279.5t-230 96.5h-80v-565q0 -74 11.5 -109z" />
<glyph unicode="&#x40a;" horiz-adv-x="2175" d="M1538 754q312 0 453 -100.5t141 -264.5q0 -108 -58.5 -194.5t-184 -139t-318.5 -55.5h-3h-20q-88 0 -186 6h-102q-208 0 -322 -6v41q68 3 99.5 16t43 48t11.5 112v492h-543v-492q0 -77 11 -112t42 -48t100 -16v-41q-109 6 -309 6q-219 0 -323 -6v41q68 3 99 16t42.5 48 t11.5 112v1016q0 77 -11.5 112t-42.5 48t-99 16v41q103 -6 323 -6q200 0 309 6v-41q-69 -3 -100 -16t-42 -48t-11 -112v-483h543v483q0 77 -11.5 112t-43 48t-99.5 16v41q114 -6 322 -6q209 0 311 6v-41q-69 -3 -100 -16t-42.5 -48t-11.5 -112v-479h121zM1428 106.5 q11 -34.5 40.5 -48t94.5 -17.5q128 6 178.5 90.5t50.5 241.5q0 108 -27 183t-95 117t-185 42l-68 -1v-497q0 -76 11 -110.5z" />
<glyph unicode="&#x40b;" horiz-adv-x="1835" d="M1706 104q12 -34 43 -47.5t94 -15.5v-41q-97 6 -315 6q-203 0 -301 -6v41q59 2 88 15.5t41 47.5t12 103v332q0 86 -15 135.5t-59.5 74.5t-132.5 25q-90 0 -176 -27t-139 -69v-445q0 -85 17.5 -124t62 -53t139.5 -15v-41q-258 6 -389 6q-129 0 -375 -6v41q96 1 140.5 15 t61.5 53t17 124v1170h-45q-99 0 -167.5 -43t-117.5 -142.5t-84 -271.5h-47q7 68 7 156q0 140 -15 348q187 -6 633 -6t631 6q-15 -208 -15 -348q0 -88 7 -156h-47q-34 171 -83 270.5t-117.5 143t-166.5 43.5h-47v-680q64 49 176.5 83t237.5 34q185 0 305 -70 q70 -43 99.5 -111.5t29.5 -177.5v-274q0 -69 12 -103z" />
<glyph unicode="&#x40c;" horiz-adv-x="1477" d="M679.5 1703q44.5 44 110 114.5t112.5 95.5q32 16 63 16q32 0 60 -16t43 -45q12 -22 12 -47q0 -31 -18 -59t-51 -46q-45 -25 -120.5 -44t-143.5 -37t-162 -54l-15 25q65 53 109.5 97zM1339.5 -0.5q-63.5 -28.5 -153.5 -28.5q-119 0 -187 49.5t-90 172.5l-55 313 q-18 87 -45.5 136t-82 73t-151.5 24h-26v-522q0 -77 11 -112t42 -48t100 -16v-41q-109 6 -309 6q-219 0 -323 -6v41q68 3 99 16t42.5 48t11.5 112v1016q0 77 -11.5 112t-42.5 48t-99 16v41q104 -6 323 -6q200 0 309 6v-41q-69 -3 -100 -16t-42 -48t-11 -112v-459 q195 15 268 111q32 42 45.5 97.5t29.5 183t54 192.5q38 67 101.5 94t115.5 27q54 0 101 -20t76.5 -60.5t29.5 -100.5q0 -80 -52 -129t-134 -49q-71 0 -111.5 37.5t-40.5 100.5q0 59 36 102.5t91 54.5q-11 8 -45 8q-43 -3 -77.5 -27t-53.5 -59q-31 -54 -46 -172.5 t-30.5 -188.5t-62.5 -124t-135 -80q142 -6 240 -34t159.5 -88t83.5 -161l59 -274q12 -57 24.5 -88.5t30 -45t44.5 -13.5q23 1 40.5 12.5t39.5 34.5l28 -25q-55 -62 -118.5 -90.5z" />
<glyph unicode="&#x40e;" horiz-adv-x="1352" d="M1225 1444q95 0 157 6v-41q-45 -17 -90.5 -72t-103.5 -163l-404 -812l-96 -194q-46 -94 -90 -137q-60 -60 -172 -60q-69 0 -120.5 22t-79 60.5t-27.5 87.5q0 48 24.5 85t66 57t91.5 20q80 0 128 -34.5t48 -96.5q0 -55 -38 -94.5t-99 -59.5q12 -6 41 -6q58 0 102 40 t82 120l47 97l-577 1015q-68 115 -135 125v41q82 -6 272 -6q218 0 326 6v-41q-106 -6 -106 -81q0 -35 24 -83l361 -642l208 419q79 158 79 249q0 71 -45 103t-128 35v41q138 -6 254 -6zM1133 1897q46 -38 46 -97q0 -89 -123 -151q-144 -72 -361 -72q-216 0 -360 72 q-121 62 -121 151q0 59 45 97t117 38q71 0 118.5 -38t47.5 -99q0 -51 -36 -85.5t-91 -47.5q55 -24 131.5 -35.5t148.5 -11.5t148.5 12t130.5 37q-56 15 -89.5 48.5t-33.5 82.5q0 61 46.5 99t119.5 38q70 0 116 -38z" />
<glyph unicode="&#x40f;" horiz-adv-x="1638" d="M1471 1393q-31 -13 -42.5 -48t-11.5 -112v-1016q0 -77 11.5 -112t42.5 -48t100 -16v-41q-105 6 -324 6l-93 -1q-131 -6 -210 -92t-98 -271h-47q-20 185 -98 270.5t-209 92.5l-99 1q-219 0 -323 -6v41q68 3 99 16t42.5 48t11.5 112v1016q0 77 -11.5 112t-42.5 48t-99 16 v41q103 -6 323 -6q200 0 309 6v-41q-69 -3 -100 -16t-42 -48t-11 -112v-1016q0 -77 12.5 -113.5t46.5 -49.5t107 -13h211q72 0 106.5 13t47 49.5t12.5 113.5v1016q0 77 -11.5 112t-43 48t-99.5 16v41q108 -6 309 -6q219 0 324 6v-41q-69 -3 -100 -16z" />
<glyph unicode="&#x410;" horiz-adv-x="1366" d="M1312 73.5q34 -30.5 68 -32.5v-41q-123 6 -311 6q-210 0 -311 -6v41q77 3 110.5 19t33.5 56q0 31 -25 97l-123 336h-446l-54 -141q-56 -144 -56 -228q0 -76 45 -106t136 -33v-41q-138 6 -254 6q-94 0 -156 -6v41q102 17 176 215l467 1198q33 -3 71 -3q40 0 71 3 l497 -1282q27 -68 61 -98.5zM536 1143l-212 -553h415z" />
<glyph unicode="&#x411;" horiz-adv-x="1327" d="M670 864q211 0 344 -59.5t191.5 -157t58.5 -217.5q0 -123 -61 -219t-191.5 -152.5t-331.5 -56.5q-44 0 -132.5 2t-178.5 2q-195 0 -299 -6v41q68 3 99 16t42.5 48t11.5 112v1016q0 77 -11.5 112t-42.5 48t-99 16v41q221 -6 667 -6q283 0 404 6q-15 -165 -15 -303 q0 -94 7 -139h-48q-27 148 -72 234.5t-109 123.5t-154 37h-60q-64 0 -92.5 -10.5t-38.5 -40t-10 -95.5v-394zM558 107.5q9 -36.5 33.5 -51.5t74.5 -15q98 0 155 45t80 128t23 208q0 128 -26.5 216t-91.5 136.5t-177 48.5l-80 -1v-605q0 -73 9 -109.5z" />
<glyph unicode="&#x412;" horiz-adv-x="1376" d="M1096.5 694.5q115.5 -53.5 167 -131t51.5 -166.5q0 -127 -68 -216.5t-195 -135t-302 -45.5q-44 0 -150.5 3t-214.5 3q-211 0 -315 -6v41q68 3 99 16t42.5 48t11.5 112v1016q0 77 -11.5 112t-42.5 48t-99 16v41q103 -6 311 -6q82 0 182 2t139 2q165 0 278.5 -40.5 t170.5 -113t57 -168.5q0 -76 -44 -149t-136.5 -129.5t-228.5 -81.5v-4q182 -14 297.5 -67.5zM823.5 861q53.5 91 53.5 243q0 154 -48 229.5t-153 75.5q-55 0 -81.5 -14.5t-36 -51t-9.5 -110.5v-463h88q133 0 186.5 91zM559.5 108q10.5 -35 39.5 -48t91 -13q285 0 285 359 q0 161 -81.5 245t-258.5 84h-86v-518q0 -74 10.5 -109z" />
<glyph unicode="&#x413;" horiz-adv-x="1171" d="M737 1444q277 0 396 6q-15 -170 -15 -311q0 -97 6 -156h-47q-27 157 -73 249t-113.5 131.5t-165.5 39.5h-35q-64 0 -92.5 -10.5t-38.5 -40t-10 -95.5v-1040q0 -77 13.5 -112t50.5 -48t118 -16v-41q-120 6 -338 6q-219 0 -323 -6v41q68 3 99 16t42.5 48t11.5 112v1016 q0 77 -11.5 112t-42.5 48t-99 16v41q221 -6 667 -6z" />
<glyph unicode="&#x414;" horiz-adv-x="1335" d="M1292 -225q0 -85 6 -133h-47q-21 133 -65.5 211.5t-113.5 112.5t-169 34h-495q-100 0 -169 -34t-114 -112.5t-66 -211.5h-47q6 48 6 133q0 116 -14 266h37q146 0 223 170.5t105 398.5t53 623q1 15 1 40q0 55 -14.5 82.5t-49 39t-103.5 14.5v41q86 -6 211 -6q31 0 91 3 t89 3q51 0 142 -3t151 -3q211 0 317 6v-41q-74 -3 -107 -16t-45.5 -48t-12.5 -112v-1016q0 -77 11.5 -113.5t43 -49.5t98.5 -13h62q-15 -146 -15 -266zM752.5 1344.5q-13.5 37.5 -43 51t-84.5 13.5h-27q-46 0 -71.5 -14t-39 -51.5t-18.5 -110.5q-6 -64 -28.5 -381.5 t-84 -527t-177.5 -283.5h421q72 0 106.5 13t47 49.5t12.5 113.5v1016q0 74 -13.5 111.5z" />
<glyph unicode="&#x415;" horiz-adv-x="1298" d="M1192 311q0 -188 14 -311q-139 6 -469 6q-446 0 -667 -6v41q68 3 99 16t42.5 48t11.5 112v1016q0 77 -11.5 112t-42.5 48t-99 16v41q221 -6 667 -6q301 0 428 6q-14 -169 -14 -303q0 -91 6 -139h-47q-21 149 -64 235t-109 123t-163 37h-84q-64 0 -92.5 -10.5t-38.5 -40 t-10 -95.5v-507h65q110 0 166 80t78 190h47q-7 -101 -7 -193l1 -98q0 -104 12 -291h-47q-41 271 -250 271h-65v-516q0 -66 10 -95.5t38.5 -40t92.5 -10.5h101q144 0 233.5 100t126.5 336h47q-6 -67 -6 -172z" />
<glyph unicode="&#x416;" horiz-adv-x="2109" d="M1974.5 -0.5q-63.5 -28.5 -153.5 -28.5q-119 0 -187 49.5t-90 172.5l-55 313q-15 86 -42 135.5t-80 73.5t-146 24h-8v-522q0 -77 11 -112t42 -48t100 -16v-41q-109 6 -309 6q-219 0 -323 -6v41q68 3 99 16t42.5 48t11.5 112v522h-8q-93 0 -146.5 -24t-80.5 -73.5 t-42 -135.5l-55 -313q-22 -123 -90 -172.5t-186 -49.5q-84 0 -145.5 28.5t-110.5 90.5l28 25q20 -24 37.5 -35t42.5 -12q27 0 44 13.5t29.5 44.5t24.5 89l64 274q20 99 77 159t147 88.5t220 34.5q-87 26 -133 81q-37 44 -52 109t-30 196.5t-43 179.5q-15 33 -50 58t-81 28 q-27 3 -45 -8q56 -11 92.5 -52t36.5 -95q0 -69 -41.5 -107.5t-111.5 -38.5q-83 0 -136 48t-53 128q0 59 30 100t78 61t103 20q54 0 117 -27.5t98 -93.5q36 -64 48.5 -181t22.5 -180t44 -110q70 -96 256 -112v458q0 77 -11.5 112t-42.5 48t-99 16v41q104 -6 323 -6 q200 0 309 6v-41q-69 -3 -100 -16t-42 -48t-11 -112v-458q185 17 255 112q28 39 39.5 93t25.5 184t50 194q35 66 98 93.5t117 27.5q55 0 103 -20t78 -60.5t30 -100.5q0 -53 -24.5 -93t-67 -61.5t-96.5 -21.5q-70 0 -112 38.5t-42 107.5q0 54 36.5 95t92.5 52q-14 9 -34 9 q-48 0 -87.5 -26t-54.5 -61q-28 -48 -41.5 -169.5t-27.5 -193.5t-56 -122q-46 -55 -133 -80q137 -7 231 -35t153 -88t81 -160l59 -274q13 -58 25.5 -89t29.5 -44.5t44 -13.5q42 3 79 47l29 -25q-55 -62 -118.5 -90.5z" />
<glyph unicode="&#x417;" horiz-adv-x="1233" d="M206 1371.5q11 -25.5 34 -25.5q9 0 18 4.5t31 17.5q55 38 94.5 59.5t99.5 36.5t146 15q138 0 243.5 -37.5t164.5 -107.5t59 -165q-1 -106 -73.5 -188.5t-181 -135t-223.5 -77.5q138 -2 265.5 -45t209 -128t81.5 -206q0 -129 -91 -224t-238.5 -144.5t-312.5 -49.5 q-234 0 -368 97q-50 34 -81.5 82t-31.5 106q0 50 23.5 88.5t63.5 59t87 20.5q74 0 118 -42.5t44 -121.5q0 -63 -42 -109t-116 -63q39 -32 110.5 -52t160.5 -20q170 0 265 95.5t95 273.5q0 97 -30 178.5t-92 132t-152 54.5q-49 -27 -88 -27q-43 0 -43 35q0 33 47 33 q23 0 86 -13q106 43 149 135.5t43 219.5q0 148 -57 217t-170 69q-111 0 -188 -58t-118.5 -157t-49.5 -223h-47q0 334 -9 475h47q7 -59 18 -84.5z" />
<glyph unicode="&#x418;" horiz-adv-x="1679" d="M1512 1393q-31 -13 -42.5 -48t-11.5 -112v-1016q0 -77 11.5 -112t42.5 -48t100 -16v-41q-105 6 -324 6q-201 0 -309 -6v41q68 3 99.5 16t43 48t11.5 112v959l-584 -987q2 -63 14.5 -93t43 -41t95.5 -14v-41q-109 6 -309 6q-219 0 -323 -6v41q68 3 99 16t42.5 48t11.5 112 v1016q0 77 -11.5 112t-42.5 48t-99 16v41q104 -6 323 -6q200 0 309 6v-41q-69 -3 -100 -16t-42 -48t-11 -112v-954l583 988q-2 60 -15 88.5t-44 39.5t-94 14v41q108 -6 309 -6q219 0 324 6v-41q-69 -3 -100 -16z" />
<glyph unicode="&#x419;" horiz-adv-x="1679" d="M1512 1393q-31 -13 -42.5 -48t-11.5 -112v-1016q0 -77 11.5 -112t42.5 -48t100 -16v-41q-105 6 -324 6q-201 0 -309 -6v41q68 3 99.5 16t43 48t11.5 112v959l-584 -987q2 -63 14.5 -93t43 -41t95.5 -14v-41q-109 6 -309 6q-219 0 -323 -6v41q68 3 99 16t42.5 48t11.5 112 v1016q0 77 -11.5 112t-42.5 48t-99 16v41q104 -6 323 -6q200 0 309 6v-41q-69 -3 -100 -16t-42 -48t-11 -112v-954l583 988q-2 60 -15 88.5t-44 39.5t-94 14v41q108 -6 309 -6q219 0 324 6v-41q-69 -3 -100 -16zM1278 1897q46 -38 46 -97q0 -89 -123 -151q-144 -72 -361 -72 q-216 0 -360 72q-121 62 -121 151q0 59 45 97t117 38q71 0 118.5 -38t47.5 -99q0 -51 -36 -85.5t-91 -47.5q55 -24 131.5 -35.5t148.5 -11.5t148.5 12t130.5 37q-56 15 -89.5 48.5t-33.5 82.5q0 61 46.5 99t119.5 38q70 0 116 -38z" />
<glyph unicode="&#x41a;" horiz-adv-x="1477" d="M1339.5 -0.5q-63.5 -28.5 -153.5 -28.5q-119 0 -187 49.5t-90 172.5l-55 313q-18 87 -45.5 136t-82 73t-151.5 24h-26v-522q0 -77 11 -112t42 -48t100 -16v-41q-109 6 -309 6q-219 0 -323 -6v41q68 3 99 16t42.5 48t11.5 112v1016q0 77 -11.5 112t-42.5 48t-99 16v41 q104 -6 323 -6q200 0 309 6v-41q-69 -3 -100 -16t-42 -48t-11 -112v-459q195 15 268 111q32 42 45.5 97.5t29.5 183t54 192.5q38 67 101.5 94t115.5 27q54 0 101 -20t76.5 -60.5t29.5 -100.5q0 -80 -52 -129t-134 -49q-71 0 -111.5 37.5t-40.5 100.5q0 59 36 102.5t91 54.5 q-11 8 -45 8q-43 -3 -77.5 -27t-53.5 -59q-31 -54 -46 -172.5t-30.5 -188.5t-62.5 -124t-135 -80q142 -6 240 -34t159.5 -88t83.5 -161l59 -274q12 -57 24.5 -88.5t30 -45t44.5 -13.5q23 1 40.5 12.5t39.5 34.5l28 -25q-55 -62 -118.5 -90.5z" />
<glyph unicode="&#x41b;" horiz-adv-x="1475" d="M1305.5 1393q-33.5 -13 -46 -48t-12.5 -112v-1016q0 -77 12.5 -112t46 -48t107.5 -16v-41q-108 6 -334 6q-223 0 -340 -6v41q81 3 118 16t51 48t14 112v1016q0 74 -13.5 111.5t-43 51t-85.5 13.5h-14q-51 0 -79 -14t-42.5 -51.5t-19.5 -110.5q-6 -66 -32.5 -447.5 t-121.5 -598t-274 -216.5q-62 0 -113.5 24t-82 67.5t-30.5 99.5q0 52 24.5 91.5t67.5 61t95 21.5q68 0 109.5 -34t41.5 -93q0 -71 -44 -119.5t-120 -69.5q25 -10 52 -10q146 0 223.5 174t106 413t51.5 636q2 32 2 45q0 53 -15 79.5t-50 37.5t-103 14v41q85 -6 211 -6 q31 0 90.5 3t89.5 3q50 0 141.5 -3t151.5 -3q209 0 317 6v-41q-74 -3 -107.5 -16z" />
<glyph unicode="&#x41c;" horiz-adv-x="1898" d="M1731 1393q-31 -13 -42.5 -48t-11.5 -112v-1016q0 -77 11.5 -112t43 -48t99.5 -16v-41q-114 6 -322 6q-219 0 -323 -6v41q74 3 107.5 16t46 48t12.5 112v1071l-494 -1290h-33l-553 1319v-981q0 -121 13 -177.5t53.5 -82.5t132.5 -35v-41q-79 6 -221 6q-113 0 -178 -6v41 q67 9 98.5 34.5t43 78t11.5 157.5v922q0 77 -11.5 112t-42.5 48t-99 16v41q65 -6 178 -6q188 0 323 6l413 -995l378 989h145q208 0 322 6v-41q-69 -3 -100 -16z" />
<glyph unicode="&#x41d;" horiz-adv-x="1638" d="M1471 1393q-31 -13 -42.5 -48t-11.5 -112v-1016q0 -77 11.5 -112t42.5 -48t100 -16v-41q-102 6 -311 6q-208 0 -322 -6v41q68 3 99.5 16t43 48t11.5 112v492h-543v-492q0 -77 11 -112t42 -48t100 -16v-41q-109 6 -309 6q-219 0 -323 -6v41q68 3 99 16t42.5 48t11.5 112 v1016q0 77 -11.5 112t-42.5 48t-99 16v41q103 -6 323 -6q200 0 309 6v-41q-69 -3 -100 -16t-42 -48t-11 -112v-483h543v483q0 77 -11.5 112t-43 48t-99.5 16v41q114 -6 322 -6q209 0 311 6v-41q-69 -3 -100 -16z" />
<glyph unicode="&#x41e;" horiz-adv-x="1624" d="M1192.5 1391q163.5 -88 253.5 -255.5t90 -398.5q0 -226 -92.5 -400t-257.5 -270t-375 -96q-217 0 -380.5 88t-253 255.5t-89.5 398.5q0 226 92 400t257 270t376 96q216 0 379.5 -88zM606.5 1350.5q-85.5 -91.5 -132 -255t-46.5 -374.5q0 -213 52 -375t141 -250t198 -88 q113 0 198.5 91.5t132 255t46.5 374.5q0 212 -52 374.5t-141.5 250.5t-197.5 88q-113 0 -198.5 -91.5z" />
<glyph unicode="&#x41f;" horiz-adv-x="1638" d="M1471 1393q-31 -13 -42.5 -48t-11.5 -112v-1016q0 -77 11.5 -112t42.5 -48t100 -16v-41q-105 6 -324 6q-201 0 -309 -6v41q68 3 99.5 16t43 48t11.5 112v1016q0 77 -12.5 113.5t-47 49.5t-106.5 13h-211q-73 0 -107 -13t-46.5 -49.5t-12.5 -113.5v-1016q0 -77 11 -112 t42 -48t100 -16v-41q-109 6 -309 6q-219 0 -323 -6v41q68 3 99 16t42.5 48t11.5 112v1016q0 77 -11.5 112t-42.5 48t-99 16v41q103 -6 323 -6q90 0 239 3t191 3t188 -3t236 -3q219 0 324 6v-41q-69 -3 -100 -16z" />
<glyph unicode="&#x420;" horiz-adv-x="1313" d="M549 229q0 -82 17 -119.5t61.5 -50.5t140.5 -14v-45q-252 6 -375 6q-59 0 -323 -6v41q68 3 99 16t42.5 48t11.5 112v1016q0 77 -11.5 112t-42.5 48t-99 16v41q103 -6 311 -6q82 0 182 2t139 2q186 0 313.5 -50.5t191 -141.5t63.5 -212q0 -112 -57 -216t-194 -173 t-362 -69h-108v-357zM867 733.5q63 106.5 63 288.5q0 199 -59 293t-195 94q-55 0 -81.5 -14.5t-36 -51t-9.5 -110.5v-606h88q167 0 230 106.5z" />
<glyph unicode="&#x421;" horiz-adv-x="1444" d="M1265.5 92.5q-11.5 28.5 -33.5 28.5q-16 0 -42 -17q-60 -42 -111.5 -70t-118 -45.5t-149.5 -17.5q-217 0 -380.5 88t-253 255.5t-89.5 398.5q0 226 92 400t257 270t376 96q122 0 208.5 -35t168.5 -98q23 -18 40 -18q42 0 52 122h47q-8 -139 -8 -496h-47 q-13 103 -28.5 167.5t-45 113.5t-80.5 90q-51 49 -119 74.5t-141 25.5q-141 0 -232 -97t-133 -256t-42 -351t44 -351t137.5 -254.5t233.5 -95.5q71 0 139 26t115 75q52 40 81.5 92.5t44 121.5t26.5 181h47q0 -371 8 -516h-47q-5 64 -16.5 92.5z" />
<glyph unicode="&#x422;" horiz-adv-x="1368" d="M66 1102q0 140 -15 348q187 -6 633 -6t631 6q-15 -208 -15 -348q0 -88 7 -156h-47q-34 171 -83 270.5t-117.5 143t-166.5 43.5h-47v-1170q0 -85 17.5 -124t62 -53t139.5 -15v-41q-258 6 -389 6q-129 0 -375 -6v41q96 1 140.5 15t61.5 53t17 124v1170h-45 q-99 0 -167.5 -43t-117.5 -142.5t-84 -271.5h-47q7 68 7 156z" />
<glyph unicode="&#x423;" horiz-adv-x="1352" d="M1225 1444q95 0 157 6v-41q-45 -17 -90.5 -72t-103.5 -163l-404 -812l-96 -194q-46 -94 -90 -137q-60 -60 -172 -60q-69 0 -120.5 22t-79 60.5t-27.5 87.5q0 48 24.5 85t66 57t91.5 20q80 0 128 -34.5t48 -96.5q0 -55 -38 -94.5t-99 -59.5q12 -6 41 -6q58 0 102 40 t82 120l47 97l-577 1015q-68 115 -135 125v41q82 -6 272 -6q218 0 326 6v-41q-106 -6 -106 -81q0 -35 24 -83l361 -642l208 419q79 158 79 249q0 71 -45 103t-128 35v41q138 -6 254 -6z" />
<glyph unicode="&#x424;" horiz-adv-x="1890" d="M1666 1138.5q192 -144.5 192 -401.5q0 -167 -88 -293.5t-256 -204t-404 -97.5v-76q0 -78 11.5 -112.5t42 -47.5t100.5 -17v-41q-104 7 -310 7q-226 0 -323 -7v41q69 4 99.5 17t42 48t11.5 112v75q-365 26 -558 176t-193 416q0 162 88.5 285t257 197.5t405.5 93.5v75 q0 77 -11.5 112t-42 48t-99.5 17v41q97 -7 323 -7q206 0 310 7v-41q-70 -4 -100.5 -17t-42 -47.5t-11.5 -112.5v-75q364 -26 556 -170.5zM470.5 1115q-97.5 -129 -97.5 -374q0 -257 101 -393t310 -170v1096q-216 -30 -313.5 -159zM1421 343q97 134 97 386q0 248 -100 378.5 t-308 164.5v-1095q214 32 311 166z" />
<glyph unicode="&#x425;" horiz-adv-x="1415" d="M1355.5 83.5q18.5 -20.5 37.5 -29.5t47 -11v-43q-216 8 -281 8q-74 0 -330 -8v43q72 0 104 7.5t32 26.5q0 14 -15 36l-345 506l-163 -224q-94 -126 -94 -215q0 -63 46 -98.5t128 -40.5v-41q-117 6 -323 6q-124 0 -189 -6v41q143 46 297 250l272 367l-442 649 q-29 42 -46.5 62t-36.5 29t-48 11v43q228 -8 293 -8q179 0 313 8v-43q-68 0 -99 -9t-31 -30q0 -16 16 -39l305 -445l151 204q97 125 97 206q0 51 -38.5 79.5t-111.5 33.5v41q117 -6 258 -6q124 0 189 6v-41q-65 -19 -131.5 -76.5t-126.5 -138.5l-261 -347l480 -702 q28 -41 46.5 -61.5z" />
<glyph unicode="&#x426;" horiz-adv-x="1657" d="M1471 1393q-31 -13 -42.5 -48t-11.5 -112v-1016q0 -78 11.5 -114t43 -49t99.5 -13h61q-14 -150 -14 -266q0 -85 6 -133h-47q-21 133 -66 211.5t-114 112.5t-168 34h-410q-42 0 -189 3t-237 3q-219 0 -323 -6v41q68 3 99 16t42.5 48t11.5 112v1016q0 77 -11.5 112 t-42.5 48t-99 16v41q103 -6 323 -6q200 0 309 6v-41q-69 -3 -100 -16t-42 -48t-11 -112v-1016q0 -77 12.5 -113.5t46.5 -49.5t107 -13h211q72 0 106.5 13t47 49.5t12.5 113.5v1016q0 77 -11.5 112t-43 48t-99.5 16v41q108 -6 309 -6q219 0 324 6v-41q-69 -3 -100 -16z" />
<glyph unicode="&#x427;" horiz-adv-x="1536" d="M1368 1393q-31 -13 -42 -48t-11 -112v-1016q0 -77 11 -112t42 -48t100 -16v-41q-270 6 -325 6q-121 0 -373 -6v45q96 1 140.5 14t61.5 50.5t17 119.5v392q-65 -33 -172.5 -58.5t-220.5 -25.5q-189 0 -303 71q-69 44 -96 109.5t-27 177.5v348q0 69 -12.5 103t-44 47.5 t-93.5 15.5v41q99 -6 314 -6q204 0 303 6v-41q-59 -2 -88.5 -15.5t-41 -47.5t-11.5 -103v-405q0 -88 14 -137t57.5 -74t130.5 -25q82 0 159.5 15.5t131.5 41.5v574q0 77 -11.5 112t-42.5 48t-99 16v41q103 -6 323 -6q199 0 309 6v-41q-69 -3 -100 -16z" />
<glyph unicode="&#x428;" horiz-adv-x="2255" d="M2086 1393q-31 -13 -42.5 -48t-11.5 -112v-1016q0 -77 11.5 -112t42.5 -48t99 -16v-41q-97 6 -311 6q-71 0 -198 -3t-169 -3q-47 0 -178.5 3t-193.5 3q-66 0 -199 -3t-186 -3q-44 0 -171 3t-198 3q-213 0 -311 -6v41q68 3 99 16t42.5 48t11.5 112v1016q0 77 -11.5 112 t-42.5 48t-99 16v41q103 -6 323 -6q184 0 289 6v-41q-61 -3 -87.5 -16t-36 -47.5t-9.5 -112.5v-1016q0 -77 12.5 -113.5t46.5 -49.5t107 -13h84q72 0 106.5 13t47 49.5t12.5 113.5v1016q0 78 -9.5 112.5t-36.5 47.5t-88 16v41q105 -6 289 -6q205 0 303 6v-41q-60 -3 -87 -16 t-36.5 -48t-9.5 -112v-1016q0 -75 14 -111.5t48 -49.5t104 -15h84q72 0 106.5 13t47 49.5t12.5 113.5v1016q0 78 -9.5 112.5t-36 47.5t-87.5 16v41q104 -6 289 -6q220 0 323 6v-41q-68 -3 -99 -16z" />
</font>
</defs>
</svg>
